  0
SECTION
  2
HEADER
  9
$ACADVER
  1
AC1015
  9
$ACADMAINTVER
 70
    13
  9
$DWGCODEPAGE
  3
ANSI_932
  9
$INSBASE
 10
0.0
 20
0.0
 30
0.0
  9
$EXTMIN
 10
-0.7540298498788616
 20
-0.3241074615325488
 30
-0.0000000000000015
  9
$EXTMAX
 10
7426.059490319632
 20
5250.498627684773
 30
0.0000000000000137
  9
$LIMMIN
 10
0.0
 20
0.0
  9
$LIMMAX
 10
420.0
 20
297.0
  9
$ORTHOMODE
 70
     1
  9
$REGENMODE
 70
     1
  9
$FILLMODE
 70
     1
  9
$QTEXTMODE
 70
     0
  9
$MIRRTEXT
 70
     1
  9
$LTSCALE
 40
0.5
  9
$ATTMODE
 70
     1
  9
$TEXTSIZE
 40
2.799999999999999
  9
$TRACEWID
 40
1.0
  9
$TEXTSTYLE
  7
SANWA
  9
$CLAYER
  8
0
  9
$CELTYPE
  6
BYLAYER
  9
$CECOLOR
 62
   256
  9
$CELTSCALE
 40
25.0
  9
$DISPSILH
 70
     0
  9
$DIMSCALE
 40
20.0
  9
$DIMASZ
 40
1.5
  9
$DIMEXO
 40
1.0
  9
$DIMDLI
 40
5.0
  9
$DIMRND
 40
0.0
  9
$DIMDLE
 40
0.0
  9
$DIMEXE
 40
0.5
  9
$DIMTP
 40
0.0
  9
$DIMTM
 40
0.0
  9
$DIMTXT
 40
2.0
  9
$DIMCEN
 40
0.0
  9
$DIMTSZ
 40
0.0
  9
$DIMTOL
 70
     0
  9
$DIMLIM
 70
     0
  9
$DIMTIH
 70
     0
  9
$DIMTOH
 70
     0
  9
$DIMSE1
 70
     0
  9
$DIMSE2
 70
     0
  9
$DIMTAD
 70
     1
  9
$DIMZIN
 70
     8
  9
$DIMBLK
  1

  9
$DIMASO
 70
     1
  9
$DIMSHO
 70
     1
  9
$DIMPOST
  1

  9
$DIMAPOST
  1

  9
$DIMALT
 70
     0
  9
$DIMALTD
 70
     2
  9
$DIMALTF
 40
0.0394
  9
$DIMLFAC
 40
1.0
  9
$DIMTOFL
 70
     1
  9
$DIMTVP
 40
0.0
  9
$DIMTIX
 70
     1
  9
$DIMSOXD
 70
     0
  9
$DIMSAH
 70
     0
  9
$DIMBLK1
  1

  9
$DIMBLK2
  1

  9
$DIMSTYLE
  2
SANWA
  9
$DIMCLRD
 70
   256
  9
$DIMCLRE
 70
   256
  9
$DIMCLRT
 70
   256
  9
$DIMTFAC
 40
1.0
  9
$DIMGAP
 40
1.0
  9
$DIMJUST
 70
     0
  9
$DIMSD1
 70
     0
  9
$DIMSD2
 70
     0
  9
$DIMTOLJ
 70
     1
  9
$DIMTZIN
 70
     0
  9
$DIMALTZ
 70
     0
  9
$DIMALTTZ
 70
     0
  9
$DIMUPT
 70
     0
  9
$DIMDEC
 70
     4
  9
$DIMTDEC
 70
     4
  9
$DIMALTU
 70
     2
  9
$DIMALTTD
 70
     2
  9
$DIMTXSTY
  7
SANWA
  9
$DIMAUNIT
 70
     0
  9
$DIMADEC
 70
     0
  9
$DIMALTRND
 40
0.0
  9
$DIMAZIN
 70
     0
  9
$DIMDSEP
 70
    46
  9
$DIMATFIT
 70
     3
  9
$DIMFRAC
 70
     0
  9
$DIMLDRBLK
  1

  9
$DIMLUNIT
 70
     2
  9
$DIMLWD
 70
    -2
  9
$DIMLWE
 70
    -2
  9
$DIMTMOVE
 70
     0
  9
$LUNITS
 70
     2
  9
$LUPREC
 70
     4
  9
$SKETCHINC
 40
1.0
  9
$FILLETRAD
 40
100.0
  9
$AUNITS
 70
     0
  9
$AUPREC
 70
     0
  9
$MENU
  1
acad
  9
$ELEVATION
 40
0.0
  9
$PELEVATION
 40
0.0
  9
$THICKNESS
 40
0.0
  9
$LIMCHECK
 70
     0
  9
$CHAMFERA
 40
10.0
  9
$CHAMFERB
 40
10.0
  9
$CHAMFERC
 40
0.0
  9
$CHAMFERD
 40
0.0
  9
$SKPOLY
 70
     1
  9
$TDCREATE
 40
2451589.862323842
  9
$TDUCREATE
 40
2451589.487323842
  9
$TDUPDATE
 40
2454145.371225578
  9
$TDUUPDATE
 40
2454144.996225578
  9
$TDINDWG
 40
0.2303107755
  9
$TDUSRTIMER
 40
0.2303107755
  9
$USRTIMER
 70
     1
  9
$ANGBASE
 50
0.0
  9
$ANGDIR
 70
     0
  9
$PDMODE
 70
     0
  9
$PDSIZE
 40
0.0
  9
$PLINEWID
 40
0.0
  9
$SPLFRAME
 70
     0
  9
$SPLINETYPE
 70
     6
  9
$SPLINESEGS
 70
     8
  9
$HANDSEED
  5
C3DA
  9
$SURFTAB1
 70
     6
  9
$SURFTAB2
 70
     6
  9
$SURFTYPE
 70
     6
  9
$SURFU
 70
     6
  9
$SURFV
 70
     6
  9
$UCSBASE
  2

  9
$UCSNAME
  2

  9
$UCSORG
 10
0.0
 20
0.0
 30
0.0
  9
$UCSXDIR
 10
1.0
 20
0.0
 30
0.0
  9
$UCSYDIR
 10
0.0
 20
1.0
 30
0.0
  9
$UCSORTHOREF
  2

  9
$UCSORTHOVIEW
 70
     0
  9
$UCSORGTOP
 10
0.0
 20
0.0
 30
0.0
  9
$UCSORGBOTTOM
 10
0.0
 20
0.0
 30
0.0
  9
$UCSORGLEFT
 10
0.0
 20
0.0
 30
0.0
  9
$UCSORGRIGHT
 10
0.0
 20
0.0
 30
0.0
  9
$UCSORGFRONT
 10
0.0
 20
0.0
 30
0.0
  9
$UCSORGBACK
 10
0.0
 20
0.0
 30
0.0
  9
$PUCSBASE
  2

  9
$PUCSNAME
  2

  9
$PUCSORG
 10
0.0
 20
0.0
 30
0.0
  9
$PUCSXDIR
 10
1.0
 20
0.0
 30
0.0
  9
$PUCSYDIR
 10
0.0
 20
1.0
 30
0.0
  9
$PUCSORTHOREF
  2

  9
$PUCSORTHOVIEW
 70
     0
  9
$PUCSORGTOP
 10
0.0
 20
0.0
 30
0.0
  9
$PUCSORGBOTTOM
 10
0.0
 20
0.0
 30
0.0
  9
$PUCSORGLEFT
 10
0.0
 20
0.0
 30
0.0
  9
$PUCSORGRIGHT
 10
0.0
 20
0.0
 30
0.0
  9
$PUCSORGFRONT
 10
0.0
 20
0.0
 30
0.0
  9
$PUCSORGBACK
 10
0.0
 20
0.0
 30
0.0
  9
$USERI1
 70
     0
  9
$USERI2
 70
     0
  9
$USERI3
 70
     0
  9
$USERI4
 70
     0
  9
$USERI5
 70
     0
  9
$USERR1
 40
0.0
  9
$USERR2
 40
0.0
  9
$USERR3
 40
0.0
  9
$USERR4
 40
0.0
  9
$USERR5
 40
0.0
  9
$WORLDVIEW
 70
     1
  9
$SHADEDGE
 70
     3
  9
$SHADEDIF
 70
    70
  9
$TILEMODE
 70
     1
  9
$MAXACTVP
 70
    48
  9
$PINSBASE
 10
0.0
 20
0.0
 30
0.0
  9
$PLIMCHECK
 70
     0
  9
$PEXTMIN
 10
1.000000000000000E+20
 20
1.000000000000000E+20
 30
1.000000000000000E+20
  9
$PEXTMAX
 10
-1.000000000000000E+20
 20
-1.000000000000000E+20
 30
-1.000000000000000E+20
  9
$PLIMMIN
 10
-6996.302392501092
 20
-3651.249582209533
  9
$PLIMMAX
 10
938.1879353110262
 20
1959.047251029004
  9
$UNITMODE
 70
     0
  9
$VISRETAIN
 70
     1
  9
$PLINEGEN
 70
     0
  9
$PSLTSCALE
 70
     1
  9
$TREEDEPTH
 70
  3020
  9
$CMLSTYLE
  2
STANDARD
  9
$CMLJUST
 70
     0
  9
$CMLSCALE
 40
1.0
  9
$PROXYGRAPHICS
 70
     1
  9
$MEASUREMENT
 70
     1
  9
$CELWEIGHT
370
    -1
  9
$ENDCAPS
280
     0
  9
$JOINSTYLE
280
     0
  9
$LWDISPLAY
290
     0
  9
$INSUNITS
 70
     0
  9
$HYPERLINKBASE
  1

  9
$STYLESHEET
  1
sanwa3.ctb
  9
$XEDIT
290
     1
  9
$CEPSNTYPE
380
     0
  9
$PSTYLEMODE
290
     1
  9
$FINGERPRINTGUID
  2
{9507A275-7034-4CCF-A6DC-0BFB42BC7C6F}
  9
$VERSIONGUID
  2
{01419A93-CCB4-4B3A-BF78-A9CDC6B5F1F0}
  9
$EXTNAMES
290
     1
  9
$PSVPSCALE
 40
0.0
  9
$OLESTARTUP
290
     0
  0
ENDSEC
  0
SECTION
  2
CLASSES
  0
CLASS
  1
LWPOLYLINE
  2
AcDbPolyline
  3
AutoCAD 2000
 90
    32768
280
     0
281
     1
  0
CLASS
  1
DICTIONARYVAR
  2
AcDbDictionaryVar
  3
AutoCAD 2000
 90
        0
280
     0
281
     0
  0
CLASS
  1
HATCH
  2
AcDbHatch
  3
AutoCAD 2000
 90
    32768
280
     0
281
     1
  0
CLASS
  1
ACDBDICTIONARYWDFLT
  2
AcDbDictionaryWithDefault
  3
AutoCAD 2000
 90
        0
280
     0
281
     0
  0
CLASS
  1
ACDBPLACEHOLDER
  2
AcDbPlaceHolder
  3
AutoCAD 2000
 90
        0
280
     0
281
     0
  0
CLASS
  1
LAYOUT
  2
AcDbLayout
  3
AutoCAD 2000
 90
        0
280
     0
281
     0
  0
ENDSEC
  0
SECTION
  2
TABLES
  0
TABLE
  2
VPORT
  5
746D
330
0
100
AcDbSymbolTable
 70
     2
  0
VPORT
  5
C3D9
330
746D
100
AcDbSymbolTableRecord
100
AcDbViewportTableRecord
  2
*Active
 70
     0
 10
0.0
 20
0.0
 11
1.0
 21
1.0
 12
3712.652730234877
 22
2625.08726011162
 13
0.0
 23
0.0
 14
10.0
 24
10.0
 15
10.0
 25
10.0
 16
0.0
 26
0.0
 36
1.0
 17
0.0
 27
0.0
 37
0.0
 40
5473.01864023546
 41
1.368320610687022
 42
50.0
 43
0.0
 44
0.0
 50
0.0
 51
0.0
 71
     0
 72
   100
 73
     1
 74
     0
 75
     0
 76
     0
 77
     0
 78
     0
281
     0
 65
     1
110
0.0
120
0.0
130
0.0
111
1.0
121
0.0
131
0.0
112
0.0
122
1.0
132
0.0
 79
     0
146
0.0
  0
ENDTAB
  0
TABLE
  2
LTYPE
  5
746A
330
0
100
AcDbSymbolTable
 70
     5
  0
LTYPE
  5
7477
330
746A
100
AcDbSymbolTableRecord
100
AcDbLinetypeTableRecord
  2
BYBLOCK
 70
     0
  3

 72
    65
 73
     0
 40
0.0
  0
LTYPE
  5
7478
330
746A
100
AcDbSymbolTableRecord
100
AcDbLinetypeTableRecord
  2
BYLAYER
 70
     0
  3

 72
    65
 73
     0
 40
0.0
  0
LTYPE
  5
7479
330
746A
100
AcDbSymbolTableRecord
100
AcDbLinetypeTableRecord
  2
CONTINUOUS
 70
     0
  3
Solid line
 72
    65
 73
     0
 40
0.0
  0
LTYPE
  5
7D54
330
746A
100
AcDbSymbolTableRecord
100
AcDbLinetypeTableRecord
  2
CENTER2
 70
     0
  3
Center (.5x) ___ _ ___ _ ___ _ ___ _ ___ _ ___
 72
    65
 73
     4
 40
28.57499999999999
 49
19.05
 74
     0
 49
-3.174999999999999
 74
     0
 49
3.174999999999999
 74
     0
 49
-3.174999999999999
 74
     0
  0
LTYPE
  5
7D55
330
746A
100
AcDbSymbolTableRecord
100
AcDbLinetypeTableRecord
  2
DOT
 70
     0
  3
Dot . . . . . . . . . . . . . . . . . . . . . .
 72
    65
 73
     2
 40
6.349999999999999
 49
0.0
 74
     0
 49
-6.349999999999999
 74
     0
  0
LTYPE
  5
7D56
330
746A
100
AcDbSymbolTableRecord
100
AcDbLinetypeTableRecord
  2
HIDDEN2
 70
     0
  3
Hidden (.5x) _ _ _ _ _ _ _ _ _ _ _ _ _ _ _ _ _
 72
    65
 73
     2
 40
4.762499999999999
 49
3.174999999999999
 74
     0
 49
-1.587499999999999
 74
     0
  0
LTYPE
  5
7D57
330
746A
100
AcDbSymbolTableRecord
100
AcDbLinetypeTableRecord
  2
PHANTOM2
 70
     0
  3
Phantom (.5x) ___ _ _ ___ _ _ ___ _ _ ___ _ _
 72
    65
 73
     6
 40
31.75
 49
15.875
 74
     0
 49
-3.174999999999999
 74
     0
 49
3.174999999999999
 74
     0
 49
-3.174999999999999
 74
     0
 49
3.174999999999999
 74
     0
 49
-3.174999999999999
 74
     0
  0
ENDTAB
  0
TABLE
  2
LAYER
  5
7467
330
0
100
AcDbSymbolTable
 70
     7
  0
LAYER
  5
7474
330
7467
100
AcDbSymbolTableRecord
100
AcDbLayerTableRecord
  2
0
 70
     0
 62
     7
  6
CONTINUOUS
370
    -3
390
8692
  0
LAYER
  5
7485
330
7467
100
AcDbSymbolTableRecord
100
AcDbLayerTableRecord
  2
DEFPOINTS
 70
     0
 62
     7
  6
CONTINUOUS
290
     0
370
    -3
390
8692
  0
LAYER
  5
7486
330
7467
100
AcDbSymbolTableRecord
100
AcDbLayerTableRecord
  2
OBJECT
 70
     0
 62
     7
  6
CONTINUOUS
370
    -3
390
8692
  0
LAYER
  5
7950
330
7467
100
AcDbSymbolTableRecord
100
AcDbLayerTableRecord
  2
枠
 70
     0
 62
     3
  6
CONTINUOUS
370
    -3
390
8692
  0
LAYER
  5
7D58
330
7467
100
AcDbSymbolTableRecord
100
AcDbLayerTableRecord
  2
寸法引出
 70
     0
 62
     2
  6
CONTINUOUS
370
    -3
390
8692
  0
LAYER
  5
7D59
330
7467
100
AcDbSymbolTableRecord
100
AcDbLayerTableRecord
  2
鉄筋
 70
     0
 62
     4
  6
CONTINUOUS
370
    -3
390
8692
  0
LAYER
  5
7D5A
330
7467
100
AcDbSymbolTableRecord
100
AcDbLayerTableRecord
  2
補助線
 70
     0
 62
     6
  6
CONTINUOUS
370
    -3
390
8692
  0
ENDTAB
  0
TABLE
  2
STYLE
  5
7468
330
0
100
AcDbSymbolTable
 70
     4
  0
STYLE
  5
7475
330
7468
100
AcDbSymbolTableRecord
100
AcDbTextStyleTableRecord
  2
STANDARD
 70
     0
 40
0.0
 41
1.0
 50
0.0
 71
     0
 42
3.5
  3
txt
  4

  0
STYLE
  5
7481
330
7468
100
AcDbSymbolTableRecord
100
AcDbTextStyleTableRecord
  2
ADESK1
 70
     0
 40
0.0
 41
1.0
 50
0.0
 71
     0
 42
5.0
  3
romans
  4
bigfont
  0
STYLE
  5
7731
330
7468
100
AcDbSymbolTableRecord
100
AcDbTextStyleTableRecord
  2
SANWA
 70
     0
 40
0.0
 41
1.0
 50
0.0
 71
     0
 42
2.799999999999999
  3
MS Mincho.ttf
  4

1001
ACAD
1000
MS Mincho
1071
    32785
  0
STYLE
  5
7D45
330
7468
100
AcDbSymbolTableRecord
100
AcDbTextStyleTableRecord
  2

 70
     1
 40
0.0
 41
1.0
 50
0.0
 71
     0
 42
3.5
  3
ltypeshp.shx
  4

  0
ENDTAB
  0
TABLE
  2
VIEW
  5
746B
330
0
100
AcDbSymbolTable
 70
     0
  0
ENDTAB
  0
TABLE
  2
UCS
  5
746C
330
0
100
AcDbSymbolTable
 70
     0
  0
ENDTAB
  0
TABLE
  2
APPID
  5
746E
330
0
100
AcDbSymbolTable
 70
     1
  0
APPID
  5
7476
330
746E
100
AcDbSymbolTableRecord
100
AcDbRegAppTableRecord
  2
ACAD
 70
     0
  0
ENDTAB
  0
TABLE
  2
DIMSTYLE
  5
746F
330
0
100
AcDbSymbolTable
 70
     4
100
AcDbDimStyleTable
 71
     1
340
796F
  0
DIMSTYLE
105
7484
330
746F
100
AcDbSymbolTableRecord
100
AcDbDimStyleTableRecord
  2
JIS
 70
     0
 41
2.5
 42
1.0
 43
7.0
 44
1.0
 73
     0
 74
     0
 77
     1
 78
     8
140
2.5
141
0.0
143
0.0394
147
0.0
172
     1
174
     1
176
     2
177
     2
178
     2
340
7731
  0
DIMSTYLE
105
796F
102
{ACAD_REACTORS
330
B429
330
B428
330
B479
330
B4A1
330
B4A0
330
B49D
330
B49C
330
B4A9
330
B4AD
330
B4B8
330
B4BD
330
B4BC
330
B4E3
330
B4E2
330
B4E1
330
B51A
330
B51B
330
B424
330
B423
330
B41F
330
B47F
330
B474
330
B473
330
B448
330
B44B
330
B452
330
B441
330
B440
330
B462
330
B49B
330
B41B
330
B520
330
B51F
330
B617
330
B626
102
}
330
746F
100
AcDbSymbolTableRecord
100
AcDbDimStyleTableRecord
  2
SANWA
 70
     0
 41
2.5
 42
1.0
 43
7.0
 44
1.0
 73
     0
 74
     0
 77
     1
 78
     8
140
2.5
141
0.0
143
0.0394
147
0.0
172
     1
174
     1
176
     2
177
     2
178
     2
340
7731
  0
DIMSTYLE
105
7C9D
330
746F
100
AcDbSymbolTableRecord
100
AcDbDimStyleTableRecord
  2
SANWA$4
 70
     0
 41
2.5
 42
1.0
 43
5.0
 44
1.0
 73
     0
 74
     0
 77
     1
 78
     8
140
2.5
141
0.0
143
0.0394
147
1.0
172
     1
174
     1
176
     2
177
     2
178
     2
289
     2
340
7731
  0
DIMSTYLE
105
7CB5
330
746F
100
AcDbSymbolTableRecord
100
AcDbDimStyleTableRecord
  2
SANWA$3
 70
     0
 41
2.5
 42
1.0
 43
7.0
 44
1.0
 73
     0
 74
     0
 77
     1
 78
     8
140
2.5
141
0.0
143
0.0394
147
0.0
172
     1
174
     1
176
     2
177
     2
178
     2
289
     0
340
7731
  0
ENDTAB
  0
TABLE
  2
BLOCK_RECORD
  5
7466
330
0
100
AcDbSymbolTable
 70
    87
  0
BLOCK_RECORD
  5
747D
330
7466
100
AcDbSymbolTableRecord
100
AcDbBlockTableRecord
  2
*MODEL_SPACE
340
8695
  0
BLOCK_RECORD
  5
747A
330
7466
100
AcDbSymbolTableRecord
100
AcDbBlockTableRecord
  2
*PAPER_SPACE
340
8696
  0
BLOCK_RECORD
  5
7493
330
7466
100
AcDbSymbolTableRecord
100
AcDbBlockTableRecord
  2
TITLE_BLOCK
340
0
  0
BLOCK_RECORD
  5
978C
330
7466
100
AcDbSymbolTableRecord
100
AcDbBlockTableRecord
  2
*D1
340
0
  0
BLOCK_RECORD
  5
981F
330
7466
100
AcDbSymbolTableRecord
100
AcDbBlockTableRecord
  2
*D2
340
0
  0
BLOCK_RECORD
  5
982A
330
7466
100
AcDbSymbolTableRecord
100
AcDbBlockTableRecord
  2
*D3
340
0
  0
BLOCK_RECORD
  5
9835
330
7466
100
AcDbSymbolTableRecord
100
AcDbBlockTableRecord
  2
*D4
340
0
  0
BLOCK_RECORD
  5
9841
330
7466
100
AcDbSymbolTableRecord
100
AcDbBlockTableRecord
  2
*D5
340
0
  0
BLOCK_RECORD
  5
984E
330
7466
100
AcDbSymbolTableRecord
100
AcDbBlockTableRecord
  2
*D6
340
0
  0
BLOCK_RECORD
  5
985A
330
7466
100
AcDbSymbolTableRecord
100
AcDbBlockTableRecord
  2
*D7
340
0
  0
BLOCK_RECORD
  5
988C
330
7466
100
AcDbSymbolTableRecord
100
AcDbBlockTableRecord
  2
*D8
340
0
  0
BLOCK_RECORD
  5
98CA
330
7466
100
AcDbSymbolTableRecord
100
AcDbBlockTableRecord
  2
*D9
340
0
  0
BLOCK_RECORD
  5
98FD
330
7466
100
AcDbSymbolTableRecord
100
AcDbBlockTableRecord
  2
*D10
340
0
  0
BLOCK_RECORD
  5
9964
330
7466
100
AcDbSymbolTableRecord
100
AcDbBlockTableRecord
  2
*D11
340
0
  0
BLOCK_RECORD
  5
9972
330
7466
100
AcDbSymbolTableRecord
100
AcDbBlockTableRecord
  2
*D12
340
0
  0
BLOCK_RECORD
  5
997E
330
7466
100
AcDbSymbolTableRecord
100
AcDbBlockTableRecord
  2
*D13
340
0
  0
BLOCK_RECORD
  5
998B
330
7466
100
AcDbSymbolTableRecord
100
AcDbBlockTableRecord
  2
*D14
340
0
  0
BLOCK_RECORD
  5
9998
330
7466
100
AcDbSymbolTableRecord
100
AcDbBlockTableRecord
  2
*D15
340
0
  0
BLOCK_RECORD
  5
99D3
330
7466
100
AcDbSymbolTableRecord
100
AcDbBlockTableRecord
  2
*D16
340
0
  0
BLOCK_RECORD
  5
99DF
330
7466
100
AcDbSymbolTableRecord
100
AcDbBlockTableRecord
  2
*D17
340
0
  0
BLOCK_RECORD
  5
9A14
330
7466
100
AcDbSymbolTableRecord
100
AcDbBlockTableRecord
  2
*D18
340
0
  0
BLOCK_RECORD
  5
9A21
330
7466
100
AcDbSymbolTableRecord
100
AcDbBlockTableRecord
  2
*D19
340
0
  0
BLOCK_RECORD
  5
9A2D
330
7466
100
AcDbSymbolTableRecord
100
AcDbBlockTableRecord
  2
*D20
340
0
  0
BLOCK_RECORD
  5
9A39
330
7466
100
AcDbSymbolTableRecord
100
AcDbBlockTableRecord
  2
*D21
340
0
  0
BLOCK_RECORD
  5
9A46
330
7466
100
AcDbSymbolTableRecord
100
AcDbBlockTableRecord
  2
*D22
340
0
  0
BLOCK_RECORD
  5
9A6B
330
7466
100
AcDbSymbolTableRecord
100
AcDbBlockTableRecord
  2
*D23
340
0
  0
BLOCK_RECORD
  5
9A76
330
7466
100
AcDbSymbolTableRecord
100
AcDbBlockTableRecord
  2
*D24
340
0
  0
BLOCK_RECORD
  5
9A82
330
7466
100
AcDbSymbolTableRecord
100
AcDbBlockTableRecord
  2
*D25
340
0
  0
BLOCK_RECORD
  5
9A8E
330
7466
100
AcDbSymbolTableRecord
100
AcDbBlockTableRecord
  2
*D26
340
0
  0
BLOCK_RECORD
  5
9A9A
330
7466
100
AcDbSymbolTableRecord
100
AcDbBlockTableRecord
  2
*D27
340
0
  0
BLOCK_RECORD
  5
A82C
330
7466
100
AcDbSymbolTableRecord
100
AcDbBlockTableRecord
  2
*D28
340
0
  0
BLOCK_RECORD
  5
A83A
330
7466
100
AcDbSymbolTableRecord
100
AcDbBlockTableRecord
  2
*D29
340
0
  0
BLOCK_RECORD
  5
A846
330
7466
100
AcDbSymbolTableRecord
100
AcDbBlockTableRecord
  2
*D30
340
0
  0
BLOCK_RECORD
  5
A854
330
7466
100
AcDbSymbolTableRecord
100
AcDbBlockTableRecord
  2
*D31
340
0
  0
BLOCK_RECORD
  5
A860
330
7466
100
AcDbSymbolTableRecord
100
AcDbBlockTableRecord
  2
*D32
340
0
  0
BLOCK_RECORD
  5
A86C
330
7466
100
AcDbSymbolTableRecord
100
AcDbBlockTableRecord
  2
*D33
340
0
  0
BLOCK_RECORD
  5
A87A
330
7466
100
AcDbSymbolTableRecord
100
AcDbBlockTableRecord
  2
*D34
340
0
  0
BLOCK_RECORD
  5
A888
330
7466
100
AcDbSymbolTableRecord
100
AcDbBlockTableRecord
  2
*D35
340
0
  0
BLOCK_RECORD
  5
A896
330
7466
100
AcDbSymbolTableRecord
100
AcDbBlockTableRecord
  2
*D36
340
0
  0
BLOCK_RECORD
  5
A8A4
330
7466
100
AcDbSymbolTableRecord
100
AcDbBlockTableRecord
  2
*D37
340
0
  0
BLOCK_RECORD
  5
A8B2
330
7466
100
AcDbSymbolTableRecord
100
AcDbBlockTableRecord
  2
*D38
340
0
  0
BLOCK_RECORD
  5
A8BE
330
7466
100
AcDbSymbolTableRecord
100
AcDbBlockTableRecord
  2
*D39
340
0
  0
BLOCK_RECORD
  5
A97F
330
7466
100
AcDbSymbolTableRecord
100
AcDbBlockTableRecord
  2
*D40
340
0
  0
BLOCK_RECORD
  5
A9A2
330
7466
100
AcDbSymbolTableRecord
100
AcDbBlockTableRecord
  2
*D41
340
0
  0
BLOCK_RECORD
  5
A9C2
330
7466
100
AcDbSymbolTableRecord
100
AcDbBlockTableRecord
  2
*D42
340
0
  0
BLOCK_RECORD
  5
A9D0
330
7466
100
AcDbSymbolTableRecord
100
AcDbBlockTableRecord
  2
*D43
340
0
  0
BLOCK_RECORD
  5
B64F
330
7466
100
AcDbSymbolTableRecord
100
AcDbBlockTableRecord
  2
*D44
340
0
  0
BLOCK_RECORD
  5
B65A
330
7466
100
AcDbSymbolTableRecord
100
AcDbBlockTableRecord
  2
*D45
340
0
  0
BLOCK_RECORD
  5
B666
330
7466
100
AcDbSymbolTableRecord
100
AcDbBlockTableRecord
  2
*D46
340
0
  0
BLOCK_RECORD
  5
B672
330
7466
100
AcDbSymbolTableRecord
100
AcDbBlockTableRecord
  2
*D47
340
0
  0
BLOCK_RECORD
  5
B67F
330
7466
100
AcDbSymbolTableRecord
100
AcDbBlockTableRecord
  2
*D48
340
0
  0
BLOCK_RECORD
  5
B68C
330
7466
100
AcDbSymbolTableRecord
100
AcDbBlockTableRecord
  2
*D49
340
0
  0
BLOCK_RECORD
  5
B698
330
7466
100
AcDbSymbolTableRecord
100
AcDbBlockTableRecord
  2
*D50
340
0
  0
BLOCK_RECORD
  5
B6A6
330
7466
100
AcDbSymbolTableRecord
100
AcDbBlockTableRecord
  2
*D51
340
0
  0
BLOCK_RECORD
  5
B6B2
330
7466
100
AcDbSymbolTableRecord
100
AcDbBlockTableRecord
  2
*D52
340
0
  0
BLOCK_RECORD
  5
B6BE
330
7466
100
AcDbSymbolTableRecord
100
AcDbBlockTableRecord
  2
*D53
340
0
  0
BLOCK_RECORD
  5
B6CB
330
7466
100
AcDbSymbolTableRecord
100
AcDbBlockTableRecord
  2
*D54
340
0
  0
BLOCK_RECORD
  5
B6D7
330
7466
100
AcDbSymbolTableRecord
100
AcDbBlockTableRecord
  2
*D55
340
0
  0
BLOCK_RECORD
  5
B6E4
330
7466
100
AcDbSymbolTableRecord
100
AcDbBlockTableRecord
  2
*D56
340
0
  0
BLOCK_RECORD
  5
B6F0
330
7466
100
AcDbSymbolTableRecord
100
AcDbBlockTableRecord
  2
*D57
340
0
  0
BLOCK_RECORD
  5
B6FD
330
7466
100
AcDbSymbolTableRecord
100
AcDbBlockTableRecord
  2
*D58
340
0
  0
BLOCK_RECORD
  5
B709
330
7466
100
AcDbSymbolTableRecord
100
AcDbBlockTableRecord
  2
*D59
340
0
  0
BLOCK_RECORD
  5
B714
330
7466
100
AcDbSymbolTableRecord
100
AcDbBlockTableRecord
  2
*D60
340
0
  0
BLOCK_RECORD
  5
B744
330
7466
100
AcDbSymbolTableRecord
100
AcDbBlockTableRecord
  2
*D61
340
0
  0
BLOCK_RECORD
  5
B752
330
7466
100
AcDbSymbolTableRecord
100
AcDbBlockTableRecord
  2
*D62
340
0
  0
BLOCK_RECORD
  5
B75E
330
7466
100
AcDbSymbolTableRecord
100
AcDbBlockTableRecord
  2
*D63
340
0
  0
BLOCK_RECORD
  5
B76C
330
7466
100
AcDbSymbolTableRecord
100
AcDbBlockTableRecord
  2
*D64
340
0
  0
BLOCK_RECORD
  5
B77A
330
7466
100
AcDbSymbolTableRecord
100
AcDbBlockTableRecord
  2
*D65
340
0
  0
BLOCK_RECORD
  5
B788
330
7466
100
AcDbSymbolTableRecord
100
AcDbBlockTableRecord
  2
*D66
340
0
  0
BLOCK_RECORD
  5
B796
330
7466
100
AcDbSymbolTableRecord
100
AcDbBlockTableRecord
  2
*D67
340
0
  0
BLOCK_RECORD
  5
B7A4
330
7466
100
AcDbSymbolTableRecord
100
AcDbBlockTableRecord
  2
*D68
340
0
  0
BLOCK_RECORD
  5
B7B0
330
7466
100
AcDbSymbolTableRecord
100
AcDbBlockTableRecord
  2
*D69
340
0
  0
BLOCK_RECORD
  5
B7BC
330
7466
100
AcDbSymbolTableRecord
100
AcDbBlockTableRecord
  2
*D70
340
0
  0
BLOCK_RECORD
  5
B7CA
330
7466
100
AcDbSymbolTableRecord
100
AcDbBlockTableRecord
  2
*D71
340
0
  0
BLOCK_RECORD
  5
B7D6
330
7466
100
AcDbSymbolTableRecord
100
AcDbBlockTableRecord
  2
*D72
340
0
  0
BLOCK_RECORD
  5
B7E4
330
7466
100
AcDbSymbolTableRecord
100
AcDbBlockTableRecord
  2
*D73
340
0
  0
BLOCK_RECORD
  5
B7F0
330
7466
100
AcDbSymbolTableRecord
100
AcDbBlockTableRecord
  2
*D74
340
0
  0
BLOCK_RECORD
  5
B7FC
330
7466
100
AcDbSymbolTableRecord
100
AcDbBlockTableRecord
  2
*D75
340
0
  0
BLOCK_RECORD
  5
B80A
330
7466
100
AcDbSymbolTableRecord
100
AcDbBlockTableRecord
  2
*D76
340
0
  0
BLOCK_RECORD
  5
B823
330
7466
100
AcDbSymbolTableRecord
100
AcDbBlockTableRecord
  2
*D77
340
0
  0
BLOCK_RECORD
  5
B82E
330
7466
100
AcDbSymbolTableRecord
100
AcDbBlockTableRecord
  2
*D78
340
0
  0
BLOCK_RECORD
  5
BDDC
330
7466
100
AcDbSymbolTableRecord
100
AcDbBlockTableRecord
  2
*D79
340
0
  0
BLOCK_RECORD
  5
BDE8
330
7466
100
AcDbSymbolTableRecord
100
AcDbBlockTableRecord
  2
*D80
340
0
  0
BLOCK_RECORD
  5
BDF4
330
7466
100
AcDbSymbolTableRecord
100
AcDbBlockTableRecord
  2
*D81
340
0
  0
BLOCK_RECORD
  5
BE00
330
7466
100
AcDbSymbolTableRecord
100
AcDbBlockTableRecord
  2
*D82
340
0
  0
BLOCK_RECORD
  5
BE23
330
7466
100
AcDbSymbolTableRecord
100
AcDbBlockTableRecord
  2
*D83
340
0
  0
BLOCK_RECORD
  5
BE2F
330
7466
100
AcDbSymbolTableRecord
100
AcDbBlockTableRecord
  2
*D84
340
0
  0
BLOCK_RECORD
  5
BE3C
330
7466
100
AcDbSymbolTableRecord
100
AcDbBlockTableRecord
  2
*D85
340
0
  0
BLOCK_RECORD
  5
BE48
330
7466
100
AcDbSymbolTableRecord
100
AcDbBlockTableRecord
  2
*D86
340
0
  0
ENDTAB
  0
ENDSEC
  0
SECTION
  2
BLOCKS
  0
BLOCK
  5
7489
330
747D
100
AcDbEntity
  8
0
100
AcDbBlockBegin
  2
*MODEL_SPACE
 70
     0
 10
0.0
 20
0.0
 30
0.0
  3
*MODEL_SPACE
  1

  0
ENDBLK
  5
748A
330
747D
100
AcDbEntity
  8
0
100
AcDbBlockEnd
  0
BLOCK
  5
7487
330
747A
100
AcDbEntity
 67
     1
  8
0
100
AcDbBlockBegin
  2
*PAPER_SPACE
 70
     2
 10
0.0
 20
0.0
 30
0.0
  3
*PAPER_SPACE
  1

  0
ENDBLK
  5
7488
330
747A
100
AcDbEntity
 67
     1
  8
0
100
AcDbBlockEnd
  0
BLOCK
  5
7494
330
7493
100
AcDbEntity
  8
0
100
AcDbBlockBegin
  2
TITLE_BLOCK
 70
     2
 10
0.0
 20
0.0
 30
0.0
  3
TITLE_BLOCK
  1

  0
LINE
  5
7495
330
7493
100
AcDbEntity
  8
0
 62
     0
100
AcDbLine
 10
402.7943262411347
 20
16.00000000000008
 30
0.0
 11
410.0
 21
16.00000000000008
 31
0.0
  0
LINE
  5
7496
330
7493
100
AcDbEntity
  8
0
 62
     0
100
AcDbLine
 10
410.0
 20
10.0
 30
0.0
 11
410.0
 21
49.00000000000036
 31
0.0
  0
LINE
  5
7497
330
7493
100
AcDbEntity
  8
0
 62
     0
100
AcDbLine
 10
410.0
 20
49.00000000000036
 30
0.0
 11
410.0
 21
10.0
 31
0.0
  0
LINE
  5
7498
330
7493
100
AcDbEntity
  8
0
 62
     0
100
AcDbLine
 10
402.7943262411347
 20
22.00000000000012
 30
0.0
 11
402.7943262411347
 21
10.0
 31
0.0
  0
LINE
  5
7499
330
7493
100
AcDbEntity
  8
0
 62
     0
100
AcDbLine
 10
336.1418439716306
 20
49.00000000000036
 30
0.0
 11
336.1418439716306
 21
22.00000000000012
 31
0.0
  0
LINE
  5
749A
330
7493
100
AcDbEntity
  8
0
 62
     0
100
AcDbLine
 10
325.3333333333325
 20
37.00000000000024
 30
0.0
 11
325.3333333333325
 21
25.00000000000012
 31
0.0
  0
LINE
  5
749B
330
7493
100
AcDbEntity
  8
0
 62
     0
100
AcDbLine
 10
318.1276595744673
 20
49.00000000000036
 30
0.0
 11
318.1276595744673
 21
25.00000000000012
 31
0.0
  0
LINE
  5
749C
330
7493
100
AcDbEntity
  8
0
 62
     0
100
AcDbLine
 10
318.1276595744673
 20
25.00000000000012
 30
0.0
 11
348.7517730496447
 21
25.00000000000012
 31
0.0
  0
LINE
  5
749D
330
7493
100
AcDbEntity
  8
0
 62
     0
100
AcDbLine
 10
280.2978723404241
 20
28.00000000000015
 30
0.0
 11
348.7517730496447
 21
28.00000000000015
 31
0.0
  0
LINE
  5
749E
330
7493
100
AcDbEntity
  8
0
 62
     0
100
AcDbLine
 10
280.2978723404241
 20
31.0000000000002
 30
0.0
 11
348.7517730496447
 21
31.0000000000002
 31
0.0
  0
LINE
  5
749F
330
7493
100
AcDbEntity
  8
0
 62
     0
100
AcDbLine
 10
280.2978723404241
 20
34.00000000000024
 30
0.0
 11
348.7517730496447
 21
34.00000000000024
 31
0.0
  0
LINE
  5
74A0
330
7493
100
AcDbEntity
  8
0
 62
     0
100
AcDbLine
 10
280.2978723404241
 20
19.00000000000007
 30
0.0
 11
318.1276595744673
 21
19.00000000000012
 31
0.0
  0
LINE
  5
74A1
330
7493
100
AcDbEntity
  8
0
 62
     0
100
AcDbLine
 10
280.2978723404241
 20
22.00000000000007
 30
0.0
 11
318.1276595744673
 21
22.00000000000012
 31
0.0
  0
LINE
  5
74A2
330
7493
100
AcDbEntity
  8
0
 62
     0
100
AcDbLine
 10
280.2978723404241
 20
25.00000000000012
 30
0.0
 11
318.1276595744673
 21
25.00000000000012
 31
0.0
  0
TEXT
  5
74A3
330
7493
100
AcDbEntity
  8
0
 62
     0
100
AcDbText
 10
342.2447163844405
 20
10.55220101068186
 30
0.0
 40
1.791674070777747
  1
照査
  7
ADESK1
 72
     1
 11
344.1558353932701
 21
10.55220101068186
 31
0.0
100
AcDbText
  0
TEXT
  5
74A4
330
7493
100
AcDbEntity
  8
0
 62
     0
100
AcDbText
 10
332.2960689314087
 20
10.48329012996929
 30
0.0
 40
1.791674070777747
  1
設計
  7
ADESK1
 72
     1
 11
334.2071879402383
 21
10.48329012996929
 31
0.0
100
AcDbText
  0
TEXT
  5
74A5
330
7493
100
AcDbEntity
  8
0
 62
     0
100
AcDbText
 10
321.7174935280942
 20
10.48329012996929
 30
0.0
 40
1.791674070777747
  1
製図
  7
ADESK1
 72
     1
 11
323.5688900678979
 21
10.48329012996929
 31
0.0
100
AcDbText
  0
LINE
  5
74A6
330
7493
100
AcDbEntity
  8
0
 62
     0
100
AcDbLine
 10
280.2978723404241
 20
10.0
 30
0.0
 11
280.2978723404241
 21
13.00000000000004
 31
0.0
  0
LINE
  5
74A7
330
7493
100
AcDbEntity
  8
0
 62
     0
100
AcDbLine
 10
280.2978723404241
 20
16.00000000000008
 30
0.0
 11
318.1276595744673
 21
16.00000000000008
 31
0.0
  0
LINE
  5
74A8
330
7493
100
AcDbEntity
  8
0
 62
     0
100
AcDbLine
 10
339.4042553191484
 20
22.00000000000007
 30
0.0
 11
339.4042553191484
 21
10.0
 31
0.0
  0
LINE
  5
74A9
330
7493
100
AcDbEntity
  8
0
 62
     0
100
AcDbLine
 10
328.7659574468077
 20
22.00000000000007
 30
0.0
 11
328.7659574468077
 21
10.0
 31
0.0
  0
LINE
  5
74AA
330
7493
100
AcDbEntity
  8
0
 62
     0
100
AcDbLine
 10
348.7517730496447
 20
49.00000000000036
 30
0.0
 11
348.7517730496447
 21
10.0
 31
0.0
  0
LINE
  5
74AB
330
7493
100
AcDbEntity
  8
0
 62
     0
100
AcDbLine
 10
280.2978723404241
 20
49.00000000000036
 30
0.0
 11
280.2978723404241
 21
10.0
 31
0.0
  0
LINE
  5
74AC
330
7493
100
AcDbEntity
  8
0
 62
     0
100
AcDbLine
 10
318.1276595744673
 20
25.00000000000012
 30
0.0
 11
318.1276595744673
 21
10.0
 31
0.0
  0
LINE
  5
74AD
330
7493
100
AcDbEntity
  8
0
 62
     0
100
AcDbLine
 10
312.7234042553184
 20
37.00000000000024
 30
0.0
 11
312.7234042553184
 21
10.0
 31
0.0
  0
LINE
  5
74AE
330
7493
100
AcDbEntity
  8
0
 62
     0
100
AcDbLine
 10
285.702127659573
 20
37.00000000000024
 30
0.0
 11
285.702127659573
 21
10.0
 31
0.0
  0
LINE
  5
74AF
330
7493
100
AcDbEntity
  8
0
 62
     0
100
AcDbLine
 10
303.7163120567365
 20
37.00000000000024
 30
0.0
 11
303.7163120567365
 21
10.0
 31
0.0
  0
LINE
  5
74B0
330
7493
100
AcDbEntity
  8
0
 62
     0
100
AcDbLine
 10
410.0
 20
49.00000000000036
 30
0.0
 11
280.2978723404241
 21
49.00000000000036
 31
0.0
  0
LINE
  5
74B1
330
7493
100
AcDbEntity
  8
0
 62
     0
100
AcDbLine
 10
280.2978723404241
 20
10.0
 30
0.0
 11
410.0
 21
10.0
 31
0.0
  0
LINE
  5
74B2
330
7493
100
AcDbEntity
  8
0
 62
     0
100
AcDbLine
 10
318.1276595744673
 20
22.00000000000012
 30
0.0
 11
410.0
 21
22.00000000000012
 31
0.0
  0
LINE
  5
74B3
330
7493
100
AcDbEntity
  8
0
 62
     0
100
AcDbLine
 10
280.2978723404241
 20
37.00000000000024
 30
0.0
 11
410.0
 21
37.00000000000024
 31
0.0
  0
LINE
  5
74B4
330
7493
100
AcDbEntity
  8
0
 62
     0
100
AcDbLine
 10
280.2978723404241
 20
13.00000000000004
 30
0.0
 11
410.0
 21
13.00000000000004
 31
0.0
  0
LINE
  5
74B5
330
7493
100
AcDbEntity
  8
0
 62
     0
100
AcDbLine
 10
280.2978723404241
 20
49.00000000000036
 30
0.0
 11
410.0
 21
49.00000000000036
 31
0.0
  0
TEXT
  5
74B6
330
7493
100
AcDbEntity
  8
0
100
AcDbText
 10
411.3708251683467
 20
33.08333333333334
 30
0.0
 40
3.0
  1
F
  7
ADESK1
 72
     1
 11
412.8708251683468
 21
33.08333333333334
 31
0.0
100
AcDbText
  0
TEXT
  5
74B7
330
7493
100
AcDbEntity
  8
0
100
AcDbText
 10
411.3708251683467
 20
79.25
 30
0.0
 40
3.0
  1
E
  7
ADESK1
 72
     1
 11
412.8708251683468
 21
79.25
 31
0.0
100
AcDbText
  0
TEXT
  5
74B8
330
7493
100
AcDbEntity
  8
0
100
AcDbText
 10
411.2993965969182
 20
125.4166666666666
 30
0.0
 40
3.0
  1
D
  7
ADESK1
 72
     1
 11
412.8708251683468
 21
125.4166666666666
 31
0.0
100
AcDbText
  0
TEXT
  5
74B9
330
7493
100
AcDbEntity
  8
0
100
AcDbText
 10
411.3708251683467
 20
171.5833333333333
 30
0.0
 40
3.0
  1
C
  7
ADESK1
 72
     1
 11
412.8708251683468
 21
171.5833333333333
 31
0.0
100
AcDbText
  0
TEXT
  5
74BA
330
7493
100
AcDbEntity
  8
0
100
AcDbText
 10
411.2993965969182
 20
217.7499999999999
 30
0.0
 40
3.0
  1
B
  7
ADESK1
 72
     1
 11
412.8708251683468
 21
217.7499999999999
 31
0.0
100
AcDbText
  0
TEXT
  5
74BB
330
7493
100
AcDbEntity
  8
0
100
AcDbText
 10
411.5851108826324
 20
263.9166666666666
 30
0.0
 40
3.0
  1
A
  7
ADESK1
 72
     1
 11
412.8708251683468
 21
263.9166666666666
 31
0.0
100
AcDbText
  0
TEXT
  5
74BC
330
7493
100
AcDbEntity
  8
0
100
AcDbText
 10
384.5089285714285
 20
6.019997240728748
 30
0.0
 40
3.0
  1
8
  7
ADESK1
 72
     1
 11
385.9375
 21
6.019997240728748
 31
0.0
100
AcDbText
  0
TEXT
  5
74BD
330
7493
100
AcDbEntity
  8
0
100
AcDbText
 10
336.3839285714285
 20
6.019997240728748
 30
0.0
 40
3.0
  1
7
  7
ADESK1
 72
     1
 11
337.8125
 21
6.019997240728748
 31
0.0
100
AcDbText
  0
TEXT
  5
74BE
330
7493
100
AcDbEntity
  8
0
100
AcDbText
 10
288.1874999999999
 20
6.019997240728748
 30
0.0
 40
3.0
  1
6
  7
ADESK1
 72
     1
 11
289.6875
 21
6.019997240728748
 31
0.0
100
AcDbText
  0
TEXT
  5
74BF
330
7493
100
AcDbEntity
  8
0
100
AcDbText
 10
240.1339285714285
 20
6.019997240728748
 30
0.0
 40
3.0
  1
5
  7
ADESK1
 72
     1
 11
241.5624999999999
 21
6.019997240728748
 31
0.0
100
AcDbText
  0
TEXT
  5
74C0
330
7493
100
AcDbEntity
  8
0
100
AcDbText
 10
191.9375
 20
6.019997240728748
 30
0.0
 40
3.0
  1
4
  7
ADESK1
 72
     1
 11
193.4375
 21
6.019997240728748
 31
0.0
100
AcDbText
  0
TEXT
  5
74C1
330
7493
100
AcDbEntity
  8
0
100
AcDbText
 10
143.8839285714285
 20
6.019997240728748
 30
0.0
 40
3.0
  1
3
  7
ADESK1
 72
     1
 11
145.3125
 21
6.019997240728748
 31
0.0
100
AcDbText
  0
TEXT
  5
74C2
330
7493
100
AcDbEntity
  8
0
100
AcDbText
 10
95.75892857142857
 20
6.019997240728748
 30
0.0
 40
3.0
  1
2
  7
ADESK1
 72
     1
 11
97.1875
 21
6.019997240728748
 31
0.0
100
AcDbText
  0
TEXT
  5
74C3
330
7493
100
AcDbEntity
  8
0
100
AcDbText
 10
47.84821428571429
 20
6.019997240728748
 30
0.0
 40
3.0
  1
1
  7
ADESK1
 72
     1
 11
49.0625
 21
6.019997240728748
 31
0.0
100
AcDbText
  0
TEXT
  5
74C4
330
7493
100
AcDbEntity
  8
0
100
AcDbText
 10
21.10716135953389
 20
33.08333333333334
 30
0.0
 40
3.0
  1
F
  7
ADESK1
 72
     1
 11
22.60716135953389
 21
33.08333333333334
 31
0.0
100
AcDbText
  0
TEXT
  5
74C5
330
7493
100
AcDbEntity
  8
0
100
AcDbText
 10
21.10716135953389
 20
79.25
 30
0.0
 40
3.0
  1
E
  7
ADESK1
 72
     1
 11
22.60716135953389
 21
79.25
 31
0.0
100
AcDbText
  0
TEXT
  5
74C6
330
7493
100
AcDbEntity
  8
0
100
AcDbText
 10
21.03573278810532
 20
125.4166666666666
 30
0.0
 40
3.0
  1
D
  7
ADESK1
 72
     1
 11
22.60716135953389
 21
125.4166666666666
 31
0.0
100
AcDbText
  0
TEXT
  5
74C7
330
7493
100
AcDbEntity
  8
0
100
AcDbText
 10
21.10716135953389
 20
171.5833333333333
 30
0.0
 40
3.0
  1
C
  7
ADESK1
 72
     1
 11
22.60716135953389
 21
171.5833333333333
 31
0.0
100
AcDbText
  0
TEXT
  5
74C8
330
7493
100
AcDbEntity
  8
0
100
AcDbText
 10
21.03573278810532
 20
217.7499999999999
 30
0.0
 40
3.0
  1
B
  7
ADESK1
 72
     1
 11
22.60716135953389
 21
217.7499999999999
 31
0.0
100
AcDbText
  0
TEXT
  5
74C9
330
7493
100
AcDbEntity
  8
0
100
AcDbText
 10
384.5089285714285
 20
288.0
 30
0.0
 40
3.0
  1
8
  7
ADESK1
 72
     1
 11
385.9375
 21
288.0
 31
0.0
100
AcDbText
  0
TEXT
  5
74CA
330
7493
100
AcDbEntity
  8
0
100
AcDbText
 10
336.3839285714285
 20
288.0
 30
0.0
 40
3.0
  1
7
  7
ADESK1
 72
     1
 11
337.8125
 21
288.0
 31
0.0
100
AcDbText
  0
TEXT
  5
74CB
330
7493
100
AcDbEntity
  8
0
100
AcDbText
 10
288.1874999999999
 20
288.0
 30
0.0
 40
3.0
  1
6
  7
ADESK1
 72
     1
 11
289.6875
 21
288.0
 31
0.0
100
AcDbText
  0
TEXT
  5
74CC
330
7493
100
AcDbEntity
  8
0
100
AcDbText
 10
240.1339285714285
 20
288.0
 30
0.0
 40
3.0
  1
5
  7
ADESK1
 72
     1
 11
241.5624999999999
 21
288.0
 31
0.0
100
AcDbText
  0
TEXT
  5
74CD
330
7493
100
AcDbEntity
  8
0
100
AcDbText
 10
191.9375
 20
288.0
 30
0.0
 40
3.0
  1
4
  7
ADESK1
 72
     1
 11
193.4375
 21
288.0
 31
0.0
100
AcDbText
  0
TEXT
  5
74CE
330
7493
100
AcDbEntity
  8
0
100
AcDbText
 10
143.8839285714285
 20
288.0
 30
0.0
 40
3.0
  1
3
  7
ADESK1
 72
     1
 11
145.3125
 21
288.0
 31
0.0
100
AcDbText
  0
TEXT
  5
74CF
330
7493
100
AcDbEntity
  8
0
100
AcDbText
 10
95.75892857142857
 20
288.0
 30
0.0
 40
3.0
  1
2
  7
ADESK1
 72
     1
 11
97.1875
 21
288.0
 31
0.0
100
AcDbText
  0
TEXT
  5
74D0
330
7493
100
AcDbEntity
  8
0
100
AcDbText
 10
21.32144707381961
 20
263.9166666666666
 30
0.0
 40
3.0
  1
A
  7
ADESK1
 72
     1
 11
22.60716135953389
 21
263.9166666666666
 31
0.0
100
AcDbText
  0
TEXT
  5
74D1
330
7493
100
AcDbEntity
  8
0
100
AcDbText
 10
47.84821428571429
 20
288.0
 30
0.0
 40
3.0
  1
1
  7
ADESK1
 72
     1
 11
49.0625
 21
288.0
 31
0.0
100
AcDbText
  0
LINE
  5
74D2
330
7493
100
AcDbEntity
  8
0
100
AcDbLine
 10
73.125
 20
287.0
 30
0.0
 11
73.125
 21
292.0
 31
0.0
  0
LINE
  5
74D3
330
7493
100
AcDbEntity
  8
0
100
AcDbLine
 10
121.25
 20
287.0
 30
0.0
 11
121.25
 21
292.0
 31
0.0
  0
LINE
  5
74D4
330
7493
100
AcDbEntity
  8
0
100
AcDbLine
 10
169.375
 20
287.0
 30
0.0
 11
169.375
 21
292.0
 31
0.0
  0
LINE
  5
74D5
330
7493
100
AcDbEntity
  8
0
100
AcDbLine
 10
217.5
 20
287.0
 30
0.0
 11
217.5
 21
292.0
 31
0.0
  0
LINE
  5
74D6
330
7493
100
AcDbEntity
  8
0
100
AcDbLine
 10
265.625
 20
287.0
 30
0.0
 11
265.625
 21
292.0
 31
0.0
  0
LINE
  5
74D7
330
7493
100
AcDbEntity
  8
0
100
AcDbLine
 10
313.75
 20
287.0
 30
0.0
 11
313.75
 21
292.0
 31
0.0
  0
LINE
  5
74D8
330
7493
100
AcDbEntity
  8
0
100
AcDbLine
 10
361.8749999999999
 20
287.0
 30
0.0
 11
361.8749999999999
 21
292.0
 31
0.0
  0
LINE
  5
74D9
330
7493
100
AcDbEntity
  8
0
100
AcDbLine
 10
361.8749999999999
 20
10.0
 30
0.0
 11
361.8749999999999
 21
5.0
 31
0.0
  0
LINE
  5
74DA
330
7493
100
AcDbEntity
  8
0
100
AcDbLine
 10
313.75
 20
10.0
 30
0.0
 11
313.75
 21
5.0
 31
0.0
  0
LINE
  5
74DB
330
7493
100
AcDbEntity
  8
0
100
AcDbLine
 10
265.625
 20
10.0
 30
0.0
 11
265.625
 21
5.0
 31
0.0
  0
LINE
  5
74DC
330
7493
100
AcDbEntity
  8
0
100
AcDbLine
 10
217.5
 20
10.0
 30
0.0
 11
217.5
 21
5.0
 31
0.0
  0
LINE
  5
74DD
330
7493
100
AcDbEntity
  8
0
100
AcDbLine
 10
169.375
 20
10.0
 30
0.0
 11
169.375
 21
5.0
 31
0.0
  0
LINE
  5
74DE
330
7493
100
AcDbEntity
  8
0
100
AcDbLine
 10
121.25
 20
10.0
 30
0.0
 11
121.25
 21
5.0
 31
0.0
  0
LINE
  5
74DF
330
7493
100
AcDbEntity
  8
0
100
AcDbLine
 10
73.125
 20
10.0
 30
0.0
 11
73.125
 21
5.0
 31
0.0
  0
LINE
  5
74E0
330
7493
100
AcDbEntity
  8
0
100
AcDbLine
 10
410.0
 20
240.8333333333333
 30
0.0
 11
415.0
 21
240.8333333333333
 31
0.0
  0
LINE
  5
74E1
330
7493
100
AcDbEntity
  8
0
100
AcDbLine
 10
410.0
 20
194.6666666666667
 30
0.0
 11
415.0
 21
194.6666666666667
 31
0.0
  0
LINE
  5
74E2
330
7493
100
AcDbEntity
  8
0
100
AcDbLine
 10
410.0
 20
148.5
 30
0.0
 11
415.0
 21
148.5
 31
0.0
  0
LINE
  5
74E3
330
7493
100
AcDbEntity
  8
0
100
AcDbLine
 10
410.0
 20
102.3333333333333
 30
0.0
 11
415.0
 21
102.3333333333333
 31
0.0
  0
LINE
  5
74E4
330
7493
100
AcDbEntity
  8
0
100
AcDbLine
 10
410.0
 20
56.16666666666668
 30
0.0
 11
415.0
 21
56.16666666666668
 31
0.0
  0
LINE
  5
74E5
330
7493
100
AcDbEntity
  8
0
100
AcDbLine
 10
25.0
 20
56.16666666666667
 30
0.0
 11
20.0
 21
56.16666666666667
 31
0.0
  0
LINE
  5
74E6
330
7493
100
AcDbEntity
  8
0
100
AcDbLine
 10
25.0
 20
102.3333333333333
 30
0.0
 11
20.0
 21
102.3333333333333
 31
0.0
  0
LINE
  5
74E7
330
7493
100
AcDbEntity
  8
0
100
AcDbLine
 10
25.0
 20
148.5
 30
0.0
 11
20.0
 21
148.5
 31
0.0
  0
LINE
  5
74E8
330
7493
100
AcDbEntity
  8
0
100
AcDbLine
 10
25.0
 20
194.6666666666666
 30
0.0
 11
20.0
 21
194.6666666666666
 31
0.0
  0
LINE
  5
74E9
330
7493
100
AcDbEntity
  8
0
100
AcDbLine
 10
25.0
 20
240.8333333333333
 30
0.0
 11
20.0
 21
240.8333333333333
 31
0.0
  0
TEXT
  5
74EA
330
7493
100
AcDbEntity
  8
0
100
AcDbText
 10
1.0
 20
1.0
 30
0.0
 40
3.0
  1
この図枠はサンプルです。社内の規格やプロッタの出力範囲に合わせて適当に変更してご利用ください。
  7
ADESK1
100
AcDbText
  0
LINE
  5
74EB
330
7493
100
AcDbEntity
  8
0
100
AcDbLine
 10
25.0
 20
148.5
 30
0.0
 11
0.0
 21
148.5
 31
0.0
  0
LINE
  5
74EC
330
7493
100
AcDbEntity
  8
0
100
AcDbLine
 10
410.0
 20
148.5
 30
0.0
 11
420.0
 21
148.5
 31
0.0
  0
LINE
  5
74ED
330
7493
100
AcDbEntity
  8
0
100
AcDbLine
 10
217.5
 20
287.0
 30
0.0
 11
217.5
 21
297.0
 31
0.0
  0
LINE
  5
74EE
330
7493
100
AcDbEntity
  8
0
100
AcDbLine
 10
217.5
 20
10.0
 30
0.0
 11
217.5
 21
0.0
 31
0.0
  0
LINE
  5
74EF
330
7493
100
AcDbEntity
  8
OBJECT
100
AcDbLine
 10
130.0
 20
40.0
 30
0.0
 11
130.0
 21
10.0
 31
0.0
  0
LINE
  5
74F0
330
7493
100
AcDbEntity
  8
OBJECT
100
AcDbLine
 10
120.0
 20
10.0
 30
0.0
 11
120.0
 21
40.0
 31
0.0
  0
LINE
  5
74F1
330
7493
100
AcDbEntity
  8
OBJECT
100
AcDbLine
 10
44.5
 20
37.0
 30
0.0
 11
45.49999999999999
 21
37.0
 31
0.0
  0
LINE
  5
74F2
330
7493
100
AcDbEntity
  8
OBJECT
100
AcDbLine
 10
44.5
 20
31.0
 30
0.0
 11
45.49999999999999
 21
31.0
 31
0.0
  0
LINE
  5
74F3
330
7493
100
AcDbEntity
  8
OBJECT
100
AcDbLine
 10
39.5
 20
37.0
 30
0.0
 11
40.49999999999999
 21
37.0
 31
0.0
  0
LINE
  5
74F4
330
7493
100
AcDbEntity
  8
OBJECT
100
AcDbLine
 10
39.5
 20
31.0
 30
0.0
 11
40.49999999999999
 21
31.0
 31
0.0
  0
LINE
  5
74F5
330
7493
100
AcDbEntity
  8
OBJECT
100
AcDbLine
 10
44.5
 20
25.0
 30
0.0
 11
45.49999999999999
 21
25.0
 31
0.0
  0
LINE
  5
74F6
330
7493
100
AcDbEntity
  8
OBJECT
100
AcDbLine
 10
39.5
 20
25.0
 30
0.0
 11
40.49999999999999
 21
25.0
 31
0.0
  0
LINE
  5
74F7
330
7493
100
AcDbEntity
  8
OBJECT
100
AcDbLine
 10
44.5
 20
19.0
 30
0.0
 11
45.49999999999999
 21
19.0
 31
0.0
  0
LINE
  5
74F8
330
7493
100
AcDbEntity
  8
OBJECT
100
AcDbLine
 10
39.5
 20
19.0
 30
0.0
 11
40.49999999999999
 21
19.0
 31
0.0
  0
LINE
  5
74F9
330
7493
100
AcDbEntity
  8
OBJECT
100
AcDbLine
 10
28.0
 20
29.535898
 30
0.0
 11
30.0
 21
33.0
 31
0.0
  0
LINE
  5
74FA
330
7493
100
AcDbEntity
  8
OBJECT
100
AcDbLine
 10
28.0
 20
29.535898
 30
0.0
 11
32.0
 21
29.535898
 31
0.0
  0
LINE
  5
74FB
330
7493
100
AcDbEntity
  8
OBJECT
100
AcDbLine
 10
32.0
 20
29.535898
 30
0.0
 11
30.0
 21
33.0
 31
0.0
  0
LINE
  5
74FC
330
7493
100
AcDbEntity
  8
OBJECT
100
AcDbLine
 10
28.0
 20
35.53589799999999
 30
0.0
 11
32.0
 21
35.53589799999999
 31
0.0
  0
LINE
  5
74FD
330
7493
100
AcDbEntity
  8
OBJECT
100
AcDbLine
 10
32.0
 20
35.53589799999999
 30
0.0
 11
30.0
 21
39.0
 31
0.0
  0
LINE
  5
74FE
330
7493
100
AcDbEntity
  8
OBJECT
100
AcDbLine
 10
28.0
 20
35.53589799999999
 30
0.0
 11
30.0
 21
39.0
 31
0.0
  0
LINE
  5
74FF
330
7493
100
AcDbEntity
  8
OBJECT
100
AcDbLine
 10
28.0
 20
23.53589799999999
 30
0.0
 11
30.0
 21
26.99999999999999
 31
0.0
  0
LINE
  5
7500
330
7493
100
AcDbEntity
  8
OBJECT
100
AcDbLine
 10
28.0
 20
23.53589799999999
 30
0.0
 11
32.0
 21
23.53589799999999
 31
0.0
  0
LINE
  5
7501
330
7493
100
AcDbEntity
  8
OBJECT
100
AcDbLine
 10
32.0
 20
23.53589799999999
 30
0.0
 11
30.0
 21
26.99999999999999
 31
0.0
  0
LINE
  5
7502
330
7493
100
AcDbEntity
  8
OBJECT
100
AcDbLine
 10
28.0
 20
17.535898
 30
0.0
 11
30.0
 21
20.99999999999999
 31
0.0
  0
LINE
  5
7503
330
7493
100
AcDbEntity
  8
OBJECT
100
AcDbLine
 10
28.0
 20
17.535898
 30
0.0
 11
32.0
 21
17.535898
 31
0.0
  0
LINE
  5
7504
330
7493
100
AcDbEntity
  8
OBJECT
100
AcDbLine
 10
32.0
 20
17.535898
 30
0.0
 11
30.0
 21
20.99999999999999
 31
0.0
  0
LINE
  5
7505
330
7493
100
AcDbEntity
  8
OBJECT
100
AcDbLine
 10
44.5
 20
13.0
 30
0.0
 11
45.49999999999999
 21
13.0
 31
0.0
  0
LINE
  5
7506
330
7493
100
AcDbEntity
  8
OBJECT
100
AcDbLine
 10
39.5
 20
13.0
 30
0.0
 11
40.49999999999999
 21
13.0
 31
0.0
  0
LINE
  5
7507
330
7493
100
AcDbEntity
  8
OBJECT
100
AcDbLine
 10
28.0
 20
11.53589799999999
 30
0.0
 11
32.0
 21
11.53589799999999
 31
0.0
  0
LINE
  5
7508
330
7493
100
AcDbEntity
  8
OBJECT
100
AcDbLine
 10
80.0
 20
10.0
 30
0.0
 11
80.0
 21
40.0
 31
0.0
  0
LINE
  5
7509
330
7493
100
AcDbEntity
  8
OBJECT
100
AcDbLine
 10
50.0
 20
10.0
 30
0.0
 11
50.0
 21
40.0
 31
0.0
  0
LINE
  5
750A
330
7493
100
AcDbEntity
  8
OBJECT
100
AcDbLine
 10
35.0
 20
10.0
 30
0.0
 11
35.0
 21
40.0
 31
0.0
  0
LINE
  5
750B
330
7493
100
AcDbEntity
  8
OBJECT
100
AcDbLine
 10
32.0
 20
11.53589799999999
 30
0.0
 11
30.0
 21
15.0
 31
0.0
  0
LINE
  5
750C
330
7493
100
AcDbEntity
  8
OBJECT
100
AcDbLine
 10
28.0
 20
11.53589799999999
 30
0.0
 11
30.0
 21
15.0
 31
0.0
  0
LINE
  5
750D
330
7493
100
AcDbEntity
  8
OBJECT
100
AcDbLine
 10
130.0
 20
40.0
 30
0.0
 11
25.0
 21
40.0
 31
0.0
  0
LINE
  5
750E
330
7493
100
AcDbEntity
  8
OBJECT
100
AcDbLine
 10
130.0
 20
34.0
 30
0.0
 11
25.0
 21
34.0
 31
0.0
  0
LINE
  5
750F
330
7493
100
AcDbEntity
  8
OBJECT
100
AcDbLine
 10
130.0
 20
28.0
 30
0.0
 11
25.0
 21
28.0
 31
0.0
  0
LINE
  5
7510
330
7493
100
AcDbEntity
  8
OBJECT
100
AcDbLine
 10
130.0
 20
22.0
 30
0.0
 11
25.0
 21
22.0
 31
0.0
  0
LINE
  5
7511
330
7493
100
AcDbEntity
  8
OBJECT
100
AcDbLine
 10
130.0
 20
16.0
 30
0.0
 11
25.0
 21
16.0
 31
0.0
  0
ATTDEF
  5
7512
330
7493
100
AcDbEntity
  8
0
 62
     0
100
AcDbText
 10
19.0
 20
118.0
 30
0.0
 40
3.0
  1

 50
90.0
  7
ADESK1
100
AcDbAttributeDefinition
  3

  2
FNAME
 70
     8
  0
ATTDEF
  5
7513
330
7493
100
AcDbEntity
  8
0
 62
     0
100
AcDbText
 10
19.0
 20
70.0
 30
0.0
 40
3.0
  1

 50
90.0
  7
ADESK1
100
AcDbAttributeDefinition
  3

  2
REVDATE
 70
     8
  0
ATTDEF
  5
7514
330
7493
100
AcDbEntity
  8
0
 62
     0
100
AcDbText
 10
19.0
 20
10.0
 30
0.0
 40
3.0
  1

 50
90.0
  7
ADESK1
100
AcDbAttributeDefinition
  3

  2
USER
 70
     8
  0
LINE
  5
7515
330
7493
100
AcDbEntity
  8
0
100
AcDbLine
 10
410.0
 20
297.0
 30
0.0
 11
420.0
 21
297.0
 31
0.0
  0
LINE
  5
7516
330
7493
100
AcDbEntity
  8
0
100
AcDbLine
 10
420.0
 20
10.0
 30
0.0
 11
420.0
 21
0.0
 31
0.0
  0
LINE
  5
7517
330
7493
100
AcDbEntity
  8
0
100
AcDbLine
 10
25.0
 20
0.0
 30
0.0
 11
0.0
 21
0.0
 31
0.0
  0
LINE
  5
7518
330
7493
100
AcDbEntity
  8
0
100
AcDbLine
 10
0.0
 20
287.0
 30
0.0
 11
0.0
 21
297.0
 31
0.0
  0
LINE
  5
7519
330
7493
100
AcDbEntity
  8
0
100
AcDbLine
 10
25.0
 20
287.0
 30
0.0
 11
410.0
 21
287.0
 31
0.0
  0
LINE
  5
751A
330
7493
100
AcDbEntity
  8
0
100
AcDbLine
 10
410.0
 20
287.0
 30
0.0
 11
410.0
 21
10.0
 31
0.0
  0
LINE
  5
751B
330
7493
100
AcDbEntity
  8
0
100
AcDbLine
 10
410.0
 20
10.0
 30
0.0
 11
25.0
 21
10.0
 31
0.0
  0
LINE
  5
751C
330
7493
100
AcDbEntity
  8
0
100
AcDbLine
 10
25.0
 20
10.0
 30
0.0
 11
25.0
 21
287.0
 31
0.0
  0
LINE
  5
751D
330
7493
100
AcDbEntity
  8
0
100
AcDbLine
 10
420.0
 20
0.0
 30
0.0
 11
410.0
 21
0.0
 31
0.0
  0
LINE
  5
751E
330
7493
100
AcDbEntity
  8
0
100
AcDbLine
 10
420.0
 20
297.0
 30
0.0
 11
420.0
 21
287.0
 31
0.0
  0
LINE
  5
751F
330
7493
100
AcDbEntity
  8
0
100
AcDbLine
 10
0.0
 20
297.0
 30
0.0
 11
25.0
 21
297.0
 31
0.0
  0
LINE
  5
7520
330
7493
100
AcDbEntity
  8
0
100
AcDbLine
 10
0.0
 20
0.0
 30
0.0
 11
0.0
 21
10.0
 31
0.0
  0
ENDBLK
  5
7521
330
7493
100
AcDbEntity
  8
0
100
AcDbBlockEnd
  0
BLOCK
  5
9797
330
978C
100
AcDbEntity
  8
0
 48
25.0
100
AcDbBlockBegin
  2
*D1
 70
     1
 10
0.0
 20
0.0
 30
0.0
  3
*D1
  1

  0
LINE
  5
B3E5
330
978C
100
AcDbEntity
  8
寸法引出
 48
25.0
370
    -2
100
AcDbLine
 10
5982.209029285506
 20
3187.836028627845
 30
0.0
 11
5982.209029285507
 21
3084.197433691858
 31
0.0
  0
LINE
  5
B3E6
330
978C
100
AcDbEntity
  8
寸法引出
 48
25.0
370
    -2
100
AcDbLine
 10
6102.209029285507
 20
3307.836028627843
 30
0.0
 11
6205.847624221492
 21
3307.836028627844
 31
0.0
  0
ARC
  5
B3E7
330
978C
100
AcDbEntity
  8
寸法引出
 48
25.0
370
    -2
100
AcDbCircle
 10
5982.209029285506
 20
3307.836028627844
 30
0.0
 40
213.6385949359851
100
AcDbArc
 50
278.0523315159737
 51
351.9476684840262
  0
SOLID
  5
B3E8
330
978C
100
AcDbEntity
  8
寸法引出
 48
25.0
100
AcDbTrace
 10
6012.486052147083
 20
3091.316134221212
 30
0.0
 11
6011.783931820721
 21
3101.291455120678
 31
0.0
 12
5982.209029285506
 22
3094.197433691858
 32
0.0
 13
5982.209029285506
 23
3094.197433691858
 33
0.0
  0
SOLID
  5
B3E9
330
978C
100
AcDbEntity
  8
寸法引出
 48
25.0
100
AcDbTrace
 10
6188.753602792672
 20
3278.261126092629
 30
0.0
 11
6198.728923692137
 21
3277.559005766267
 31
0.0
 12
6195.847624221492
 22
3307.836028627843
 32
0.0
 13
6195.847624221492
 23
3307.836028627843
 33
0.0
  0
MTEXT
  5
B3EA
330
978C
100
AcDbEntity
  8
寸法引出
 48
25.0
100
AcDbMText
 10
6104.990057240446
 20
3185.055000672904
 30
0.0
 40
40.0
 41
0.0
 71
     5
 72
     1
  1
\A1;157
  7
SANWA
 11
0.7071067811865476
 21
0.7071067811865475
 31
0.0
 73
     1
 44
1.0
  0
POINT
  5
B3EB
330
978C
100
AcDbEntity
  8
DEFPOINTS
 62
     0
 48
25.0
100
AcDbPoint
 10
5982.209029285506
 20
3307.836028627844
 30
0.0
  0
POINT
  5
B3EC
330
978C
100
AcDbEntity
  8
DEFPOINTS
 62
     0
 48
25.0
100
AcDbPoint
 10
5982.209029285506
 20
3207.836028627844
 30
0.0
  0
POINT
  5
B3ED
330
978C
100
AcDbEntity
  8
DEFPOINTS
 62
     0
 48
25.0
100
AcDbPoint
 10
6082.209029285507
 20
3307.836028627844
 30
0.0
  0
POINT
  5
B3EE
330
978C
100
AcDbEntity
  8
DEFPOINTS
 62
     0
 48
25.0
100
AcDbPoint
 10
6089.028326753499
 20
3122.819578184468
 30
0.0
  0
ENDBLK
  5
9798
330
978C
100
AcDbEntity
  8
0
 48
25.0
100
AcDbBlockEnd
  0
BLOCK
  5
9828
330
981F
100
AcDbEntity
  8
0
 48
25.0
100
AcDbBlockBegin
  2
*D2
 70
     1
 10
0.0
 20
0.0
 30
0.0
  3
*D2
  1

  0
LINE
  5
B318
330
981F
100
AcDbEntity
  8
寸法引出
 48
25.0
370
    -2
100
AcDbLine
 10
4607.993792760311
 20
3786.381907904721
 30
0.0
 11
4607.993792760311
 21
3898.446434966673
 31
0.0
  0
LINE
  5
B319
330
981F
100
AcDbEntity
  8
寸法引出
 48
25.0
370
    -2
100
AcDbLine
 10
3877.993792760311
 20
3888.446434966672
 30
0.0
 11
4577.993792760311
 21
3888.446434966672
 31
0.0
  0
SOLID
  5
B31A
330
981F
100
AcDbEntity
  8
寸法引出
 48
25.0
100
AcDbTrace
 10
3877.993792760311
 20
3893.446434966672
 30
0.0
 11
3877.993792760311
 21
3883.446434966673
 31
0.0
 12
3847.993792760311
 22
3888.446434966672
 32
0.0
 13
3847.993792760311
 23
3888.446434966672
 33
0.0
  0
SOLID
  5
B31B
330
981F
100
AcDbEntity
  8
寸法引出
 48
25.0
100
AcDbTrace
 10
4577.993792760311
 20
3893.446434966672
 30
0.0
 11
4577.993792760311
 21
3883.446434966673
 31
0.0
 12
4607.993792760311
 22
3888.446434966672
 32
0.0
 13
4607.993792760311
 23
3888.446434966672
 33
0.0
  0
MTEXT
  5
B31C
330
981F
100
AcDbEntity
  8
寸法引出
 48
25.0
100
AcDbMText
 10
4227.993792760311
 20
3928.446434966673
 30
0.0
 40
40.0
 41
0.0
 71
     5
 72
     1
  1
\A1;760
  7
SANWA
 73
     1
 44
1.0
  0
POINT
  5
B31D
330
981F
100
AcDbEntity
  8
DEFPOINTS
 62
     0
 48
25.0
100
AcDbPoint
 10
3847.993792760311
 20
3766.381907904721
 30
0.0
  0
POINT
  5
B31E
330
981F
100
AcDbEntity
  8
DEFPOINTS
 62
     0
 48
25.0
100
AcDbPoint
 10
4607.993792760311
 20
3766.381907904721
 30
0.0
  0
POINT
  5
B31F
330
981F
100
AcDbEntity
  8
DEFPOINTS
 62
     0
 48
25.0
100
AcDbPoint
 10
4607.993792760311
 20
3888.446434966672
 30
0.0
  0
ENDBLK
  5
9829
330
981F
100
AcDbEntity
  8
0
 48
25.0
100
AcDbBlockEnd
  0
BLOCK
  5
9833
330
982A
100
AcDbEntity
  8
0
 48
25.0
100
AcDbBlockBegin
  2
*D3
 70
     1
 10
0.0
 20
0.0
 30
0.0
  3
*D3
  1

  0
LINE
  5
B3F8
330
982A
100
AcDbEntity
  8
寸法引出
 48
25.0
370
    -2
100
AcDbLine
 10
4727.993792760311
 20
3786.381907904721
 30
0.0
 11
4727.993792760311
 21
3898.446434966673
 31
0.0
  0
LINE
  5
B3F9
330
982A
100
AcDbEntity
  8
寸法引出
 48
25.0
370
    -2
100
AcDbLine
 10
4637.993792760311
 20
3888.446434966672
 30
0.0
 11
4697.993792760311
 21
3888.446434966672
 31
0.0
  0
SOLID
  5
B3FA
330
982A
100
AcDbEntity
  8
寸法引出
 48
25.0
100
AcDbTrace
 10
4637.993792760311
 20
3893.446434966672
 30
0.0
 11
4637.993792760311
 21
3883.446434966673
 31
0.0
 12
4607.993792760311
 22
3888.446434966672
 32
0.0
 13
4607.993792760311
 23
3888.446434966672
 33
0.0
  0
SOLID
  5
B3FB
330
982A
100
AcDbEntity
  8
寸法引出
 48
25.0
100
AcDbTrace
 10
4697.993792760311
 20
3893.446434966672
 30
0.0
 11
4697.993792760311
 21
3883.446434966673
 31
0.0
 12
4727.993792760311
 22
3888.446434966672
 32
0.0
 13
4727.993792760311
 23
3888.446434966672
 33
0.0
  0
MTEXT
  5
B3FC
330
982A
100
AcDbEntity
  8
寸法引出
 48
25.0
100
AcDbMText
 10
4667.993792760311
 20
3928.446434966673
 30
0.0
 40
40.0
 41
0.0
 71
     5
 72
     1
  1
\A1;120
  7
SANWA
 73
     1
 44
1.0
  0
POINT
  5
B3FD
330
982A
100
AcDbEntity
  8
DEFPOINTS
 62
     0
 48
25.0
100
AcDbPoint
 10
4607.993792760311
 20
3766.381907904721
 30
0.0
  0
POINT
  5
B3FE
330
982A
100
AcDbEntity
  8
DEFPOINTS
 62
     0
 48
25.0
100
AcDbPoint
 10
4727.993792760311
 20
3766.381907904721
 30
0.0
  0
POINT
  5
B3FF
330
982A
100
AcDbEntity
  8
DEFPOINTS
 62
     0
 48
25.0
100
AcDbPoint
 10
4727.993792760311
 20
3888.446434966672
 30
0.0
  0
ENDBLK
  5
9834
330
982A
100
AcDbEntity
  8
0
 48
25.0
100
AcDbBlockEnd
  0
BLOCK
  5
983F
330
9835
100
AcDbEntity
  8
0
 48
25.0
100
AcDbBlockBegin
  2
*D4
 70
     1
 10
0.0
 20
0.0
 30
0.0
  3
*D4
  1

  0
LINE
  5
B3D2
330
9835
100
AcDbEntity
  8
寸法引出
 48
25.0
370
    -2
100
AcDbLine
 10
5702.209029285505
 20
3847.836028627844
 30
0.0
 11
5598.411536745354
 21
3847.836028627844
 31
0.0
  0
LINE
  5
B3D3
330
9835
100
AcDbEntity
  8
寸法引出
 48
25.0
370
    -2
100
AcDbLine
 10
5702.209029285502
 20
3307.836028627844
 30
0.0
 11
5598.411536745354
 21
3307.836028627844
 31
0.0
  0
LINE
  5
B3D4
330
9835
100
AcDbEntity
  8
寸法引出
 48
25.0
370
    -2
100
AcDbLine
 10
5608.411536745354
 20
3817.836028627844
 30
0.0
 11
5608.411536745354
 21
3337.836028627844
 31
0.0
  0
SOLID
  5
B3D5
330
9835
100
AcDbEntity
  8
寸法引出
 48
25.0
100
AcDbTrace
 10
5603.411536745355
 20
3817.836028627844
 30
0.0
 11
5613.411536745354
 21
3817.836028627844
 31
0.0
 12
5608.411536745354
 22
3847.836028627844
 32
0.0
 13
5608.411536745354
 23
3847.836028627844
 33
0.0
  0
SOLID
  5
B3D6
330
9835
100
AcDbEntity
  8
寸法引出
 48
25.0
100
AcDbTrace
 10
5603.411536745355
 20
3337.836028627844
 30
0.0
 11
5613.411536745354
 21
3337.836028627844
 31
0.0
 12
5608.411536745354
 22
3307.836028627844
 32
0.0
 13
5608.411536745354
 23
3307.836028627844
 33
0.0
  0
MTEXT
  5
B3D7
330
9835
100
AcDbEntity
  8
寸法引出
 48
25.0
100
AcDbMText
 10
5568.411536745354
 20
3577.836028627845
 30
0.0
 40
40.0
 41
0.0
 71
     5
 72
     1
  1
\A1;540
  7
SANWA
 11
0.0000000000000001
 21
1.0
 31
0.0
 73
     1
 44
1.0
  0
POINT
  5
B3D8
330
9835
100
AcDbEntity
  8
DEFPOINTS
 62
     0
 48
25.0
100
AcDbPoint
 10
5722.209029285505
 20
3847.836028627844
 30
0.0
  0
POINT
  5
B3D9
330
9835
100
AcDbEntity
  8
DEFPOINTS
 62
     0
 48
25.0
100
AcDbPoint
 10
5722.209029285503
 20
3307.836028627844
 30
0.0
  0
POINT
  5
B3DA
330
9835
100
AcDbEntity
  8
DEFPOINTS
 62
     0
 48
25.0
100
AcDbPoint
 10
5608.411536745354
 20
3307.836028627844
 30
0.0
  0
ENDBLK
  5
9840
330
9835
100
AcDbEntity
  8
0
 48
25.0
100
AcDbBlockEnd
  0
BLOCK
  5
984C
330
9841
100
AcDbEntity
  8
0
 48
25.0
100
AcDbBlockBegin
  2
*D5
 70
     1
 10
0.0
 20
0.0
 30
0.0
  3
*D5
  1

  0
LINE
  5
B3DB
330
9841
100
AcDbEntity
  8
寸法引出
 48
25.0
370
    -2
100
AcDbLine
 10
5702.209029285502
 20
3307.836028627844
 30
0.0
 11
5598.41153674535
 21
3307.836028627844
 31
0.0
  0
LINE
  5
B3DC
330
9841
100
AcDbEntity
  8
寸法引出
 48
25.0
370
    -2
100
AcDbLine
 10
5822.209029285502
 20
3187.836028627844
 30
0.0
 11
5822.209029285505
 21
3084.038536087692
 31
0.0
  0
ARC
  5
B3DD
330
9841
100
AcDbEntity
  8
寸法引出
 48
25.0
370
    -2
100
AcDbCircle
 10
5822.209029285502
 20
3307.836028627844
 30
0.0
 40
213.7974925401515
100
AcDbArc
 50
188.0463370397655
 51
261.9536629602346
  0
SOLID
  5
B3DE
330
9841
100
AcDbEntity
  8
寸法引出
 48
25.0
100
AcDbTrace
 10
5605.528653436917
 20
3277.559156533291
 30
0.0
 11
5615.504011051823
 21
3278.260755032965
 31
0.0
 12
5608.41153674535
 22
3307.836028627845
 32
0.0
 13
5608.41153674535
 23
3307.836028627845
 33
0.0
  0
SOLID
  5
B3DF
330
9841
100
AcDbEntity
  8
寸法引出
 48
25.0
100
AcDbTrace
 10
5792.633755690623
 20
3101.131010394163
 30
0.0
 11
5791.932157190951
 21
3091.155652779258
 31
0.0
 12
5822.209029285502
 22
3094.038536087692
 32
0.0
 13
5822.209029285502
 23
3094.038536087692
 33
0.0
  0
MTEXT
  5
B3E0
330
9841
100
AcDbEntity
  8
寸法引出
 48
25.0
100
AcDbMText
 10
5699.315643757143
 20
3184.942643099485
 30
0.0
 40
40.0
 41
0.0
 71
     5
 72
     1
  1
\A1;157
  7
SANWA
 11
0.7071067811865476
 21
-0.7071067811865475
 31
0.0
 73
     1
 44
1.0
  0
POINT
  5
B3E1
330
9841
100
AcDbEntity
  8
DEFPOINTS
 62
     0
 48
25.0
100
AcDbPoint
 10
5822.209029285502
 20
3307.836028627844
 30
0.0
  0
POINT
  5
B3E2
330
9841
100
AcDbEntity
  8
DEFPOINTS
 62
     0
 48
25.0
100
AcDbPoint
 10
5722.209029285503
 20
3307.836028627844
 30
0.0
  0
POINT
  5
B3E3
330
9841
100
AcDbEntity
  8
DEFPOINTS
 62
     0
 48
25.0
100
AcDbPoint
 10
5822.209029285502
 20
3207.836028627844
 30
0.0
  0
POINT
  5
B3E4
330
9841
100
AcDbEntity
  8
DEFPOINTS
 62
     0
 48
25.0
100
AcDbPoint
 10
5637.054969480317
 20
3200.937282357768
 30
0.0
  0
ENDBLK
  5
984D
330
9841
100
AcDbEntity
  8
0
 48
25.0
100
AcDbBlockEnd
  0
BLOCK
  5
9858
330
984E
100
AcDbEntity
  8
0
 48
25.0
100
AcDbBlockBegin
  2
*D6
 70
     1
 10
0.0
 20
0.0
 30
0.0
  3
*D6
  1

  0
LINE
  5
B3EF
330
984E
100
AcDbEntity
  8
寸法引出
 48
25.0
370
    -2
100
AcDbLine
 10
5822.209029285502
 20
3187.836028627844
 30
0.0
 11
5822.209029285502
 21
3084.197433691858
 31
0.0
  0
LINE
  5
B3F0
330
984E
100
AcDbEntity
  8
寸法引出
 48
25.0
370
    -2
100
AcDbLine
 10
5982.209029285506
 20
3187.836028627844
 30
0.0
 11
5982.209029285506
 21
3084.197433691858
 31
0.0
  0
LINE
  5
B3F1
330
984E
100
AcDbEntity
  8
寸法引出
 48
25.0
370
    -2
100
AcDbLine
 10
5852.209029285503
 20
3094.197433691858
 30
0.0
 11
5952.209029285507
 21
3094.197433691858
 31
0.0
  0
SOLID
  5
B3F2
330
984E
100
AcDbEntity
  8
寸法引出
 48
25.0
100
AcDbTrace
 10
5852.209029285503
 20
3099.197433691858
 30
0.0
 11
5852.209029285503
 21
3089.197433691857
 31
0.0
 12
5822.209029285502
 22
3094.197433691858
 32
0.0
 13
5822.209029285502
 23
3094.197433691858
 33
0.0
  0
SOLID
  5
B3F3
330
984E
100
AcDbEntity
  8
寸法引出
 48
25.0
100
AcDbTrace
 10
5952.209029285507
 20
3099.197433691858
 30
0.0
 11
5952.209029285507
 21
3089.197433691857
 31
0.0
 12
5982.209029285506
 22
3094.197433691858
 32
0.0
 13
5982.209029285506
 23
3094.197433691858
 33
0.0
  0
MTEXT
  5
B3F4
330
984E
100
AcDbEntity
  8
寸法引出
 48
25.0
100
AcDbMText
 10
5902.209029285504
 20
3134.197433691857
 30
0.0
 40
40.0
 41
0.0
 71
     5
 72
     1
  1
\A1;160
  7
SANWA
 73
     1
 44
1.0
  0
POINT
  5
B3F5
330
984E
100
AcDbEntity
  8
DEFPOINTS
 62
     0
 48
25.0
100
AcDbPoint
 10
5822.209029285502
 20
3207.836028627844
 30
0.0
  0
POINT
  5
B3F6
330
984E
100
AcDbEntity
  8
DEFPOINTS
 62
     0
 48
25.0
100
AcDbPoint
 10
5982.209029285506
 20
3207.836028627844
 30
0.0
  0
POINT
  5
B3F7
330
984E
100
AcDbEntity
  8
DEFPOINTS
 62
     0
 48
25.0
100
AcDbPoint
 10
5982.209029285506
 20
3094.197433691858
 30
0.0
  0
ENDBLK
  5
9859
330
984E
100
AcDbEntity
  8
0
 48
25.0
100
AcDbBlockEnd
  0
BLOCK
  5
9864
330
985A
100
AcDbEntity
  8
0
 48
25.0
100
AcDbBlockBegin
  2
*D7
 70
     1
 10
0.0
 20
0.0
 30
0.0
  3
*D7
  1

  0
LINE
  5
B3C9
330
985A
100
AcDbEntity
  8
寸法引出
 48
25.0
370
    -2
100
AcDbLine
 10
6102.209029285504
 20
3847.836028627844
 30
0.0
 11
6205.847624221493
 21
3847.836028627844
 31
0.0
  0
LINE
  5
B3CA
330
985A
100
AcDbEntity
  8
寸法引出
 48
25.0
370
    -2
100
AcDbLine
 10
6102.209029285507
 20
3307.836028627844
 30
0.0
 11
6205.847624221493
 21
3307.836028627844
 31
0.0
  0
LINE
  5
B3CB
330
985A
100
AcDbEntity
  8
寸法引出
 48
25.0
370
    -2
100
AcDbLine
 10
6195.847624221492
 20
3817.836028627844
 30
0.0
 11
6195.847624221492
 21
3337.836028627844
 31
0.0
  0
SOLID
  5
B3CC
330
985A
100
AcDbEntity
  8
寸法引出
 48
25.0
100
AcDbTrace
 10
6190.847624221493
 20
3817.836028627844
 30
0.0
 11
6200.847624221493
 21
3817.836028627844
 31
0.0
 12
6195.847624221492
 22
3847.836028627844
 32
0.0
 13
6195.847624221492
 23
3847.836028627844
 33
0.0
  0
SOLID
  5
B3CD
330
985A
100
AcDbEntity
  8
寸法引出
 48
25.0
100
AcDbTrace
 10
6190.847624221493
 20
3337.836028627844
 30
0.0
 11
6200.847624221493
 21
3337.836028627844
 31
0.0
 12
6195.847624221492
 22
3307.836028627844
 32
0.0
 13
6195.847624221492
 23
3307.836028627844
 33
0.0
  0
MTEXT
  5
B3CE
330
985A
100
AcDbEntity
  8
寸法引出
 48
25.0
100
AcDbMText
 10
6155.847624221492
 20
3577.836028627845
 30
0.0
 40
40.0
 41
0.0
 71
     5
 72
     1
  1
\A1;540
  7
SANWA
 11
0.0000000000000001
 21
1.0
 31
0.0
 73
     1
 44
1.0
  0
POINT
  5
B3CF
330
985A
100
AcDbEntity
  8
DEFPOINTS
 62
     0
 48
25.0
100
AcDbPoint
 10
6082.209029285504
 20
3847.836028627844
 30
0.0
  0
POINT
  5
B3D0
330
985A
100
AcDbEntity
  8
DEFPOINTS
 62
     0
 48
25.0
100
AcDbPoint
 10
6082.209029285507
 20
3307.836028627844
 30
0.0
  0
POINT
  5
B3D1
330
985A
100
AcDbEntity
  8
DEFPOINTS
 62
     0
 48
25.0
100
AcDbPoint
 10
6195.847624221492
 20
3307.836028627844
 30
0.0
  0
ENDBLK
  5
9865
330
985A
100
AcDbEntity
  8
0
 48
25.0
100
AcDbBlockEnd
  0
BLOCK
  5
9896
330
988C
100
AcDbEntity
  8
0
 48
25.0
100
AcDbBlockBegin
  2
*D8
 70
     1
 10
0.0
 20
0.0
 30
0.0
  3
*D8
  1

  0
LINE
  5
B26F
330
988C
100
AcDbEntity
  8
寸法引出
 48
25.0
370
    -2
100
AcDbLine
 10
2727.993792760311
 20
2277.635917105981
 30
0.0
 11
2727.993792760311
 21
2346.955860364498
 31
0.0
  0
LINE
  5
B270
330
988C
100
AcDbEntity
  8
寸法引出
 48
25.0
370
    -2
100
AcDbLine
 10
4727.993792760311
 20
2277.635917105981
 30
0.0
 11
4727.993792760311
 21
2346.955860364498
 31
0.0
  0
LINE
  5
B271
330
988C
100
AcDbEntity
  8
寸法引出
 48
25.0
370
    -2
100
AcDbLine
 10
2757.993792760311
 20
2336.955860364498
 30
0.0
 11
4697.993792760311
 21
2336.955860364498
 31
0.0
  0
SOLID
  5
B272
330
988C
100
AcDbEntity
  8
寸法引出
 48
25.0
100
AcDbTrace
 10
2757.993792760311
 20
2341.955860364498
 30
0.0
 11
2757.993792760311
 21
2331.955860364498
 31
0.0
 12
2727.993792760311
 22
2336.955860364498
 32
0.0
 13
2727.993792760311
 23
2336.955860364498
 33
0.0
  0
SOLID
  5
B273
330
988C
100
AcDbEntity
  8
寸法引出
 48
25.0
100
AcDbTrace
 10
4697.993792760311
 20
2341.955860364498
 30
0.0
 11
4697.993792760311
 21
2331.955860364498
 31
0.0
 12
4727.993792760311
 22
2336.955860364498
 32
0.0
 13
4727.993792760311
 23
2336.955860364498
 33
0.0
  0
MTEXT
  5
B274
330
988C
100
AcDbEntity
  8
寸法引出
 48
25.0
100
AcDbMText
 10
3727.993792760311
 20
2376.955860364498
 30
0.0
 40
40.0
 41
0.0
 71
     5
 72
     1
  1
\A1;2000
  7
SANWA
 73
     1
 44
1.0
  0
POINT
  5
B275
330
988C
100
AcDbEntity
  8
DEFPOINTS
 62
     0
 48
25.0
100
AcDbPoint
 10
2727.993792760311
 20
2257.635917105981
 30
0.0
  0
POINT
  5
B276
330
988C
100
AcDbEntity
  8
DEFPOINTS
 62
     0
 48
25.0
100
AcDbPoint
 10
4727.993792760311
 20
2257.635917105981
 30
0.0
  0
POINT
  5
B277
330
988C
100
AcDbEntity
  8
DEFPOINTS
 62
     0
 48
25.0
100
AcDbPoint
 10
4727.993792760311
 20
2336.955860364498
 30
0.0
  0
ENDBLK
  5
9897
330
988C
100
AcDbEntity
  8
0
 48
25.0
100
AcDbBlockEnd
  0
BLOCK
  5
98D3
330
98CA
100
AcDbEntity
  8
0
 48
25.0
100
AcDbBlockBegin
  2
*D9
 70
     1
 10
0.0
 20
0.0
 30
0.0
  3
*D9
  1

  0
LINE
  5
B3C1
330
98CA
100
AcDbEntity
  8
寸法引出
 48
25.0
370
    -2
100
AcDbLine
 10
3847.993792760311
 20
3786.381907904721
 30
0.0
 11
3847.993792760311
 21
3898.446434966673
 31
0.0
  0
LINE
  5
B3C2
330
98CA
100
AcDbEntity
  8
寸法引出
 48
25.0
370
    -2
100
AcDbLine
 10
3637.993792760311
 20
3888.446434966672
 30
0.0
 11
3817.993792760311
 21
3888.446434966672
 31
0.0
  0
SOLID
  5
B3C3
330
98CA
100
AcDbEntity
  8
寸法引出
 48
25.0
100
AcDbTrace
 10
3637.993792760311
 20
3893.446434966672
 30
0.0
 11
3637.993792760311
 21
3883.446434966673
 31
0.0
 12
3607.993792760311
 22
3888.446434966672
 32
0.0
 13
3607.993792760311
 23
3888.446434966672
 33
0.0
  0
SOLID
  5
B3C4
330
98CA
100
AcDbEntity
  8
寸法引出
 48
25.0
100
AcDbTrace
 10
3817.993792760311
 20
3893.446434966672
 30
0.0
 11
3817.993792760311
 21
3883.446434966673
 31
0.0
 12
3847.993792760311
 22
3888.446434966672
 32
0.0
 13
3847.993792760311
 23
3888.446434966672
 33
0.0
  0
MTEXT
  5
B3C5
330
98CA
100
AcDbEntity
  8
寸法引出
 48
25.0
100
AcDbMText
 10
3727.993792760311
 20
3928.446434966673
 30
0.0
 40
40.0
 41
0.0
 71
     5
 72
     1
  1
\A1;240
  7
SANWA
 73
     1
 44
1.0
  0
POINT
  5
B3C6
330
98CA
100
AcDbEntity
  8
DEFPOINTS
 62
     0
 48
25.0
100
AcDbPoint
 10
3607.993792760311
 20
3766.381907904721
 30
0.0
  0
POINT
  5
B3C7
330
98CA
100
AcDbEntity
  8
DEFPOINTS
 62
     0
 48
25.0
100
AcDbPoint
 10
3847.993792760311
 20
3766.381907904721
 30
0.0
  0
POINT
  5
B3C8
330
98CA
100
AcDbEntity
  8
DEFPOINTS
 62
     0
 48
25.0
100
AcDbPoint
 10
3847.993792760311
 20
3888.446434966672
 30
0.0
  0
ENDBLK
  5
98D4
330
98CA
100
AcDbEntity
  8
0
 48
25.0
100
AcDbBlockEnd
  0
BLOCK
  5
9907
330
98FD
100
AcDbEntity
  8
0
 48
25.0
100
AcDbBlockBegin
  2
*D10
 70
     1
 10
0.0
 20
0.0
 30
0.0
  3
*D10
  1

  0
LINE
  5
B2F4
330
98FD
100
AcDbEntity
  8
寸法引出
 48
25.0
370
    -2
100
AcDbLine
 10
2707.993792760311
 20
2257.635917105981
 30
0.0
 11
2475.774337204994
 21
2257.635917105981
 31
0.0
  0
LINE
  5
B2F5
330
98FD
100
AcDbEntity
  8
寸法引出
 48
25.0
370
    -2
100
AcDbLine
 10
2707.993792760311
 20
1857.635917105981
 30
0.0
 11
2475.774337204994
 21
1857.635917105982
 31
0.0
  0
LINE
  5
B2F6
330
98FD
100
AcDbEntity
  8
寸法引出
 48
25.0
370
    -2
100
AcDbLine
 10
2485.774337204993
 20
2227.635917105981
 30
0.0
 11
2485.774337204993
 21
1887.635917105981
 31
0.0
  0
SOLID
  5
B2F7
330
98FD
100
AcDbEntity
  8
寸法引出
 48
25.0
100
AcDbTrace
 10
2480.774337204993
 20
2227.635917105981
 30
0.0
 11
2490.774337204993
 21
2227.635917105981
 31
0.0
 12
2485.774337204993
 22
2257.635917105981
 32
0.0
 13
2485.774337204993
 23
2257.635917105981
 33
0.0
  0
SOLID
  5
B2F8
330
98FD
100
AcDbEntity
  8
寸法引出
 48
25.0
100
AcDbTrace
 10
2480.774337204993
 20
1887.635917105981
 30
0.0
 11
2490.774337204993
 21
1887.635917105981
 31
0.0
 12
2485.774337204993
 22
1857.635917105982
 32
0.0
 13
2485.774337204993
 23
1857.635917105982
 33
0.0
  0
MTEXT
  5
B2F9
330
98FD
100
AcDbEntity
  8
寸法引出
 48
25.0
100
AcDbMText
 10
2445.774337204993
 20
2057.635917105982
 30
0.0
 40
40.0
 41
0.0
 71
     5
 72
     1
  1
\A1;400
  7
SANWA
 11
0.0000000000000001
 21
1.0
 31
0.0
 73
     1
 44
1.0
  0
POINT
  5
B2FA
330
98FD
100
AcDbEntity
  8
DEFPOINTS
 62
     0
 48
25.0
100
AcDbPoint
 10
2727.993792760311
 20
2257.635917105981
 30
0.0
  0
POINT
  5
B2FB
330
98FD
100
AcDbEntity
  8
DEFPOINTS
 62
     0
 48
25.0
100
AcDbPoint
 10
2727.993792760311
 20
1857.635917105981
 30
0.0
  0
POINT
  5
B2FC
330
98FD
100
AcDbEntity
  8
DEFPOINTS
 62
     0
 48
25.0
100
AcDbPoint
 10
2485.774337204993
 20
1857.635917105982
 30
0.0
  0
ENDBLK
  5
9908
330
98FD
100
AcDbEntity
  8
0
 48
25.0
100
AcDbBlockEnd
  0
BLOCK
  5
9970
330
9964
100
AcDbEntity
  8
0
 48
25.0
100
AcDbBlockBegin
  2
*D11
 70
     1
 10
0.0
 20
0.0
 30
0.0
  3
*D11
  1

  0
LINE
  5
B345
330
9964
100
AcDbEntity
  8
寸法引出
 48
25.0
370
    -2
100
AcDbLine
 10
1402.165397087695
 20
3130.524043528452
 30
0.0
 11
1335.351831000877
 21
3197.337609615276
 31
0.0
  0
LINE
  5
B346
330
9964
100
AcDbEntity
  8
寸法引出
 48
25.0
370
    -2
100
AcDbLine
 10
1426.307532711422
 20
3086.381907904721
 30
0.0
 11
1289.392474529738
 21
3086.381907904721
 31
0.0
  0
ARC
  5
B347
330
9964
100
AcDbEntity
  8
寸法引出
 48
25.0
370
    -2
100
AcDbCircle
 10
1446.307532711422
 20
3086.381907904721
 30
0.0
 40
146.9150581816839
100
AcDbArc
 50
146.7201998606355
 51
168.2798001393617
  0
SOLID
  5
B348
330
9964
100
AcDbEntity
  8
寸法引出
 48
25.0
100
AcDbTrace
 10
1319.60838118568
 20
3170.154411497437
 30
0.0
 11
1327.364451426918
 21
3163.842250661955
 31
0.0
 12
1342.422898812742
 22
3190.26654180341
 32
0.0
 13
1342.422898812742
 23
3190.26654180341
 33
0.0
  0
SOLID
  5
B349
330
9964
100
AcDbEntity
  8
寸法引出
 48
25.0
100
AcDbTrace
 10
1307.429339723253
 20
3115.714633619548
 30
0.0
 11
1297.481598129606
 21
3116.735631751778
 31
0.0
 12
1299.392474529738
 22
3086.381907904721
 32
0.0
 13
1299.392474529738
 23
3086.381907904721
 33
0.0
  0
MTEXT
  5
B34A
330
9964
100
AcDbEntity
  8
寸法引出
 48
25.0
100
AcDbMText
 10
1290.698230285264
 20
3189.933749865677
 30
0.0
 40
40.0
 41
0.0
 71
     5
 72
     1
  1
\A1;45°
  7
SANWA
 11
0.5540048135677825
 21
0.8325134632807607
 31
0.0
 73
     1
 44
1.0
  0
POINT
  5
B34B
330
9964
100
AcDbEntity
  8
DEFPOINTS
 62
     0
 48
25.0
100
AcDbPoint
 10
1304.398483742974
 20
3124.406322974487
 30
0.0
  0
POINT
  5
B34C
330
9964
100
AcDbEntity
  8
DEFPOINTS
 62
     0
 48
25.0
100
AcDbPoint
 10
1416.307532711425
 20
3116.38190790472
 30
0.0
  0
POINT
  5
B34D
330
9964
100
AcDbEntity
  8
DEFPOINTS
 62
     0
 48
25.0
100
AcDbPoint
 10
1786.307532711425
 20
3086.381907904721
 30
0.0
  0
POINT
  5
B34E
330
9964
100
AcDbEntity
  8
DEFPOINTS
 62
     0
 48
25.0
100
AcDbPoint
 10
1446.307532711425
 20
3086.381907904721
 30
0.0
  0
POINT
  5
B34F
330
9964
100
AcDbEntity
  8
DEFPOINTS
 62
     0
 48
25.0
100
AcDbPoint
 10
1446.307532711423
 20
3086.38190790472
 30
0.0
  0
ENDBLK
  5
9971
330
9964
100
AcDbEntity
  8
0
 48
25.0
100
AcDbBlockEnd
  0
BLOCK
  5
997C
330
9972
100
AcDbEntity
  8
0
 48
25.0
100
AcDbBlockBegin
  2
*D12
 70
     1
 10
0.0
 20
0.0
 30
0.0
  3
*D12
  1

  0
LINE
  5
B33C
330
9972
100
AcDbEntity
  8
寸法引出
 48
25.0
370
    -2
100
AcDbLine
 10
1396.307532711425
 20
3766.381907904721
 30
0.0
 11
1162.646678802381
 21
3766.381907904721
 31
0.0
  0
LINE
  5
B33D
330
9972
100
AcDbEntity
  8
寸法引出
 48
25.0
370
    -2
100
AcDbLine
 10
1426.307532711425
 20
3086.381907904721
 30
0.0
 11
1162.64667880238
 21
3086.381907904721
 31
0.0
  0
LINE
  5
B33E
330
9972
100
AcDbEntity
  8
寸法引出
 48
25.0
370
    -2
100
AcDbLine
 10
1172.646678802381
 20
3736.381907904721
 30
0.0
 11
1172.64667880238
 21
3116.381907904721
 31
0.0
  0
SOLID
  5
B33F
330
9972
100
AcDbEntity
  8
寸法引出
 48
25.0
100
AcDbTrace
 10
1167.646678802381
 20
3736.381907904721
 30
0.0
 11
1177.646678802381
 21
3736.381907904721
 31
0.0
 12
1172.646678802381
 22
3766.381907904721
 32
0.0
 13
1172.646678802381
 23
3766.381907904721
 33
0.0
  0
SOLID
  5
B340
330
9972
100
AcDbEntity
  8
寸法引出
 48
25.0
100
AcDbTrace
 10
1167.64667880238
 20
3116.381907904721
 30
0.0
 11
1177.64667880238
 21
3116.381907904721
 31
0.0
 12
1172.64667880238
 22
3086.381907904721
 32
0.0
 13
1172.64667880238
 23
3086.381907904721
 33
0.0
  0
MTEXT
  5
B341
330
9972
100
AcDbEntity
  8
寸法引出
 48
25.0
100
AcDbMText
 10
1132.64667880238
 20
3426.381907904721
 30
0.0
 40
40.0
 41
0.0
 71
     5
 72
     1
  1
\A1;680
  7
SANWA
 11
0.0000000000000001
 21
1.0
 31
0.0
 73
     1
 44
1.0
  0
POINT
  5
B342
330
9972
100
AcDbEntity
  8
DEFPOINTS
 62
     0
 48
25.0
100
AcDbPoint
 10
1416.307532711425
 20
3766.381907904721
 30
0.0
  0
POINT
  5
B343
330
9972
100
AcDbEntity
  8
DEFPOINTS
 62
     0
 48
25.0
100
AcDbPoint
 10
1446.307532711425
 20
3086.381907904721
 30
0.0
  0
POINT
  5
B344
330
9972
100
AcDbEntity
  8
DEFPOINTS
 62
     0
 48
25.0
100
AcDbPoint
 10
1172.64667880238
 20
3086.381907904721
 30
0.0
  0
ENDBLK
  5
997D
330
9972
100
AcDbEntity
  8
0
 48
25.0
100
AcDbBlockEnd
  0
BLOCK
  5
9989
330
997E
100
AcDbEntity
  8
0
 48
25.0
100
AcDbBlockBegin
  2
*D13
 70
     1
 10
0.0
 20
0.0
 30
0.0
  3
*D13
  1

  0
LINE
  5
B350
330
997E
100
AcDbEntity
  8
寸法引出
 48
25.0
370
    -2
100
AcDbLine
 10
1416.307532711425
 20
3096.381907904721
 30
0.0
 11
1416.307532711425
 21
2845.03214736155
 31
0.0
  0
LINE
  5
B351
330
997E
100
AcDbEntity
  8
寸法引出
 48
25.0
370
    -2
100
AcDbLine
 10
1526.307532711425
 20
2855.03214736155
 30
0.0
 11
1556.307532711425
 21
2855.03214736155
 31
0.0
  0
LINE
  5
B352
330
997E
100
AcDbEntity
  8
寸法引出
 48
25.0
370
    -2
100
AcDbLine
 10
1386.307532711425
 20
2855.03214736155
 30
0.0
 11
1356.307532711425
 21
2855.03214736155
 31
0.0
  0
LINE
  5
B353
330
997E
100
AcDbEntity
  8
寸法引出
 48
25.0
370
    -2
100
AcDbLine
 10
1496.307532711425
 20
2855.03214736155
 30
0.0
 11
1416.307532711425
 21
2855.03214736155
 31
0.0
  0
SOLID
  5
B354
330
997E
100
AcDbEntity
  8
寸法引出
 48
25.0
100
AcDbTrace
 10
1526.307532711425
 20
2860.03214736155
 30
0.0
 11
1526.307532711425
 21
2850.03214736155
 31
0.0
 12
1496.307532711425
 22
2855.03214736155
 32
0.0
 13
1496.307532711425
 23
2855.03214736155
 33
0.0
  0
SOLID
  5
B355
330
997E
100
AcDbEntity
  8
寸法引出
 48
25.0
100
AcDbTrace
 10
1386.307532711425
 20
2860.03214736155
 30
0.0
 11
1386.307532711425
 21
2850.03214736155
 31
0.0
 12
1416.307532711425
 22
2855.03214736155
 32
0.0
 13
1416.307532711425
 23
2855.03214736155
 33
0.0
  0
MTEXT
  5
B356
330
997E
100
AcDbEntity
  8
寸法引出
 48
25.0
100
AcDbMText
 10
1456.307532711425
 20
2895.03214736155
 30
0.0
 40
40.0
 41
0.0
 71
     5
 72
     1
  1
\A1;80
  7
SANWA
 73
     1
 44
1.0
  0
POINT
  5
B357
330
997E
100
AcDbEntity
  8
DEFPOINTS
 62
     0
 48
25.0
100
AcDbPoint
 10
1496.307532711425
 20
3086.381907904721
 30
0.0
  0
POINT
  5
B358
330
997E
100
AcDbEntity
  8
DEFPOINTS
 62
     0
 48
25.0
100
AcDbPoint
 10
1416.307532711425
 20
3116.381907904721
 30
0.0
  0
POINT
  5
B359
330
997E
100
AcDbEntity
  8
DEFPOINTS
 62
     0
 48
25.0
100
AcDbPoint
 10
1416.307532711425
 20
2855.03214736155
 30
0.0
  0
ENDBLK
  5
998A
330
997E
100
AcDbEntity
  8
0
 48
25.0
100
AcDbBlockEnd
  0
BLOCK
  5
9996
330
998B
100
AcDbEntity
  8
0
 48
25.0
100
AcDbBlockBegin
  2
*D14
 70
     1
 10
0.0
 20
0.0
 30
0.0
  3
*D14
  1

  0
LINE
  5
B37F
330
998B
100
AcDbEntity
  8
寸法引出
 48
25.0
370
    -2
100
AcDbLine
 10
1416.307532711425
 20
3786.381907904721
 30
0.0
 11
1416.307532711425
 21
3878.81961767761
 31
0.0
  0
LINE
  5
B380
330
998B
100
AcDbEntity
  8
寸法引出
 48
25.0
370
    -2
100
AcDbLine
 10
1496.307532711425
 20
3868.819617677609
 30
0.0
 11
1526.307532711425
 21
3868.819617677609
 31
0.0
  0
LINE
  5
B381
330
998B
100
AcDbEntity
  8
寸法引出
 48
25.0
370
    -2
100
AcDbLine
 10
1386.307532711425
 20
3868.819617677609
 30
0.0
 11
1356.307532711425
 21
3868.819617677609
 31
0.0
  0
LINE
  5
B382
330
998B
100
AcDbEntity
  8
寸法引出
 48
25.0
370
    -2
100
AcDbLine
 10
1466.307532711425
 20
3868.819617677609
 30
0.0
 11
1416.307532711425
 21
3868.819617677609
 31
0.0
  0
SOLID
  5
B383
330
998B
100
AcDbEntity
  8
寸法引出
 48
25.0
100
AcDbTrace
 10
1496.307532711425
 20
3873.819617677609
 30
0.0
 11
1496.307532711425
 21
3863.819617677609
 31
0.0
 12
1466.307532711425
 22
3868.819617677609
 32
0.0
 13
1466.307532711425
 23
3868.819617677609
 33
0.0
  0
SOLID
  5
B384
330
998B
100
AcDbEntity
  8
寸法引出
 48
25.0
100
AcDbTrace
 10
1386.307532711425
 20
3873.819617677609
 30
0.0
 11
1386.307532711425
 21
3863.819617677609
 31
0.0
 12
1416.307532711425
 22
3868.819617677609
 32
0.0
 13
1416.307532711425
 23
3868.819617677609
 33
0.0
  0
MTEXT
  5
B385
330
998B
100
AcDbEntity
  8
寸法引出
 48
25.0
100
AcDbMText
 10
1441.307532711425
 20
3908.819617677609
 30
0.0
 40
40.0
 41
0.0
 71
     5
 72
     1
  1
\A1;50
  7
SANWA
 73
     1
 44
1.0
  0
POINT
  5
B386
330
998B
100
AcDbEntity
  8
DEFPOINTS
 62
     0
 48
25.0
100
AcDbPoint
 10
1466.307532711425
 20
3766.381907904721
 30
0.0
  0
POINT
  5
B387
330
998B
100
AcDbEntity
  8
DEFPOINTS
 62
     0
 48
25.0
100
AcDbPoint
 10
1416.307532711425
 20
3766.381907904721
 30
0.0
  0
POINT
  5
B388
330
998B
100
AcDbEntity
  8
DEFPOINTS
 62
     0
 48
25.0
100
AcDbPoint
 10
1416.307532711425
 20
3868.819617677609
 30
0.0
  0
ENDBLK
  5
9997
330
998B
100
AcDbEntity
  8
0
 48
25.0
100
AcDbBlockEnd
  0
BLOCK
  5
99A2
330
9998
100
AcDbEntity
  8
0
 48
25.0
100
AcDbBlockBegin
  2
*D15
 70
     1
 10
0.0
 20
0.0
 30
0.0
  3
*D15
  1

  0
LINE
  5
B3A7
330
9998
100
AcDbEntity
  8
寸法引出
 48
25.0
370
    -2
100
AcDbLine
 10
2707.993792760311
 20
3766.381907904721
 30
0.0
 11
2475.774337204994
 21
3766.381907904721
 31
0.0
  0
LINE
  5
B3A8
330
9998
100
AcDbEntity
  8
寸法引出
 48
25.0
370
    -2
100
AcDbLine
 10
2717.993792760311
 20
3086.381907904721
 30
0.0
 11
2475.774337204994
 21
3086.381907904721
 31
0.0
  0
LINE
  5
B3A9
330
9998
100
AcDbEntity
  8
寸法引出
 48
25.0
370
    -2
100
AcDbLine
 10
2485.774337204993
 20
3736.381907904721
 30
0.0
 11
2485.774337204993
 21
3116.381907904721
 31
0.0
  0
SOLID
  5
B3AA
330
9998
100
AcDbEntity
  8
寸法引出
 48
25.0
100
AcDbTrace
 10
2480.774337204993
 20
3736.381907904721
 30
0.0
 11
2490.774337204993
 21
3736.381907904721
 31
0.0
 12
2485.774337204993
 22
3766.381907904721
 32
0.0
 13
2485.774337204993
 23
3766.381907904721
 33
0.0
  0
SOLID
  5
B3AB
330
9998
100
AcDbEntity
  8
寸法引出
 48
25.0
100
AcDbTrace
 10
2480.774337204993
 20
3116.381907904721
 30
0.0
 11
2490.774337204993
 21
3116.381907904721
 31
0.0
 12
2485.774337204993
 22
3086.381907904721
 32
0.0
 13
2485.774337204993
 23
3086.381907904721
 33
0.0
  0
MTEXT
  5
B3AC
330
9998
100
AcDbEntity
  8
寸法引出
 48
25.0
100
AcDbMText
 10
2445.774337204992
 20
3426.381907904721
 30
0.0
 40
40.0
 41
0.0
 71
     5
 72
     1
  1
\A1;680
  7
SANWA
 11
0.0000000000000001
 21
1.0
 31
0.0
 73
     1
 44
1.0
  0
POINT
  5
B3AD
330
9998
100
AcDbEntity
  8
DEFPOINTS
 62
     0
 48
25.0
100
AcDbPoint
 10
2727.993792760311
 20
3766.381907904721
 30
0.0
  0
POINT
  5
B3AE
330
9998
100
AcDbEntity
  8
DEFPOINTS
 62
     0
 48
25.0
100
AcDbPoint
 10
2737.993792760311
 20
3086.381907904721
 30
0.0
  0
POINT
  5
B3AF
330
9998
100
AcDbEntity
  8
DEFPOINTS
 62
     0
 48
25.0
100
AcDbPoint
 10
2485.774337204993
 20
3086.381907904721
 30
0.0
  0
ENDBLK
  5
99A3
330
9998
100
AcDbEntity
  8
0
 48
25.0
100
AcDbBlockEnd
  0
BLOCK
  5
99DD
330
99D3
100
AcDbEntity
  8
0
 48
25.0
100
AcDbBlockBegin
  2
*D16
 70
     1
 10
0.0
 20
0.0
 30
0.0
  3
*D16
  1

  0
LINE
  5
B32A
330
99D3
100
AcDbEntity
  8
寸法引出
 48
25.0
370
    -2
100
AcDbLine
 10
1836.307532711425
 20
3766.381907904721
 30
0.0
 11
2103.781368214268
 21
3766.381907904721
 31
0.0
  0
LINE
  5
B32B
330
99D3
100
AcDbEntity
  8
寸法引出
 48
25.0
370
    -2
100
AcDbLine
 10
1836.307532711425
 20
3166.381907904721
 30
0.0
 11
2103.781368214268
 21
3166.381907904721
 31
0.0
  0
LINE
  5
B32C
330
99D3
100
AcDbEntity
  8
寸法引出
 48
25.0
370
    -2
100
AcDbLine
 10
2093.781368214267
 20
3736.381907904721
 30
0.0
 11
2093.781368214267
 21
3196.381907904721
 31
0.0
  0
SOLID
  5
B32D
330
99D3
100
AcDbEntity
  8
寸法引出
 48
25.0
100
AcDbTrace
 10
2088.781368214267
 20
3736.381907904721
 30
0.0
 11
2098.781368214268
 21
3736.381907904721
 31
0.0
 12
2093.781368214267
 22
3766.381907904721
 32
0.0
 13
2093.781368214267
 23
3766.381907904721
 33
0.0
  0
SOLID
  5
B32E
330
99D3
100
AcDbEntity
  8
寸法引出
 48
25.0
100
AcDbTrace
 10
2088.781368214267
 20
3196.381907904721
 30
0.0
 11
2098.781368214268
 21
3196.381907904721
 31
0.0
 12
2093.781368214267
 22
3166.381907904721
 32
0.0
 13
2093.781368214267
 23
3166.381907904721
 33
0.0
  0
MTEXT
  5
B32F
330
99D3
100
AcDbEntity
  8
寸法引出
 48
25.0
100
AcDbMText
 10
2053.781368214266
 20
3466.381907904721
 30
0.0
 40
40.0
 41
0.0
 71
     5
 72
     1
  1
\A1;600
  7
SANWA
 11
0.0000000000000001
 21
1.0
 31
0.0
 73
     1
 44
1.0
  0
POINT
  5
B330
330
99D3
100
AcDbEntity
  8
DEFPOINTS
 62
     0
 48
25.0
100
AcDbPoint
 10
1816.307532711425
 20
3766.381907904721
 30
0.0
  0
POINT
  5
B331
330
99D3
100
AcDbEntity
  8
DEFPOINTS
 62
     0
 48
25.0
100
AcDbPoint
 10
1816.307532711425
 20
3166.381907904721
 30
0.0
  0
POINT
  5
B332
330
99D3
100
AcDbEntity
  8
DEFPOINTS
 62
     0
 48
25.0
100
AcDbPoint
 10
2093.781368214267
 20
3166.381907904721
 30
0.0
  0
ENDBLK
  5
99DE
330
99D3
100
AcDbEntity
  8
0
 48
25.0
100
AcDbBlockEnd
  0
BLOCK
  5
99EA
330
99DF
100
AcDbEntity
  8
0
 48
25.0
100
AcDbBlockBegin
  2
*D17
 70
     1
 10
0.0
 20
0.0
 30
0.0
  3
*D17
  1

  0
LINE
  5
B320
330
99DF
100
AcDbEntity
  8
寸法引出
 48
25.0
370
    -2
100
AcDbLine
 10
1806.307532711425
 20
3086.381907904721
 30
0.0
 11
2103.781368214268
 21
3086.381907904721
 31
0.0
  0
LINE
  5
B321
330
99DF
100
AcDbEntity
  8
寸法引出
 48
25.0
370
    -2
100
AcDbLine
 10
2093.781368214267
 20
3196.381907904721
 30
0.0
 11
2093.781368214267
 21
3226.381907904721
 31
0.0
  0
LINE
  5
B322
330
99DF
100
AcDbEntity
  8
寸法引出
 48
25.0
370
    -2
100
AcDbLine
 10
2093.781368214267
 20
3056.381907904721
 30
0.0
 11
2093.781368214267
 21
3026.381907904721
 31
0.0
  0
LINE
  5
B323
330
99DF
100
AcDbEntity
  8
寸法引出
 48
25.0
370
    -2
100
AcDbLine
 10
2093.781368214267
 20
3166.381907904721
 30
0.0
 11
2093.781368214267
 21
3086.381907904721
 31
0.0
  0
SOLID
  5
B324
330
99DF
100
AcDbEntity
  8
寸法引出
 48
25.0
100
AcDbTrace
 10
2088.781368214267
 20
3196.381907904721
 30
0.0
 11
2098.781368214268
 21
3196.381907904721
 31
0.0
 12
2093.781368214267
 22
3166.381907904721
 32
0.0
 13
2093.781368214267
 23
3166.381907904721
 33
0.0
  0
SOLID
  5
B325
330
99DF
100
AcDbEntity
  8
寸法引出
 48
25.0
100
AcDbTrace
 10
2088.781368214267
 20
3056.381907904721
 30
0.0
 11
2098.781368214267
 21
3056.381907904721
 31
0.0
 12
2093.781368214267
 22
3086.381907904721
 32
0.0
 13
2093.781368214267
 23
3086.381907904721
 33
0.0
  0
MTEXT
  5
B326
330
99DF
100
AcDbEntity
  8
寸法引出
 48
25.0
100
AcDbMText
 10
2053.781368214266
 20
3126.381907904721
 30
0.0
 40
40.0
 41
0.0
 71
     5
 72
     1
  1
\A1;80
  7
SANWA
 11
0.0000000000000001
 21
1.0
 31
0.0
 73
     1
 44
1.0
  0
POINT
  5
B327
330
99DF
100
AcDbEntity
  8
DEFPOINTS
 62
     0
 48
25.0
100
AcDbPoint
 10
1816.307532711425
 20
3166.381907904721
 30
0.0
  0
POINT
  5
B328
330
99DF
100
AcDbEntity
  8
DEFPOINTS
 62
     0
 48
25.0
100
AcDbPoint
 10
1786.307532711425
 20
3086.381907904721
 30
0.0
  0
POINT
  5
B329
330
99DF
100
AcDbEntity
  8
DEFPOINTS
 62
     0
 48
25.0
100
AcDbPoint
 10
2093.781368214267
 20
3086.381907904721
 30
0.0
  0
ENDBLK
  5
99EB
330
99DF
100
AcDbEntity
  8
0
 48
25.0
100
AcDbBlockEnd
  0
BLOCK
  5
9A1F
330
9A14
100
AcDbEntity
  8
0
 48
25.0
100
AcDbBlockBegin
  2
*D18
 70
     1
 10
0.0
 20
0.0
 30
0.0
  3
*D18
  1

  0
LINE
  5
B35A
330
9A14
100
AcDbEntity
  8
寸法引出
 48
25.0
370
    -2
100
AcDbLine
 10
1816.307532711425
 20
3096.381907904721
 30
0.0
 11
1816.307532711425
 21
2845.03214736155
 31
0.0
  0
LINE
  5
B35B
330
9A14
100
AcDbEntity
  8
寸法引出
 48
25.0
370
    -2
100
AcDbLine
 10
1706.307532711425
 20
2855.03214736155
 30
0.0
 11
1676.307532711425
 21
2855.03214736155
 31
0.0
  0
LINE
  5
B35C
330
9A14
100
AcDbEntity
  8
寸法引出
 48
25.0
370
    -2
100
AcDbLine
 10
1846.307532711425
 20
2855.03214736155
 30
0.0
 11
1876.307532711425
 21
2855.03214736155
 31
0.0
  0
LINE
  5
B35D
330
9A14
100
AcDbEntity
  8
寸法引出
 48
25.0
370
    -2
100
AcDbLine
 10
1736.307532711425
 20
2855.03214736155
 30
0.0
 11
1816.307532711425
 21
2855.03214736155
 31
0.0
  0
SOLID
  5
B35E
330
9A14
100
AcDbEntity
  8
寸法引出
 48
25.0
100
AcDbTrace
 10
1706.307532711425
 20
2860.03214736155
 30
0.0
 11
1706.307532711425
 21
2850.03214736155
 31
0.0
 12
1736.307532711425
 22
2855.03214736155
 32
0.0
 13
1736.307532711425
 23
2855.03214736155
 33
0.0
  0
SOLID
  5
B35F
330
9A14
100
AcDbEntity
  8
寸法引出
 48
25.0
100
AcDbTrace
 10
1846.307532711425
 20
2860.03214736155
 30
0.0
 11
1846.307532711425
 21
2850.03214736155
 31
0.0
 12
1816.307532711425
 22
2855.03214736155
 32
0.0
 13
1816.307532711425
 23
2855.03214736155
 33
0.0
  0
MTEXT
  5
B360
330
9A14
100
AcDbEntity
  8
寸法引出
 48
25.0
100
AcDbMText
 10
1776.307532711425
 20
2895.03214736155
 30
0.0
 40
40.0
 41
0.0
 71
     5
 72
     1
  1
\A1;80
  7
SANWA
 73
     1
 44
1.0
  0
POINT
  5
B361
330
9A14
100
AcDbEntity
  8
DEFPOINTS
 62
     0
 48
25.0
100
AcDbPoint
 10
1736.307532711425
 20
3086.381907904721
 30
0.0
  0
POINT
  5
B362
330
9A14
100
AcDbEntity
  8
DEFPOINTS
 62
     0
 48
25.0
100
AcDbPoint
 10
1816.307532711425
 20
3116.381907904721
 30
0.0
  0
POINT
  5
B363
330
9A14
100
AcDbEntity
  8
DEFPOINTS
 62
     0
 48
25.0
100
AcDbPoint
 10
1816.307532711425
 20
2855.03214736155
 30
0.0
  0
ENDBLK
  5
9A20
330
9A14
100
AcDbEntity
  8
0
 48
25.0
100
AcDbBlockEnd
  0
BLOCK
  5
9A2B
330
9A21
100
AcDbEntity
  8
0
 48
25.0
100
AcDbBlockBegin
  2
*D19
 70
     1
 10
0.0
 20
0.0
 30
0.0
  3
*D19
  1

  0
LINE
  5
B364
330
9A21
100
AcDbEntity
  8
寸法引出
 48
25.0
370
    -2
100
AcDbLine
 10
1496.307532711425
 20
3066.381907904721
 30
0.0
 11
1496.307532711425
 21
2845.03214736155
 31
0.0
  0
LINE
  5
B365
330
9A21
100
AcDbEntity
  8
寸法引出
 48
25.0
370
    -2
100
AcDbLine
 10
1736.307532711425
 20
3066.381907904721
 30
0.0
 11
1736.307532711425
 21
2845.03214736155
 31
0.0
  0
LINE
  5
B366
330
9A21
100
AcDbEntity
  8
寸法引出
 48
25.0
370
    -2
100
AcDbLine
 10
1526.307532711425
 20
2855.03214736155
 30
0.0
 11
1706.307532711425
 21
2855.03214736155
 31
0.0
  0
SOLID
  5
B367
330
9A21
100
AcDbEntity
  8
寸法引出
 48
25.0
100
AcDbTrace
 10
1526.307532711425
 20
2860.03214736155
 30
0.0
 11
1526.307532711425
 21
2850.03214736155
 31
0.0
 12
1496.307532711425
 22
2855.03214736155
 32
0.0
 13
1496.307532711425
 23
2855.03214736155
 33
0.0
  0
SOLID
  5
B368
330
9A21
100
AcDbEntity
  8
寸法引出
 48
25.0
100
AcDbTrace
 10
1706.307532711425
 20
2860.03214736155
 30
0.0
 11
1706.307532711425
 21
2850.03214736155
 31
0.0
 12
1736.307532711425
 22
2855.03214736155
 32
0.0
 13
1736.307532711425
 23
2855.03214736155
 33
0.0
  0
MTEXT
  5
B369
330
9A21
100
AcDbEntity
  8
寸法引出
 48
25.0
100
AcDbMText
 10
1616.307532711425
 20
2895.03214736155
 30
0.0
 40
40.0
 41
0.0
 71
     5
 72
     1
  1
\A1;240
  7
SANWA
 73
     1
 44
1.0
  0
POINT
  5
B36A
330
9A21
100
AcDbEntity
  8
DEFPOINTS
 62
     0
 48
25.0
100
AcDbPoint
 10
1496.307532711425
 20
3086.381907904721
 30
0.0
  0
POINT
  5
B36B
330
9A21
100
AcDbEntity
  8
DEFPOINTS
 62
     0
 48
25.0
100
AcDbPoint
 10
1736.307532711425
 20
3086.381907904721
 30
0.0
  0
POINT
  5
B36C
330
9A21
100
AcDbEntity
  8
DEFPOINTS
 62
     0
 48
25.0
100
AcDbPoint
 10
1736.307532711425
 20
2855.03214736155
 30
0.0
  0
ENDBLK
  5
9A2C
330
9A21
100
AcDbEntity
  8
0
 48
25.0
100
AcDbBlockEnd
  0
BLOCK
  5
9A37
330
9A2D
100
AcDbEntity
  8
0
 48
25.0
100
AcDbBlockBegin
  2
*D20
 70
     1
 10
0.0
 20
0.0
 30
0.0
  3
*D20
  1

  0
LINE
  5
B36D
330
9A2D
100
AcDbEntity
  8
寸法引出
 48
25.0
370
    -2
100
AcDbLine
 10
1416.307532711425
 20
3786.381907904721
 30
0.0
 11
1416.307532711425
 21
3967.128094517928
 31
0.0
  0
LINE
  5
B36E
330
9A2D
100
AcDbEntity
  8
寸法引出
 48
25.0
370
    -2
100
AcDbLine
 10
1816.307532711425
 20
3786.381907904721
 30
0.0
 11
1816.307532711425
 21
3967.128094517928
 31
0.0
  0
LINE
  5
B36F
330
9A2D
100
AcDbEntity
  8
寸法引出
 48
25.0
370
    -2
100
AcDbLine
 10
1446.307532711425
 20
3957.128094517928
 30
0.0
 11
1786.307532711425
 21
3957.128094517928
 31
0.0
  0
SOLID
  5
B370
330
9A2D
100
AcDbEntity
  8
寸法引出
 48
25.0
100
AcDbTrace
 10
1446.307532711425
 20
3962.128094517929
 30
0.0
 11
1446.307532711425
 21
3952.128094517928
 31
0.0
 12
1416.307532711425
 22
3957.128094517928
 32
0.0
 13
1416.307532711425
 23
3957.128094517928
 33
0.0
  0
SOLID
  5
B371
330
9A2D
100
AcDbEntity
  8
寸法引出
 48
25.0
100
AcDbTrace
 10
1786.307532711425
 20
3962.128094517929
 30
0.0
 11
1786.307532711425
 21
3952.128094517928
 31
0.0
 12
1816.307532711425
 22
3957.128094517928
 32
0.0
 13
1816.307532711425
 23
3957.128094517928
 33
0.0
  0
MTEXT
  5
B372
330
9A2D
100
AcDbEntity
  8
寸法引出
 48
25.0
100
AcDbMText
 10
1616.307532711425
 20
3997.128094517928
 30
0.0
 40
40.0
 41
0.0
 71
     5
 72
     1
  1
\A1;400
  7
SANWA
 73
     1
 44
1.0
  0
POINT
  5
B373
330
9A2D
100
AcDbEntity
  8
DEFPOINTS
 62
     0
 48
25.0
100
AcDbPoint
 10
1416.307532711425
 20
3766.381907904721
 30
0.0
  0
POINT
  5
B374
330
9A2D
100
AcDbEntity
  8
DEFPOINTS
 62
     0
 48
25.0
100
AcDbPoint
 10
1816.307532711425
 20
3766.381907904721
 30
0.0
  0
POINT
  5
B375
330
9A2D
100
AcDbEntity
  8
DEFPOINTS
 62
     0
 48
25.0
100
AcDbPoint
 10
1816.307532711425
 20
3957.128094517928
 30
0.0
  0
ENDBLK
  5
9A38
330
9A2D
100
AcDbEntity
  8
0
 48
25.0
100
AcDbBlockEnd
  0
BLOCK
  5
9A44
330
9A39
100
AcDbEntity
  8
0
 48
25.0
100
AcDbBlockBegin
  2
*D21
 70
     1
 10
0.0
 20
0.0
 30
0.0
  3
*D21
  1

  0
LINE
  5
B389
330
9A39
100
AcDbEntity
  8
寸法引出
 48
25.0
370
    -2
100
AcDbLine
 10
1816.307532711425
 20
3786.381907904721
 30
0.0
 11
1816.307532711425
 21
3878.81961767761
 31
0.0
  0
LINE
  5
B38A
330
9A39
100
AcDbEntity
  8
寸法引出
 48
25.0
370
    -2
100
AcDbLine
 10
1736.307532711425
 20
3868.819617677609
 30
0.0
 11
1706.307532711425
 21
3868.819617677609
 31
0.0
  0
LINE
  5
B38B
330
9A39
100
AcDbEntity
  8
寸法引出
 48
25.0
370
    -2
100
AcDbLine
 10
1846.307532711425
 20
3868.819617677609
 30
0.0
 11
1876.307532711425
 21
3868.819617677609
 31
0.0
  0
LINE
  5
B38C
330
9A39
100
AcDbEntity
  8
寸法引出
 48
25.0
370
    -2
100
AcDbLine
 10
1766.307532711425
 20
3868.819617677609
 30
0.0
 11
1816.307532711425
 21
3868.819617677609
 31
0.0
  0
SOLID
  5
B38D
330
9A39
100
AcDbEntity
  8
寸法引出
 48
25.0
100
AcDbTrace
 10
1736.307532711425
 20
3873.819617677609
 30
0.0
 11
1736.307532711425
 21
3863.819617677609
 31
0.0
 12
1766.307532711425
 22
3868.819617677609
 32
0.0
 13
1766.307532711425
 23
3868.819617677609
 33
0.0
  0
SOLID
  5
B38E
330
9A39
100
AcDbEntity
  8
寸法引出
 48
25.0
100
AcDbTrace
 10
1846.307532711425
 20
3873.819617677609
 30
0.0
 11
1846.307532711425
 21
3863.819617677609
 31
0.0
 12
1816.307532711425
 22
3868.819617677609
 32
0.0
 13
1816.307532711425
 23
3868.819617677609
 33
0.0
  0
MTEXT
  5
B38F
330
9A39
100
AcDbEntity
  8
寸法引出
 48
25.0
100
AcDbMText
 10
1791.307532711425
 20
3908.819617677609
 30
0.0
 40
40.0
 41
0.0
 71
     5
 72
     1
  1
\A1;50
  7
SANWA
 73
     1
 44
1.0
  0
POINT
  5
B390
330
9A39
100
AcDbEntity
  8
DEFPOINTS
 62
     0
 48
25.0
100
AcDbPoint
 10
1766.307532711425
 20
3766.381907904721
 30
0.0
  0
POINT
  5
B391
330
9A39
100
AcDbEntity
  8
DEFPOINTS
 62
     0
 48
25.0
100
AcDbPoint
 10
1816.307532711425
 20
3766.381907904721
 30
0.0
  0
POINT
  5
B392
330
9A39
100
AcDbEntity
  8
DEFPOINTS
 62
     0
 48
25.0
100
AcDbPoint
 10
1816.307532711425
 20
3868.819617677609
 30
0.0
  0
ENDBLK
  5
9A45
330
9A39
100
AcDbEntity
  8
0
 48
25.0
100
AcDbBlockEnd
  0
BLOCK
  5
9A50
330
9A46
100
AcDbEntity
  8
0
 48
25.0
100
AcDbBlockBegin
  2
*D22
 70
     1
 10
0.0
 20
0.0
 30
0.0
  3
*D22
  1

  0
LINE
  5
B376
330
9A46
100
AcDbEntity
  8
寸法引出
 48
25.0
370
    -2
100
AcDbLine
 10
1466.307532711425
 20
3786.381907904721
 30
0.0
 11
1466.307532711425
 21
3878.81961767761
 31
0.0
  0
LINE
  5
B377
330
9A46
100
AcDbEntity
  8
寸法引出
 48
25.0
370
    -2
100
AcDbLine
 10
1766.307532711425
 20
3786.381907904721
 30
0.0
 11
1766.307532711425
 21
3878.81961767761
 31
0.0
  0
LINE
  5
B378
330
9A46
100
AcDbEntity
  8
寸法引出
 48
25.0
370
    -2
100
AcDbLine
 10
1496.307532711425
 20
3868.819617677609
 30
0.0
 11
1736.307532711425
 21
3868.819617677609
 31
0.0
  0
SOLID
  5
B379
330
9A46
100
AcDbEntity
  8
寸法引出
 48
25.0
100
AcDbTrace
 10
1496.307532711425
 20
3873.819617677609
 30
0.0
 11
1496.307532711425
 21
3863.819617677609
 31
0.0
 12
1466.307532711425
 22
3868.819617677609
 32
0.0
 13
1466.307532711425
 23
3868.819617677609
 33
0.0
  0
SOLID
  5
B37A
330
9A46
100
AcDbEntity
  8
寸法引出
 48
25.0
100
AcDbTrace
 10
1736.307532711425
 20
3873.819617677609
 30
0.0
 11
1736.307532711425
 21
3863.819617677609
 31
0.0
 12
1766.307532711425
 22
3868.819617677609
 32
0.0
 13
1766.307532711425
 23
3868.819617677609
 33
0.0
  0
MTEXT
  5
B37B
330
9A46
100
AcDbEntity
  8
寸法引出
 48
25.0
100
AcDbMText
 10
1616.307532711425
 20
3908.819617677609
 30
0.0
 40
40.0
 41
0.0
 71
     5
 72
     1
  1
\A1;300
  7
SANWA
 73
     1
 44
1.0
  0
POINT
  5
B37C
330
9A46
100
AcDbEntity
  8
DEFPOINTS
 62
     0
 48
25.0
100
AcDbPoint
 10
1466.307532711425
 20
3766.381907904721
 30
0.0
  0
POINT
  5
B37D
330
9A46
100
AcDbEntity
  8
DEFPOINTS
 62
     0
 48
25.0
100
AcDbPoint
 10
1766.307532711425
 20
3766.381907904721
 30
0.0
  0
POINT
  5
B37E
330
9A46
100
AcDbEntity
  8
DEFPOINTS
 62
     0
 48
25.0
100
AcDbPoint
 10
1766.307532711425
 20
3868.819617677609
 30
0.0
  0
ENDBLK
  5
9A51
330
9A46
100
AcDbEntity
  8
0
 48
25.0
100
AcDbBlockEnd
  0
BLOCK
  5
9A74
330
9A6B
100
AcDbEntity
  8
0
 48
25.0
100
AcDbBlockBegin
  2
*D23
 70
     1
 10
0.0
 20
0.0
 30
0.0
  3
*D23
  1

  0
LINE
  5
B3B0
330
9A6B
100
AcDbEntity
  8
寸法引出
 48
25.0
370
    -2
100
AcDbLine
 10
3607.993792760311
 20
3786.381907904721
 30
0.0
 11
3607.993792760311
 21
3898.446434966673
 31
0.0
  0
LINE
  5
B3B1
330
9A6B
100
AcDbEntity
  8
寸法引出
 48
25.0
370
    -2
100
AcDbLine
 10
2877.993792760311
 20
3888.446434966672
 30
0.0
 11
3577.993792760311
 21
3888.446434966672
 31
0.0
  0
SOLID
  5
B3B2
330
9A6B
100
AcDbEntity
  8
寸法引出
 48
25.0
100
AcDbTrace
 10
2877.993792760311
 20
3893.446434966672
 30
0.0
 11
2877.993792760311
 21
3883.446434966673
 31
0.0
 12
2847.993792760311
 22
3888.446434966672
 32
0.0
 13
2847.993792760311
 23
3888.446434966672
 33
0.0
  0
SOLID
  5
B3B3
330
9A6B
100
AcDbEntity
  8
寸法引出
 48
25.0
100
AcDbTrace
 10
3577.993792760311
 20
3893.446434966672
 30
0.0
 11
3577.993792760311
 21
3883.446434966673
 31
0.0
 12
3607.993792760311
 22
3888.446434966672
 32
0.0
 13
3607.993792760311
 23
3888.446434966672
 33
0.0
  0
MTEXT
  5
B3B4
330
9A6B
100
AcDbEntity
  8
寸法引出
 48
25.0
100
AcDbMText
 10
3227.993792760311
 20
3928.446434966673
 30
0.0
 40
40.0
 41
0.0
 71
     5
 72
     1
  1
\A1;760
  7
SANWA
 73
     1
 44
1.0
  0
POINT
  5
B3B5
330
9A6B
100
AcDbEntity
  8
DEFPOINTS
 62
     0
 48
25.0
100
AcDbPoint
 10
2847.993792760311
 20
3766.381907904721
 30
0.0
  0
POINT
  5
B3B6
330
9A6B
100
AcDbEntity
  8
DEFPOINTS
 62
     0
 48
25.0
100
AcDbPoint
 10
3607.993792760311
 20
3766.381907904721
 30
0.0
  0
POINT
  5
B3B7
330
9A6B
100
AcDbEntity
  8
DEFPOINTS
 62
     0
 48
25.0
100
AcDbPoint
 10
3607.993792760311
 20
3888.446434966672
 30
0.0
  0
ENDBLK
  5
9A75
330
9A6B
100
AcDbEntity
  8
0
 48
25.0
100
AcDbBlockEnd
  0
BLOCK
  5
9A80
330
9A76
100
AcDbEntity
  8
0
 48
25.0
100
AcDbBlockBegin
  2
*D24
 70
     1
 10
0.0
 20
0.0
 30
0.0
  3
*D24
  1

  0
LINE
  5
B3B8
330
9A76
100
AcDbEntity
  8
寸法引出
 48
25.0
370
    -2
100
AcDbLine
 10
2727.993792760311
 20
3786.381907904721
 30
0.0
 11
2727.993792760311
 21
3898.446434966673
 31
0.0
  0
LINE
  5
B3B9
330
9A76
100
AcDbEntity
  8
寸法引出
 48
25.0
370
    -2
100
AcDbLine
 10
2847.993792760311
 20
3786.381907904721
 30
0.0
 11
2847.993792760311
 21
3898.446434966673
 31
0.0
  0
LINE
  5
B3BA
330
9A76
100
AcDbEntity
  8
寸法引出
 48
25.0
370
    -2
100
AcDbLine
 10
2757.993792760311
 20
3888.446434966672
 30
0.0
 11
2817.993792760311
 21
3888.446434966672
 31
0.0
  0
SOLID
  5
B3BB
330
9A76
100
AcDbEntity
  8
寸法引出
 48
25.0
100
AcDbTrace
 10
2757.993792760311
 20
3893.446434966672
 30
0.0
 11
2757.993792760311
 21
3883.446434966673
 31
0.0
 12
2727.993792760311
 22
3888.446434966672
 32
0.0
 13
2727.993792760311
 23
3888.446434966672
 33
0.0
  0
SOLID
  5
B3BC
330
9A76
100
AcDbEntity
  8
寸法引出
 48
25.0
100
AcDbTrace
 10
2817.993792760311
 20
3893.446434966672
 30
0.0
 11
2817.993792760311
 21
3883.446434966673
 31
0.0
 12
2847.993792760311
 22
3888.446434966672
 32
0.0
 13
2847.993792760311
 23
3888.446434966672
 33
0.0
  0
MTEXT
  5
B3BD
330
9A76
100
AcDbEntity
  8
寸法引出
 48
25.0
100
AcDbMText
 10
2787.993792760311
 20
3928.446434966673
 30
0.0
 40
40.0
 41
0.0
 71
     5
 72
     1
  1
\A1;120
  7
SANWA
 73
     1
 44
1.0
  0
POINT
  5
B3BE
330
9A76
100
AcDbEntity
  8
DEFPOINTS
 62
     0
 48
25.0
100
AcDbPoint
 10
2727.993792760311
 20
3766.381907904721
 30
0.0
  0
POINT
  5
B3BF
330
9A76
100
AcDbEntity
  8
DEFPOINTS
 62
     0
 48
25.0
100
AcDbPoint
 10
2847.993792760311
 20
3766.381907904721
 30
0.0
  0
POINT
  5
B3C0
330
9A76
100
AcDbEntity
  8
DEFPOINTS
 62
     0
 48
25.0
100
AcDbPoint
 10
2847.993792760311
 20
3888.446434966672
 30
0.0
  0
ENDBLK
  5
9A81
330
9A76
100
AcDbEntity
  8
0
 48
25.0
100
AcDbBlockEnd
  0
BLOCK
  5
9A8C
330
9A82
100
AcDbEntity
  8
0
 48
25.0
100
AcDbBlockBegin
  2
*D25
 70
     1
 10
0.0
 20
0.0
 30
0.0
  3
*D25
  1

  0
LINE
  5
B306
330
9A82
100
AcDbEntity
  8
寸法引出
 48
25.0
370
    -2
100
AcDbLine
 10
6280.191718456514
 20
2667.529267676034
 30
0.0
 11
6175.529743911276
 21
2672.762366403295
 31
0.0
  0
LINE
  5
B307
330
9A82
100
AcDbEntity
  8
寸法引出
 48
25.0
370
    -2
100
AcDbLine
 10
6256.1717247065
 20
2187.12939267579
 30
0.0
 11
6151.509750161263
 21
2192.362491403052
 31
0.0
  0
LINE
  5
B308
330
9A82
100
AcDbEntity
  8
寸法引出
 48
25.0
370
    -2
100
AcDbLine
 10
6184.019138791739
 20
2642.300420067522
 30
0.0
 11
6162.995402058359
 21
2221.825685399948
 31
0.0
  0
SOLID
  5
B309
330
9A82
100
AcDbEntity
  8
寸法引出
 48
25.0
100
AcDbTrace
 10
6179.025377097349
 20
2642.550108152241
 30
0.0
 11
6189.012900486127
 21
2642.050731982802
 31
0.0
 12
6185.517267300055
 22
2672.262990233857
 32
0.0
 13
6185.517267300055
 23
2672.262990233857
 33
0.0
  0
SOLID
  5
B30A
330
9A82
100
AcDbEntity
  8
寸法引出
 48
25.0
100
AcDbTrace
 10
6158.00164036397
 20
2222.075373484668
 30
0.0
 11
6167.989163752748
 21
2221.575997315229
 31
0.0
 12
6161.497273550042
 22
2191.863115233613
 32
0.0
 13
6161.497273550042
 23
2191.863115233613
 33
0.0
  0
MTEXT
  5
B30B
330
9A82
100
AcDbEntity
  8
寸法引出
 48
25.0
100
AcDbMText
 10
6133.557176869935
 20
2434.06055741149
 30
0.0
 40
40.0
 41
0.0
 71
     5
 72
     1
  1
\A1;481
  7
SANWA
 11
0.0499376169438938
 21
0.9987523388778447
 31
0.0
 73
     1
 44
1.0
  0
POINT
  5
B30C
330
9A82
100
AcDbEntity
  8
DEFPOINTS
 62
     0
 48
25.0
100
AcDbPoint
 10
6300.16676523407
 20
2666.530515337155
 30
0.0
  0
POINT
  5
B30D
330
9A82
100
AcDbEntity
  8
DEFPOINTS
 62
     0
 48
25.0
100
AcDbPoint
 10
6276.146771484056
 20
2186.130640336912
 30
0.0
  0
POINT
  5
B30E
330
9A82
100
AcDbEntity
  8
DEFPOINTS
 62
     0
 48
25.0
100
AcDbPoint
 10
6161.497273550042
 20
2191.863115233613
 30
0.0
  0
ENDBLK
  5
9A8D
330
9A82
100
AcDbEntity
  8
0
 48
25.0
100
AcDbBlockEnd
  0
BLOCK
  5
9A98
330
9A8E
100
AcDbEntity
  8
0
 48
25.0
100
AcDbBlockBegin
  2
*D26
 70
     1
 10
0.0
 20
0.0
 30
0.0
  3
*D26
  1

  0
LINE
  5
B2FD
330
9A8E
100
AcDbEntity
  8
寸法引出
 48
25.0
370
    -2
100
AcDbLine
 10
5432.889881980553
 20
2537.365831790823
 30
0.0
 11
5432.889881980553
 21
2626.271250294587
 31
0.0
  0
LINE
  5
B2FE
330
9A8E
100
AcDbEntity
  8
寸法引出
 48
25.0
370
    -2
100
AcDbLine
 10
5802.889881980552
 20
2537.365831790823
 30
0.0
 11
5802.889881980552
 21
2626.271250294587
 31
0.0
  0
LINE
  5
B2FF
330
9A8E
100
AcDbEntity
  8
寸法引出
 48
25.0
370
    -2
100
AcDbLine
 10
5462.889881980553
 20
2616.271250294587
 30
0.0
 11
5772.889881980553
 21
2616.271250294587
 31
0.0
  0
SOLID
  5
B300
330
9A8E
100
AcDbEntity
  8
寸法引出
 48
25.0
100
AcDbTrace
 10
5462.889881980553
 20
2621.271250294587
 30
0.0
 11
5462.889881980553
 21
2611.271250294587
 31
0.0
 12
5432.889881980553
 22
2616.271250294587
 32
0.0
 13
5432.889881980553
 23
2616.271250294587
 33
0.0
  0
SOLID
  5
B301
330
9A8E
100
AcDbEntity
  8
寸法引出
 48
25.0
100
AcDbTrace
 10
5772.889881980553
 20
2621.271250294587
 30
0.0
 11
5772.889881980553
 21
2611.271250294587
 31
0.0
 12
5802.889881980552
 22
2616.271250294587
 32
0.0
 13
5802.889881980552
 23
2616.271250294587
 33
0.0
  0
MTEXT
  5
B302
330
9A8E
100
AcDbEntity
  8
寸法引出
 48
25.0
100
AcDbMText
 10
5617.889881980552
 20
2656.271250294587
 30
0.0
 40
40.0
 41
0.0
 71
     5
 72
     1
  1
\A1;370
  7
SANWA
 73
     1
 44
1.0
  0
POINT
  5
B303
330
9A8E
100
AcDbEntity
  8
DEFPOINTS
 62
     0
 48
25.0
100
AcDbPoint
 10
5432.889881980553
 20
2517.365831790823
 30
0.0
  0
POINT
  5
B304
330
9A8E
100
AcDbEntity
  8
DEFPOINTS
 62
     0
 48
25.0
100
AcDbPoint
 10
5802.889881980552
 20
2517.365831790823
 30
0.0
  0
POINT
  5
B305
330
9A8E
100
AcDbEntity
  8
DEFPOINTS
 62
     0
 48
25.0
100
AcDbPoint
 10
5802.889881980552
 20
2616.271250294587
 30
0.0
  0
ENDBLK
  5
9A99
330
9A8E
100
AcDbEntity
  8
0
 48
25.0
100
AcDbBlockEnd
  0
BLOCK
  5
9AA4
330
9A9A
100
AcDbEntity
  8
0
 48
25.0
100
AcDbBlockBegin
  2
*D27
 70
     1
 10
0.0
 20
0.0
 30
0.0
  3
*D27
  1

  0
LINE
  5
B266
330
9A9A
100
AcDbEntity
  8
寸法引出
 48
25.0
370
    -2
100
AcDbLine
 10
6732.441670743383
 20
3874.303155195601
 30
0.0
 11
6918.757445413923
 21
3874.303155195601
 31
0.0
  0
LINE
  5
B267
330
9A9A
100
AcDbEntity
  8
寸法引出
 48
25.0
370
    -2
100
AcDbLine
 10
6732.441670743383
 20
1934.303155195601
 30
0.0
 11
6918.757445413923
 21
1934.303155195601
 31
0.0
  0
LINE
  5
B268
330
9A9A
100
AcDbEntity
  8
寸法引出
 48
25.0
370
    -2
100
AcDbLine
 10
6908.757445413924
 20
3844.303155195602
 30
0.0
 11
6908.757445413923
 21
1964.303155195601
 31
0.0
  0
SOLID
  5
B269
330
9A9A
100
AcDbEntity
  8
寸法引出
 48
25.0
100
AcDbTrace
 10
6903.757445413924
 20
3844.303155195602
 30
0.0
 11
6913.757445413924
 21
3844.303155195602
 31
0.0
 12
6908.757445413924
 22
3874.303155195601
 32
0.0
 13
6908.757445413924
 23
3874.303155195601
 33
0.0
  0
SOLID
  5
B26A
330
9A9A
100
AcDbEntity
  8
寸法引出
 48
25.0
100
AcDbTrace
 10
6903.757445413923
 20
1964.303155195601
 30
0.0
 11
6913.757445413923
 21
1964.303155195601
 31
0.0
 12
6908.757445413923
 22
1934.303155195601
 32
0.0
 13
6908.757445413923
 23
1934.303155195601
 33
0.0
  0
MTEXT
  5
B26B
330
9A9A
100
AcDbEntity
  8
寸法引出
 48
25.0
100
AcDbMText
 10
6868.757445413923
 20
2904.303155195602
 30
0.0
 40
40.0
 41
0.0
 71
     5
 72
     1
  1
\A1;1940
  7
SANWA
 11
0.0000000000000001
 21
1.0
 31
0.0
 73
     1
 44
1.0
  0
POINT
  5
B26C
330
9A9A
100
AcDbEntity
  8
DEFPOINTS
 62
     0
 48
25.0
100
AcDbPoint
 10
6712.441670743382
 20
3874.303155195601
 30
0.0
  0
POINT
  5
B26D
330
9A9A
100
AcDbEntity
  8
DEFPOINTS
 62
     0
 48
25.0
100
AcDbPoint
 10
6712.441670743382
 20
1934.303155195601
 30
0.0
  0
POINT
  5
B26E
330
9A9A
100
AcDbEntity
  8
DEFPOINTS
 62
     0
 48
25.0
100
AcDbPoint
 10
6908.757445413923
 20
1934.303155195601
 30
0.0
  0
ENDBLK
  5
9AA5
330
9A9A
100
AcDbEntity
  8
0
 48
25.0
100
AcDbBlockEnd
  0
BLOCK
  5
A838
330
A82C
100
AcDbEntity
  8
0
 48
25.0
100
AcDbBlockBegin
  2
*D28
 70
     1
 10
0.0
 20
0.0
 30
0.0
  3
*D28
  1

  0
LINE
  5
B2D3
330
A82C
100
AcDbEntity
  8
寸法引出
 48
25.0
370
    -2
100
AcDbLine
 10
2377.54022515401
 20
762.371277183402
 30
0.0
 11
2377.54022515401
 21
683.7706937497955
 31
0.0
  0
LINE
  5
B2D4
330
A82C
100
AcDbEntity
  8
寸法引出
 48
25.0
370
    -2
100
AcDbLine
 10
2387.140225154012
 20
768.371277183402
 30
0.0
 11
2387.140225154012
 21
683.7706937497955
 31
0.0
  0
LINE
  5
B2D5
330
A82C
100
AcDbEntity
  8
寸法引出
 48
25.0
370
    -2
100
AcDbLine
 10
2347.54022515401
 20
693.7706937497956
 30
0.0
 11
2317.540225154011
 21
693.7706937497956
 31
0.0
  0
LINE
  5
B2D6
330
A82C
100
AcDbEntity
  8
寸法引出
 48
25.0
370
    -2
100
AcDbLine
 10
2417.140225154013
 20
693.7706937497956
 30
0.0
 11
2447.140225154013
 21
693.7706937497956
 31
0.0
  0
LINE
  5
B2D7
330
A82C
100
AcDbEntity
  8
寸法引出
 48
25.0
370
    -2
100
AcDbLine
 10
2377.54022515401
 20
693.7706937497956
 30
0.0
 11
2387.140225154012
 21
693.7706937497956
 31
0.0
  0
SOLID
  5
B2D8
330
A82C
100
AcDbEntity
  8
寸法引出
 48
25.0
100
AcDbTrace
 10
2347.54022515401
 20
698.7706937497955
 30
0.0
 11
2347.54022515401
 21
688.7706937497955
 31
0.0
 12
2377.54022515401
 22
693.7706937497956
 32
0.0
 13
2377.54022515401
 23
693.7706937497956
 33
0.0
  0
SOLID
  5
B2D9
330
A82C
100
AcDbEntity
  8
寸法引出
 48
25.0
100
AcDbTrace
 10
2417.140225154013
 20
698.7706937497955
 30
0.0
 11
2417.140225154013
 21
688.7706937497955
 31
0.0
 12
2387.140225154012
 22
693.7706937497956
 32
0.0
 13
2387.140225154012
 23
693.7706937497956
 33
0.0
  0
MTEXT
  5
B2DA
330
A82C
100
AcDbEntity
  8
寸法引出
 48
25.0
100
AcDbMText
 10
2382.340225154012
 20
733.7706937497955
 30
0.0
 40
40.0
 41
0.0
 71
     5
 72
     1
  1
\A1;3.2
  7
SANWA
 73
     1
 44
1.0
  0
POINT
  5
B2DB
330
A82C
100
AcDbEntity
  8
DEFPOINTS
 62
     0
 48
25.0
100
AcDbPoint
 10
2377.54022515401
 20
782.3712771834021
 30
0.0
  0
POINT
  5
B2DC
330
A82C
100
AcDbEntity
  8
DEFPOINTS
 62
     0
 48
25.0
100
AcDbPoint
 10
2387.140225154012
 20
788.371277183402
 30
0.0
  0
POINT
  5
B2DD
330
A82C
100
AcDbEntity
  8
DEFPOINTS
 62
     0
 48
25.0
100
AcDbPoint
 10
2387.140225154012
 20
693.7706937497956
 30
0.0
  0
ENDBLK
  5
A839
330
A82C
100
AcDbEntity
  8
0
 48
25.0
100
AcDbBlockEnd
  0
BLOCK
  5
A844
330
A83A
100
AcDbEntity
  8
0
 48
25.0
100
AcDbBlockBegin
  2
*D29
 70
     1
 10
0.0
 20
0.0
 30
0.0
  3
*D29
  1

  0
LINE
  5
B278
330
A83A
100
AcDbEntity
  8
寸法引出
 48
25.0
370
    -2
100
AcDbLine
 10
1544.463170910155
 20
979.3712771834021
 30
0.0
 11
1544.463170910155
 21
1043.778916802019
 31
0.0
  0
LINE
  5
B279
330
A83A
100
AcDbEntity
  8
寸法引出
 48
25.0
370
    -2
100
AcDbLine
 10
1799.463170910155
 20
973.3712771834021
 30
0.0
 11
1799.463170910155
 21
1043.778916802019
 31
0.0
  0
LINE
  5
B27A
330
A83A
100
AcDbEntity
  8
寸法引出
 48
25.0
370
    -2
100
AcDbLine
 10
1574.463170910155
 20
1033.778916802019
 30
0.0
 11
1769.463170910156
 21
1033.778916802019
 31
0.0
  0
SOLID
  5
B27B
330
A83A
100
AcDbEntity
  8
寸法引出
 48
25.0
100
AcDbTrace
 10
1574.463170910155
 20
1038.778916802019
 30
0.0
 11
1574.463170910155
 21
1028.778916802019
 31
0.0
 12
1544.463170910155
 22
1033.778916802019
 32
0.0
 13
1544.463170910155
 23
1033.778916802019
 33
0.0
  0
SOLID
  5
B27C
330
A83A
100
AcDbEntity
  8
寸法引出
 48
25.0
100
AcDbTrace
 10
1769.463170910156
 20
1038.778916802019
 30
0.0
 11
1769.463170910156
 21
1028.778916802019
 31
0.0
 12
1799.463170910155
 22
1033.778916802019
 32
0.0
 13
1799.463170910155
 23
1033.778916802019
 33
0.0
  0
MTEXT
  5
B27D
330
A83A
100
AcDbEntity
  8
寸法引出
 48
25.0
100
AcDbMText
 10
1671.963170910156
 20
1073.778916802019
 30
0.0
 40
40.0
 41
0.0
 71
     5
 72
     1
  1
\A1;85
  7
SANWA
 73
     1
 44
1.0
  0
POINT
  5
B27E
330
A83A
100
AcDbEntity
  8
DEFPOINTS
 62
     0
 48
25.0
100
AcDbPoint
 10
1544.463170910155
 20
959.371277183402
 30
0.0
  0
POINT
  5
B27F
330
A83A
100
AcDbEntity
  8
DEFPOINTS
 62
     0
 48
25.0
100
AcDbPoint
 10
1799.463170910155
 20
953.371277183402
 30
0.0
  0
POINT
  5
B280
330
A83A
100
AcDbEntity
  8
DEFPOINTS
 62
     0
 48
25.0
100
AcDbPoint
 10
1799.463170910155
 20
1033.778916802019
 30
0.0
  0
ENDBLK
  5
A845
330
A83A
100
AcDbEntity
  8
0
 48
25.0
100
AcDbBlockEnd
  0
BLOCK
  5
A852
330
A846
100
AcDbEntity
  8
0
 48
25.0
100
AcDbBlockBegin
  2
*D30
 70
     1
 10
0.0
 20
0.0
 30
0.0
  3
*D30
  1

  0
LINE
  5
B281
330
A846
100
AcDbEntity
  8
寸法引出
 48
25.0
370
    -2
100
AcDbLine
 10
1799.463170910155
 20
973.3712771834021
 30
0.0
 11
1799.463170910155
 21
1043.778916802019
 31
0.0
  0
LINE
  5
B282
330
A846
100
AcDbEntity
  8
寸法引出
 48
25.0
370
    -2
100
AcDbLine
 10
1805.463170910156
 20
979.3712771834021
 30
0.0
 11
1805.463170910156
 21
1043.778916802019
 31
0.0
  0
LINE
  5
B283
330
A846
100
AcDbEntity
  8
寸法引出
 48
25.0
370
    -2
100
AcDbLine
 10
1769.463170910156
 20
1033.778916802019
 30
0.0
 11
1739.463170910156
 21
1033.778916802019
 31
0.0
  0
LINE
  5
B284
330
A846
100
AcDbEntity
  8
寸法引出
 48
25.0
370
    -2
100
AcDbLine
 10
1835.463170910156
 20
1033.778916802019
 30
0.0
 11
1865.463170910155
 21
1033.778916802019
 31
0.0
  0
LINE
  5
B285
330
A846
100
AcDbEntity
  8
寸法引出
 48
25.0
370
    -2
100
AcDbLine
 10
1799.463170910155
 20
1033.778916802019
 30
0.0
 11
1805.463170910156
 21
1033.778916802019
 31
0.0
  0
SOLID
  5
B286
330
A846
100
AcDbEntity
  8
寸法引出
 48
25.0
100
AcDbTrace
 10
1769.463170910156
 20
1038.778916802019
 30
0.0
 11
1769.463170910156
 21
1028.778916802019
 31
0.0
 12
1799.463170910155
 22
1033.778916802019
 32
0.0
 13
1799.463170910155
 23
1033.778916802019
 33
0.0
  0
SOLID
  5
B287
330
A846
100
AcDbEntity
  8
寸法引出
 48
25.0
100
AcDbTrace
 10
1835.463170910156
 20
1038.778916802019
 30
0.0
 11
1835.463170910156
 21
1028.778916802019
 31
0.0
 12
1805.463170910156
 22
1033.778916802019
 32
0.0
 13
1805.463170910156
 23
1033.778916802019
 33
0.0
  0
MTEXT
  5
B288
330
A846
100
AcDbEntity
  8
寸法引出
 48
25.0
100
AcDbMText
 10
1802.463170910155
 20
1073.778916802019
 30
0.0
 40
40.0
 41
0.0
 71
     5
 72
     1
  1
\A1;2
  7
SANWA
 73
     1
 44
1.0
  0
POINT
  5
B289
330
A846
100
AcDbEntity
  8
DEFPOINTS
 62
     0
 48
25.0
100
AcDbPoint
 10
1799.463170910155
 20
953.371277183402
 30
0.0
  0
POINT
  5
B28A
330
A846
100
AcDbEntity
  8
DEFPOINTS
 62
     0
 48
25.0
100
AcDbPoint
 10
1805.463170910156
 20
959.371277183402
 30
0.0
  0
POINT
  5
B28B
330
A846
100
AcDbEntity
  8
DEFPOINTS
 62
     0
 48
25.0
100
AcDbPoint
 10
1805.463170910156
 20
1033.778916802019
 30
0.0
  0
ENDBLK
  5
A853
330
A846
100
AcDbEntity
  8
0
 48
25.0
100
AcDbBlockEnd
  0
BLOCK
  5
A85E
330
A854
100
AcDbEntity
  8
0
 48
25.0
100
AcDbBlockBegin
  2
*D31
 70
     1
 10
0.0
 20
0.0
 30
0.0
  3
*D31
  1

  0
LINE
  5
B2C1
330
A854
100
AcDbEntity
  8
寸法引出
 48
25.0
370
    -2
100
AcDbLine
 10
1819.463170910161
 20
788.371277183402
 30
0.0
 11
1962.138017486453
 21
788.371277183402
 31
0.0
  0
LINE
  5
B2C2
330
A854
100
AcDbEntity
  8
寸法引出
 48
25.0
370
    -2
100
AcDbLine
 10
1819.463170910156
 20
953.371277183402
 30
0.0
 11
1962.138017486453
 21
953.371277183402
 31
0.0
  0
LINE
  5
B2C3
330
A854
100
AcDbEntity
  8
寸法引出
 48
25.0
370
    -2
100
AcDbLine
 10
1952.138017486453
 20
818.371277183402
 30
0.0
 11
1952.138017486453
 21
923.3712771834021
 31
0.0
  0
SOLID
  5
B2C4
330
A854
100
AcDbEntity
  8
寸法引出
 48
25.0
100
AcDbTrace
 10
1947.138017486453
 20
818.371277183402
 30
0.0
 11
1957.138017486453
 21
818.371277183402
 31
0.0
 12
1952.138017486453
 22
788.371277183402
 32
0.0
 13
1952.138017486453
 23
788.371277183402
 33
0.0
  0
SOLID
  5
B2C5
330
A854
100
AcDbEntity
  8
寸法引出
 48
25.0
100
AcDbTrace
 10
1947.138017486453
 20
923.3712771834021
 30
0.0
 11
1957.138017486453
 21
923.3712771834021
 31
0.0
 12
1952.138017486453
 22
953.371277183402
 32
0.0
 13
1952.138017486453
 23
953.371277183402
 33
0.0
  0
MTEXT
  5
B2C6
330
A854
100
AcDbEntity
  8
寸法引出
 48
25.0
100
AcDbMText
 10
1912.138017486453
 20
870.8712771834024
 30
0.0
 40
40.0
 41
0.0
 71
     5
 72
     1
  1
\A1;55
  7
SANWA
 11
0.0000000000000001
 21
1.0
 31
0.0
 73
     1
 44
1.0
  0
POINT
  5
B2C7
330
A854
100
AcDbEntity
  8
DEFPOINTS
 62
     0
 48
25.0
100
AcDbPoint
 10
1799.463170910161
 20
788.371277183402
 30
0.0
  0
POINT
  5
B2C8
330
A854
100
AcDbEntity
  8
DEFPOINTS
 62
     0
 48
25.0
100
AcDbPoint
 10
1799.463170910155
 20
953.371277183402
 30
0.0
  0
POINT
  5
B2C9
330
A854
100
AcDbEntity
  8
DEFPOINTS
 62
     0
 48
25.0
100
AcDbPoint
 10
1952.138017486453
 20
953.371277183402
 30
0.0
  0
ENDBLK
  5
A85F
330
A854
100
AcDbEntity
  8
0
 48
25.0
100
AcDbBlockEnd
  0
BLOCK
  5
A86A
330
A860
100
AcDbEntity
  8
0
 48
25.0
100
AcDbBlockBegin
  2
*D32
 70
     1
 10
0.0
 20
0.0
 30
0.0
  3
*D32
  1

  0
LINE
  5
B2CA
330
A860
100
AcDbEntity
  8
寸法引出
 48
25.0
370
    -2
100
AcDbLine
 10
1544.463170910155
 20
762.371277183402
 30
0.0
 11
1544.463170910155
 21
678.7005753087419
 31
0.0
  0
LINE
  5
B2CB
330
A860
100
AcDbEntity
  8
寸法引出
 48
25.0
370
    -2
100
AcDbLine
 10
1694.463170910156
 20
850.8712771834021
 30
0.0
 11
1694.463170910156
 21
678.7005753087419
 31
0.0
  0
LINE
  5
B2CC
330
A860
100
AcDbEntity
  8
寸法引出
 48
25.0
370
    -2
100
AcDbLine
 10
1574.463170910155
 20
688.7005753087419
 30
0.0
 11
1664.463170910156
 21
688.7005753087419
 31
0.0
  0
SOLID
  5
B2CD
330
A860
100
AcDbEntity
  8
寸法引出
 48
25.0
100
AcDbTrace
 10
1574.463170910155
 20
693.7005753087419
 30
0.0
 11
1574.463170910155
 21
683.7005753087419
 31
0.0
 12
1544.463170910155
 22
688.7005753087419
 32
0.0
 13
1544.463170910155
 23
688.7005753087419
 33
0.0
  0
SOLID
  5
B2CE
330
A860
100
AcDbEntity
  8
寸法引出
 48
25.0
100
AcDbTrace
 10
1664.463170910156
 20
693.7005753087419
 30
0.0
 11
1664.463170910156
 21
683.7005753087419
 31
0.0
 12
1694.463170910156
 22
688.7005753087419
 32
0.0
 13
1694.463170910156
 23
688.7005753087419
 33
0.0
  0
MTEXT
  5
B2CF
330
A860
100
AcDbEntity
  8
寸法引出
 48
25.0
100
AcDbMText
 10
1619.463170910156
 20
728.7005753087419
 30
0.0
 40
40.0
 41
0.0
 71
     5
 72
     1
  1
\A1;50
  7
SANWA
 73
     1
 44
1.0
  0
POINT
  5
B2D0
330
A860
100
AcDbEntity
  8
DEFPOINTS
 62
     0
 48
25.0
100
AcDbPoint
 10
1544.463170910155
 20
782.3712771834021
 30
0.0
  0
POINT
  5
B2D1
330
A860
100
AcDbEntity
  8
DEFPOINTS
 62
     0
 48
25.0
100
AcDbPoint
 10
1694.463170910156
 20
870.871277183402
 30
0.0
  0
POINT
  5
B2D2
330
A860
100
AcDbEntity
  8
DEFPOINTS
 62
     0
 48
25.0
100
AcDbPoint
 10
1694.463170910156
 20
688.7005753087419
 30
0.0
  0
ENDBLK
  5
A86B
330
A860
100
AcDbEntity
  8
0
 48
25.0
100
AcDbBlockEnd
  0
BLOCK
  5
A878
330
A86C
100
AcDbEntity
  8
0
 48
25.0
100
AcDbBlockBegin
  2
*D33
 70
     1
 10
0.0
 20
0.0
 30
0.0
  3
*D33
  1

  0
LINE
  5
B28C
330
A86C
100
AcDbEntity
  8
寸法引出
 48
25.0
370
    -2
100
AcDbLine
 10
3579.631789356666
 20
912.677873433879
 30
0.0
 11
3455.514492224123
 21
912.677873433879
 31
0.0
  0
LINE
  5
B28D
330
A86C
100
AcDbEntity
  8
寸法引出
 48
25.0
370
    -2
100
AcDbLine
 10
3579.631789356666
 20
1012.677873433879
 30
0.0
 11
3455.514492224123
 21
1012.677873433879
 31
0.0
  0
LINE
  5
B28E
330
A86C
100
AcDbEntity
  8
寸法引出
 48
25.0
370
    -2
100
AcDbLine
 10
3465.514492224123
 20
882.6778734338791
 30
0.0
 11
3465.514492224123
 21
852.677873433879
 31
0.0
  0
LINE
  5
B28F
330
A86C
100
AcDbEntity
  8
寸法引出
 48
25.0
370
    -2
100
AcDbLine
 10
3465.514492224124
 20
1042.677873433879
 30
0.0
 11
3465.514492224124
 21
1072.677873433879
 31
0.0
  0
LINE
  5
B290
330
A86C
100
AcDbEntity
  8
寸法引出
 48
25.0
370
    -2
100
AcDbLine
 10
3465.514492224123
 20
912.677873433879
 30
0.0
 11
3465.514492224123
 21
1012.677873433879
 31
0.0
  0
SOLID
  5
B291
330
A86C
100
AcDbEntity
  8
寸法引出
 48
25.0
100
AcDbTrace
 10
3460.514492224123
 20
882.6778734338791
 30
0.0
 11
3470.514492224123
 21
882.6778734338791
 31
0.0
 12
3465.514492224123
 22
912.677873433879
 32
0.0
 13
3465.514492224123
 23
912.677873433879
 33
0.0
  0
SOLID
  5
B292
330
A86C
100
AcDbEntity
  8
寸法引出
 48
25.0
100
AcDbTrace
 10
3460.514492224123
 20
1042.677873433879
 30
0.0
 11
3470.514492224124
 21
1042.677873433879
 31
0.0
 12
3465.514492224123
 22
1012.677873433879
 32
0.0
 13
3465.514492224123
 23
1012.677873433879
 33
0.0
  0
MTEXT
  5
B293
330
A86C
100
AcDbEntity
  8
寸法引出
 48
25.0
100
AcDbMText
 10
3425.514492224123
 20
962.6778734338797
 30
0.0
 40
40.0
 41
0.0
 71
     5
 72
     1
  1
\A1;10
  7
SANWA
 11
0.0000000000000001
 21
1.0
 31
0.0
 73
     1
 44
1.0
  0
POINT
  5
B294
330
A86C
100
AcDbEntity
  8
DEFPOINTS
 62
     0
 48
25.0
100
AcDbPoint
 10
3599.631789356667
 20
912.677873433879
 30
0.0
  0
POINT
  5
B295
330
A86C
100
AcDbEntity
  8
DEFPOINTS
 62
     0
 48
25.0
100
AcDbPoint
 10
3599.631789356667
 20
1012.677873433879
 30
0.0
  0
POINT
  5
B296
330
A86C
100
AcDbEntity
  8
DEFPOINTS
 62
     0
 48
25.0
100
AcDbPoint
 10
3465.514492224123
 20
1012.677873433879
 30
0.0
  0
ENDBLK
  5
A879
330
A86C
100
AcDbEntity
  8
0
 48
25.0
100
AcDbBlockEnd
  0
BLOCK
  5
A886
330
A87A
100
AcDbEntity
  8
0
 48
25.0
100
AcDbBlockBegin
  2
*D34
 70
     1
 10
0.0
 20
0.0
 30
0.0
  3
*D34
  1

  0
LINE
  5
B2DE
330
A87A
100
AcDbEntity
  8
寸法引出
 48
25.0
370
    -2
100
AcDbLine
 10
3629.631789356666
 20
812.677873433879
 30
0.0
 11
3455.514492224123
 21
812.677873433879
 31
0.0
  0
LINE
  5
B2DF
330
A87A
100
AcDbEntity
  8
寸法引出
 48
25.0
370
    -2
100
AcDbLine
 10
3529.631789356666
 20
842.6778734338791
 30
0.0
 11
3455.514492224123
 21
842.6778734338791
 31
0.0
  0
LINE
  5
B2E0
330
A87A
100
AcDbEntity
  8
寸法引出
 48
25.0
370
    -2
100
AcDbLine
 10
3465.514492224123
 20
782.677873433879
 30
0.0
 11
3465.514492224123
 21
752.677873433879
 31
0.0
  0
LINE
  5
B2E1
330
A87A
100
AcDbEntity
  8
寸法引出
 48
25.0
370
    -2
100
AcDbLine
 10
3465.514492224123
 20
872.6778734338791
 30
0.0
 11
3465.514492224123
 21
902.677873433879
 31
0.0
  0
LINE
  5
B2E2
330
A87A
100
AcDbEntity
  8
寸法引出
 48
25.0
370
    -2
100
AcDbLine
 10
3465.514492224123
 20
812.677873433879
 30
0.0
 11
3465.514492224123
 21
842.6778734338791
 31
0.0
  0
SOLID
  5
B2E3
330
A87A
100
AcDbEntity
  8
寸法引出
 48
25.0
100
AcDbTrace
 10
3460.514492224123
 20
782.677873433879
 30
0.0
 11
3470.514492224123
 21
782.677873433879
 31
0.0
 12
3465.514492224123
 22
812.677873433879
 32
0.0
 13
3465.514492224123
 23
812.677873433879
 33
0.0
  0
SOLID
  5
B2E4
330
A87A
100
AcDbEntity
  8
寸法引出
 48
25.0
100
AcDbTrace
 10
3460.514492224123
 20
872.6778734338791
 30
0.0
 11
3470.514492224123
 21
872.6778734338791
 31
0.0
 12
3465.514492224123
 22
842.6778734338791
 32
0.0
 13
3465.514492224123
 23
842.6778734338791
 33
0.0
  0
MTEXT
  5
B2E5
330
A87A
100
AcDbEntity
  8
寸法引出
 48
25.0
100
AcDbMText
 10
3425.514492224123
 20
827.6778734338796
 30
0.0
 40
40.0
 41
0.0
 71
     5
 72
     1
  1
\A1;3
  7
SANWA
 11
0.0000000000000001
 21
1.0
 31
0.0
 73
     1
 44
1.0
  0
POINT
  5
B2E6
330
A87A
100
AcDbEntity
  8
DEFPOINTS
 62
     0
 48
25.0
100
AcDbPoint
 10
3649.631789356666
 20
812.677873433879
 30
0.0
  0
POINT
  5
B2E7
330
A87A
100
AcDbEntity
  8
DEFPOINTS
 62
     0
 48
25.0
100
AcDbPoint
 10
3549.631789356666
 20
842.6778734338791
 30
0.0
  0
POINT
  5
B2E8
330
A87A
100
AcDbEntity
  8
DEFPOINTS
 62
     0
 48
25.0
100
AcDbPoint
 10
3465.514492224123
 20
842.6778734338791
 30
0.0
  0
ENDBLK
  5
A887
330
A87A
100
AcDbEntity
  8
0
 48
25.0
100
AcDbBlockEnd
  0
BLOCK
  5
A894
330
A888
100
AcDbEntity
  8
0
 48
25.0
100
AcDbBlockBegin
  2
*D35
 70
     1
 10
0.0
 20
0.0
 30
0.0
  3
*D35
  1

  0
LINE
  5
B2E9
330
A888
100
AcDbEntity
  8
寸法引出
 48
25.0
370
    -2
100
AcDbLine
 10
3529.631789356666
 20
842.6778734338791
 30
0.0
 11
3455.514492224123
 21
842.6778734338791
 31
0.0
  0
LINE
  5
B2EA
330
A888
100
AcDbEntity
  8
寸法引出
 48
25.0
370
    -2
100
AcDbLine
 10
3579.631789356666
 20
912.677873433879
 30
0.0
 11
3455.514492224123
 21
912.677873433879
 31
0.0
  0
LINE
  5
B2EB
330
A888
100
AcDbEntity
  8
寸法引出
 48
25.0
370
    -2
100
AcDbLine
 10
3465.514492224123
 20
812.677873433879
 30
0.0
 11
3465.514492224123
 21
782.677873433879
 31
0.0
  0
LINE
  5
B2EC
330
A888
100
AcDbEntity
  8
寸法引出
 48
25.0
370
    -2
100
AcDbLine
 10
3465.514492224123
 20
942.6778734338791
 30
0.0
 11
3465.514492224123
 21
972.6778734338791
 31
0.0
  0
LINE
  5
B2ED
330
A888
100
AcDbEntity
  8
寸法引出
 48
25.0
370
    -2
100
AcDbLine
 10
3465.514492224123
 20
842.6778734338791
 30
0.0
 11
3465.514492224123
 21
912.677873433879
 31
0.0
  0
SOLID
  5
B2EE
330
A888
100
AcDbEntity
  8
寸法引出
 48
25.0
100
AcDbTrace
 10
3460.514492224123
 20
812.677873433879
 30
0.0
 11
3470.514492224123
 21
812.677873433879
 31
0.0
 12
3465.514492224123
 22
842.6778734338791
 32
0.0
 13
3465.514492224123
 23
842.6778734338791
 33
0.0
  0
SOLID
  5
B2EF
330
A888
100
AcDbEntity
  8
寸法引出
 48
25.0
100
AcDbTrace
 10
3460.514492224123
 20
942.6778734338791
 30
0.0
 11
3470.514492224123
 21
942.6778734338791
 31
0.0
 12
3465.514492224123
 22
912.677873433879
 32
0.0
 13
3465.514492224123
 23
912.677873433879
 33
0.0
  0
MTEXT
  5
B2F0
330
A888
100
AcDbEntity
  8
寸法引出
 48
25.0
100
AcDbMText
 10
3425.514492224123
 20
877.6778734338796
 30
0.0
 40
40.0
 41
0.0
 71
     5
 72
     1
  1
\A1;7
  7
SANWA
 11
0.0000000000000001
 21
1.0
 31
0.0
 73
     1
 44
1.0
  0
POINT
  5
B2F1
330
A888
100
AcDbEntity
  8
DEFPOINTS
 62
     0
 48
25.0
100
AcDbPoint
 10
3549.631789356666
 20
842.6778734338791
 30
0.0
  0
POINT
  5
B2F2
330
A888
100
AcDbEntity
  8
DEFPOINTS
 62
     0
 48
25.0
100
AcDbPoint
 10
3599.631789356667
 20
912.677873433879
 30
0.0
  0
POINT
  5
B2F3
330
A888
100
AcDbEntity
  8
DEFPOINTS
 62
     0
 48
25.0
100
AcDbPoint
 10
3465.514492224123
 20
912.677873433879
 30
0.0
  0
ENDBLK
  5
A895
330
A888
100
AcDbEntity
  8
0
 48
25.0
100
AcDbBlockEnd
  0
BLOCK
  5
A8A2
330
A896
100
AcDbEntity
  8
0
 48
25.0
100
AcDbBlockBegin
  2
*D36
 70
     1
 10
0.0
 20
0.0
 30
0.0
  3
*D36
  1

  0
LINE
  5
B297
330
A896
100
AcDbEntity
  8
寸法引出
 48
25.0
370
    -2
100
AcDbLine
 10
3549.631789356666
 20
1032.677873433879
 30
0.0
 11
3549.631789356666
 21
1120.567883054149
 31
0.0
  0
LINE
  5
B298
330
A896
100
AcDbEntity
  8
寸法引出
 48
25.0
370
    -2
100
AcDbLine
 10
3599.631789356667
 20
1032.677873433879
 30
0.0
 11
3599.631789356667
 21
1120.567883054149
 31
0.0
  0
LINE
  5
B299
330
A896
100
AcDbEntity
  8
寸法引出
 48
25.0
370
    -2
100
AcDbLine
 10
3519.631789356666
 20
1110.567883054149
 30
0.0
 11
3489.631789356666
 21
1110.567883054149
 31
0.0
  0
LINE
  5
B29A
330
A896
100
AcDbEntity
  8
寸法引出
 48
25.0
370
    -2
100
AcDbLine
 10
3629.631789356666
 20
1110.567883054149
 30
0.0
 11
3659.631789356666
 21
1110.567883054149
 31
0.0
  0
LINE
  5
B29B
330
A896
100
AcDbEntity
  8
寸法引出
 48
25.0
370
    -2
100
AcDbLine
 10
3549.631789356666
 20
1110.567883054149
 30
0.0
 11
3599.631789356667
 21
1110.567883054149
 31
0.0
  0
SOLID
  5
B29C
330
A896
100
AcDbEntity
  8
寸法引出
 48
25.0
100
AcDbTrace
 10
3519.631789356666
 20
1115.567883054149
 30
0.0
 11
3519.631789356666
 21
1105.567883054149
 31
0.0
 12
3549.631789356666
 22
1110.567883054149
 32
0.0
 13
3549.631789356666
 23
1110.567883054149
 33
0.0
  0
SOLID
  5
B29D
330
A896
100
AcDbEntity
  8
寸法引出
 48
25.0
100
AcDbTrace
 10
3629.631789356666
 20
1115.567883054149
 30
0.0
 11
3629.631789356666
 21
1105.567883054149
 31
0.0
 12
3599.631789356667
 22
1110.567883054149
 32
0.0
 13
3599.631789356667
 23
1110.567883054149
 33
0.0
  0
MTEXT
  5
B29E
330
A896
100
AcDbEntity
  8
寸法引出
 48
25.0
100
AcDbMText
 10
3574.631789356667
 20
1150.567883054149
 30
0.0
 40
40.0
 41
0.0
 71
     5
 72
     1
  1
\A1;5
  7
SANWA
 73
     1
 44
1.0
  0
POINT
  5
B29F
330
A896
100
AcDbEntity
  8
DEFPOINTS
 62
     0
 48
25.0
100
AcDbPoint
 10
3549.631789356666
 20
1012.677873433879
 30
0.0
  0
POINT
  5
B2A0
330
A896
100
AcDbEntity
  8
DEFPOINTS
 62
     0
 48
25.0
100
AcDbPoint
 10
3599.631789356667
 20
1012.677873433879
 30
0.0
  0
POINT
  5
B2A1
330
A896
100
AcDbEntity
  8
DEFPOINTS
 62
     0
 48
25.0
100
AcDbPoint
 10
3599.631789356667
 20
1110.567883054149
 30
0.0
  0
ENDBLK
  5
A8A3
330
A896
100
AcDbEntity
  8
0
 48
25.0
100
AcDbBlockEnd
  0
BLOCK
  5
A8B0
330
A8A4
100
AcDbEntity
  8
0
 48
25.0
100
AcDbBlockBegin
  2
*D37
 70
     1
 10
0.0
 20
0.0
 30
0.0
  3
*D37
  1

  0
LINE
  5
B2A2
330
A8A4
100
AcDbEntity
  8
寸法引出
 48
25.0
370
    -2
100
AcDbLine
 10
3599.631789356667
 20
1032.677873433879
 30
0.0
 11
3599.631789356667
 21
1120.567883054149
 31
0.0
  0
LINE
  5
B2A3
330
A8A4
100
AcDbEntity
  8
寸法引出
 48
25.0
370
    -2
100
AcDbLine
 10
3699.631789356667
 20
1032.677873433879
 30
0.0
 11
3699.631789356667
 21
1120.567883054149
 31
0.0
  0
LINE
  5
B2A4
330
A8A4
100
AcDbEntity
  8
寸法引出
 48
25.0
370
    -2
100
AcDbLine
 10
3569.631789356666
 20
1110.567883054149
 30
0.0
 11
3539.631789356667
 21
1110.567883054149
 31
0.0
  0
LINE
  5
B2A5
330
A8A4
100
AcDbEntity
  8
寸法引出
 48
25.0
370
    -2
100
AcDbLine
 10
3729.631789356666
 20
1110.567883054149
 30
0.0
 11
3759.631789356666
 21
1110.567883054149
 31
0.0
  0
LINE
  5
B2A6
330
A8A4
100
AcDbEntity
  8
寸法引出
 48
25.0
370
    -2
100
AcDbLine
 10
3599.631789356667
 20
1110.567883054149
 30
0.0
 11
3699.631789356667
 21
1110.567883054149
 31
0.0
  0
SOLID
  5
B2A7
330
A8A4
100
AcDbEntity
  8
寸法引出
 48
25.0
100
AcDbTrace
 10
3569.631789356666
 20
1115.567883054149
 30
0.0
 11
3569.631789356666
 21
1105.567883054149
 31
0.0
 12
3599.631789356667
 22
1110.567883054149
 32
0.0
 13
3599.631789356667
 23
1110.567883054149
 33
0.0
  0
SOLID
  5
B2A8
330
A8A4
100
AcDbEntity
  8
寸法引出
 48
25.0
100
AcDbTrace
 10
3729.631789356666
 20
1115.567883054149
 30
0.0
 11
3729.631789356666
 21
1105.567883054149
 31
0.0
 12
3699.631789356667
 22
1110.567883054149
 32
0.0
 13
3699.631789356667
 23
1110.567883054149
 33
0.0
  0
MTEXT
  5
B2A9
330
A8A4
100
AcDbEntity
  8
寸法引出
 48
25.0
100
AcDbMText
 10
3649.631789356666
 20
1150.567883054149
 30
0.0
 40
40.0
 41
0.0
 71
     5
 72
     1
  1
\A1;10
  7
SANWA
 73
     1
 44
1.0
  0
POINT
  5
B2AA
330
A8A4
100
AcDbEntity
  8
DEFPOINTS
 62
     0
 48
25.0
100
AcDbPoint
 10
3599.631789356667
 20
1012.677873433879
 30
0.0
  0
POINT
  5
B2AB
330
A8A4
100
AcDbEntity
  8
DEFPOINTS
 62
     0
 48
25.0
100
AcDbPoint
 10
3699.631789356667
 20
1012.677873433879
 30
0.0
  0
POINT
  5
B2AC
330
A8A4
100
AcDbEntity
  8
DEFPOINTS
 62
     0
 48
25.0
100
AcDbPoint
 10
3699.631789356667
 20
1110.567883054149
 30
0.0
  0
ENDBLK
  5
A8B1
330
A8A4
100
AcDbEntity
  8
0
 48
25.0
100
AcDbBlockEnd
  0
BLOCK
  5
A8BC
330
A8B2
100
AcDbEntity
  8
0
 48
25.0
100
AcDbBlockBegin
  2
*D38
 70
     1
 10
0.0
 20
0.0
 30
0.0
  3
*D38
  1

  0
LINE
  5
B2AD
330
A8B2
100
AcDbEntity
  8
寸法引出
 48
25.0
370
    -2
100
AcDbLine
 10
3549.631789356666
 20
1032.677873433879
 30
0.0
 11
3549.631789356666
 21
1206.851078528567
 31
0.0
  0
LINE
  5
B2AE
330
A8B2
100
AcDbEntity
  8
寸法引出
 48
25.0
370
    -2
100
AcDbLine
 10
3749.631789356667
 20
1032.677873433879
 30
0.0
 11
3749.631789356667
 21
1206.851078528567
 31
0.0
  0
LINE
  5
B2AF
330
A8B2
100
AcDbEntity
  8
寸法引出
 48
25.0
370
    -2
100
AcDbLine
 10
3579.631789356666
 20
1196.851078528567
 30
0.0
 11
3719.631789356666
 21
1196.851078528567
 31
0.0
  0
SOLID
  5
B2B0
330
A8B2
100
AcDbEntity
  8
寸法引出
 48
25.0
100
AcDbTrace
 10
3579.631789356666
 20
1201.851078528567
 30
0.0
 11
3579.631789356666
 21
1191.851078528567
 31
0.0
 12
3549.631789356666
 22
1196.851078528567
 32
0.0
 13
3549.631789356666
 23
1196.851078528567
 33
0.0
  0
SOLID
  5
B2B1
330
A8B2
100
AcDbEntity
  8
寸法引出
 48
25.0
100
AcDbTrace
 10
3719.631789356666
 20
1201.851078528567
 30
0.0
 11
3719.631789356666
 21
1191.851078528567
 31
0.0
 12
3749.631789356667
 22
1196.851078528567
 32
0.0
 13
3749.631789356667
 23
1196.851078528567
 33
0.0
  0
MTEXT
  5
B2B2
330
A8B2
100
AcDbEntity
  8
寸法引出
 48
25.0
100
AcDbMText
 10
3649.631789356666
 20
1236.851078528567
 30
0.0
 40
40.0
 41
0.0
 71
     5
 72
     1
  1
\A1;20
  7
SANWA
 73
     1
 44
1.0
  0
POINT
  5
B2B3
330
A8B2
100
AcDbEntity
  8
DEFPOINTS
 62
     0
 48
25.0
100
AcDbPoint
 10
3549.631789356666
 20
1012.677873433879
 30
0.0
  0
POINT
  5
B2B4
330
A8B2
100
AcDbEntity
  8
DEFPOINTS
 62
     0
 48
25.0
100
AcDbPoint
 10
3749.631789356667
 20
1012.677873433879
 30
0.0
  0
POINT
  5
B2B5
330
A8B2
100
AcDbEntity
  8
DEFPOINTS
 62
     0
 48
25.0
100
AcDbPoint
 10
3749.631789356667
 20
1196.851078528567
 30
0.0
  0
ENDBLK
  5
A8BD
330
A8B2
100
AcDbEntity
  8
0
 48
25.0
100
AcDbBlockEnd
  0
BLOCK
  5
A8CA
330
A8BE
100
AcDbEntity
  8
0
 48
25.0
100
AcDbBlockBegin
  2
*D39
 70
     1
 10
0.0
 20
0.0
 30
0.0
  3
*D39
  1

  0
LINE
  5
B2B6
330
A8BE
100
AcDbEntity
  8
寸法引出
 48
25.0
370
    -2
100
AcDbLine
 10
3699.631789356667
 20
1032.677873433879
 30
0.0
 11
3699.631789356667
 21
1120.567883054149
 31
0.0
  0
LINE
  5
B2B7
330
A8BE
100
AcDbEntity
  8
寸法引出
 48
25.0
370
    -2
100
AcDbLine
 10
3749.631789356667
 20
1032.677873433879
 30
0.0
 11
3749.631789356667
 21
1120.567883054149
 31
0.0
  0
LINE
  5
B2B8
330
A8BE
100
AcDbEntity
  8
寸法引出
 48
25.0
370
    -2
100
AcDbLine
 10
3669.631789356666
 20
1110.567883054149
 30
0.0
 11
3639.631789356666
 21
1110.567883054149
 31
0.0
  0
LINE
  5
B2B9
330
A8BE
100
AcDbEntity
  8
寸法引出
 48
25.0
370
    -2
100
AcDbLine
 10
3779.631789356666
 20
1110.567883054149
 30
0.0
 11
3809.631789356666
 21
1110.567883054149
 31
0.0
  0
LINE
  5
B2BA
330
A8BE
100
AcDbEntity
  8
寸法引出
 48
25.0
370
    -2
100
AcDbLine
 10
3699.631789356667
 20
1110.567883054149
 30
0.0
 11
3749.631789356667
 21
1110.567883054149
 31
0.0
  0
SOLID
  5
B2BB
330
A8BE
100
AcDbEntity
  8
寸法引出
 48
25.0
100
AcDbTrace
 10
3669.631789356666
 20
1115.567883054149
 30
0.0
 11
3669.631789356666
 21
1105.567883054149
 31
0.0
 12
3699.631789356667
 22
1110.567883054149
 32
0.0
 13
3699.631789356667
 23
1110.567883054149
 33
0.0
  0
SOLID
  5
B2BC
330
A8BE
100
AcDbEntity
  8
寸法引出
 48
25.0
100
AcDbTrace
 10
3779.631789356666
 20
1115.567883054149
 30
0.0
 11
3779.631789356666
 21
1105.567883054149
 31
0.0
 12
3749.631789356667
 22
1110.567883054149
 32
0.0
 13
3749.631789356667
 23
1110.567883054149
 33
0.0
  0
MTEXT
  5
B2BD
330
A8BE
100
AcDbEntity
  8
寸法引出
 48
25.0
100
AcDbMText
 10
3724.631789356667
 20
1150.567883054149
 30
0.0
 40
40.0
 41
0.0
 71
     5
 72
     1
  1
\A1;5
  7
SANWA
 73
     1
 44
1.0
  0
POINT
  5
B2BE
330
A8BE
100
AcDbEntity
  8
DEFPOINTS
 62
     0
 48
25.0
100
AcDbPoint
 10
3699.631789356667
 20
1012.677873433879
 30
0.0
  0
POINT
  5
B2BF
330
A8BE
100
AcDbEntity
  8
DEFPOINTS
 62
     0
 48
25.0
100
AcDbPoint
 10
3749.631789356667
 20
1012.677873433879
 30
0.0
  0
POINT
  5
B2C0
330
A8BE
100
AcDbEntity
  8
DEFPOINTS
 62
     0
 48
25.0
100
AcDbPoint
 10
3749.631789356667
 20
1110.567883054149
 30
0.0
  0
ENDBLK
  5
A8CB
330
A8BE
100
AcDbEntity
  8
0
 48
25.0
100
AcDbBlockEnd
  0
BLOCK
  5
A989
330
A97F
100
AcDbEntity
  8
0
 48
25.0
100
AcDbBlockBegin
  2
*D40
 70
     1
 10
0.0
 20
0.0
 30
0.0
  3
*D40
  1

  0
LINE
  5
B333
330
A97F
100
AcDbEntity
  8
寸法引出
 48
25.0
370
    -2
100
AcDbLine
 10
1396.307532711425
 20
3766.381907904721
 30
0.0
 11
1307.582335124223
 21
3766.381907904721
 31
0.0
  0
LINE
  5
B334
330
A97F
100
AcDbEntity
  8
寸法引出
 48
25.0
370
    -2
100
AcDbLine
 10
1396.307532711425
 20
3616.381907904721
 30
0.0
 11
1307.582335124223
 21
3616.381907904721
 31
0.0
  0
LINE
  5
B335
330
A97F
100
AcDbEntity
  8
寸法引出
 48
25.0
370
    -2
100
AcDbLine
 10
1317.582335124223
 20
3736.381907904721
 30
0.0
 11
1317.582335124223
 21
3646.381907904721
 31
0.0
  0
SOLID
  5
B336
330
A97F
100
AcDbEntity
  8
寸法引出
 48
25.0
100
AcDbTrace
 10
1312.582335124223
 20
3736.381907904721
 30
0.0
 11
1322.582335124223
 21
3736.381907904721
 31
0.0
 12
1317.582335124223
 22
3766.381907904721
 32
0.0
 13
1317.582335124223
 23
3766.381907904721
 33
0.0
  0
SOLID
  5
B337
330
A97F
100
AcDbEntity
  8
寸法引出
 48
25.0
100
AcDbTrace
 10
1312.582335124223
 20
3646.381907904721
 30
0.0
 11
1322.582335124223
 21
3646.381907904721
 31
0.0
 12
1317.582335124223
 22
3616.381907904721
 32
0.0
 13
1317.582335124223
 23
3616.381907904721
 33
0.0
  0
MTEXT
  5
B338
330
A97F
100
AcDbEntity
  8
寸法引出
 48
25.0
100
AcDbMText
 10
1277.582335124222
 20
3691.381907904721
 30
0.0
 40
40.0
 41
0.0
 71
     5
 72
     1
  1
\A1;150
  7
SANWA
 11
0.0000000000000001
 21
1.0
 31
0.0
 73
     1
 44
1.0
  0
POINT
  5
B339
330
A97F
100
AcDbEntity
  8
DEFPOINTS
 62
     0
 48
25.0
100
AcDbPoint
 10
1416.307532711425
 20
3766.381907904721
 30
0.0
  0
POINT
  5
B33A
330
A97F
100
AcDbEntity
  8
DEFPOINTS
 62
     0
 48
25.0
100
AcDbPoint
 10
1416.307532711425
 20
3616.381907904721
 30
0.0
  0
POINT
  5
B33B
330
A97F
100
AcDbEntity
  8
DEFPOINTS
 62
     0
 48
25.0
100
AcDbPoint
 10
1317.582335124223
 20
3616.381907904721
 30
0.0
  0
ENDBLK
  5
A98A
330
A97F
100
AcDbEntity
  8
0
 48
25.0
100
AcDbBlockEnd
  0
BLOCK
  5
A9AC
330
A9A2
100
AcDbEntity
  8
0
 48
25.0
100
AcDbBlockBegin
  2
*D41
 70
     1
 10
0.0
 20
0.0
 30
0.0
  3
*D41
  1

  0
LINE
  5
B30F
330
A9A2
100
AcDbEntity
  8
寸法引出
 48
25.0
370
    -2
100
AcDbLine
 10
2727.993792760311
 20
3076.381907904721
 30
0.0
 11
2727.993792760311
 21
2917.90039990345
 31
0.0
  0
LINE
  5
B310
330
A9A2
100
AcDbEntity
  8
寸法引出
 48
25.0
370
    -2
100
AcDbLine
 10
4727.993792760311
 20
3076.381907904721
 30
0.0
 11
4727.993792760311
 21
2917.90039990345
 31
0.0
  0
LINE
  5
B311
330
A9A2
100
AcDbEntity
  8
寸法引出
 48
25.0
370
    -2
100
AcDbLine
 10
2757.993792760311
 20
2927.90039990345
 30
0.0
 11
4697.993792760311
 21
2927.90039990345
 31
0.0
  0
SOLID
  5
B312
330
A9A2
100
AcDbEntity
  8
寸法引出
 48
25.0
100
AcDbTrace
 10
2757.993792760311
 20
2932.90039990345
 30
0.0
 11
2757.993792760311
 21
2922.900399903451
 31
0.0
 12
2727.993792760311
 22
2927.90039990345
 32
0.0
 13
2727.993792760311
 23
2927.90039990345
 33
0.0
  0
SOLID
  5
B313
330
A9A2
100
AcDbEntity
  8
寸法引出
 48
25.0
100
AcDbTrace
 10
4697.993792760311
 20
2932.90039990345
 30
0.0
 11
4697.993792760311
 21
2922.900399903451
 31
0.0
 12
4727.993792760311
 22
2927.90039990345
 32
0.0
 13
4727.993792760311
 23
2927.90039990345
 33
0.0
  0
MTEXT
  5
B314
330
A9A2
100
AcDbEntity
  8
寸法引出
 48
25.0
100
AcDbMText
 10
3727.993792760311
 20
2967.900399903451
 30
0.0
 40
40.0
 41
0.0
 71
     5
 72
     1
  1
\A1;2000
  7
SANWA
 73
     1
 44
1.0
  0
POINT
  5
B315
330
A9A2
100
AcDbEntity
  8
DEFPOINTS
 62
     0
 48
25.0
100
AcDbPoint
 10
2727.993792760311
 20
3096.381907904721
 30
0.0
  0
POINT
  5
B316
330
A9A2
100
AcDbEntity
  8
DEFPOINTS
 62
     0
 48
25.0
100
AcDbPoint
 10
4727.993792760311
 20
3096.381907904721
 30
0.0
  0
POINT
  5
B317
330
A9A2
100
AcDbEntity
  8
DEFPOINTS
 62
     0
 48
25.0
100
AcDbPoint
 10
4727.993792760311
 20
2927.90039990345
 30
0.0
  0
ENDBLK
  5
A9AD
330
A9A2
100
AcDbEntity
  8
0
 48
25.0
100
AcDbBlockEnd
  0
BLOCK
  5
A9CE
330
A9C2
100
AcDbEntity
  8
0
 48
25.0
100
AcDbBlockBegin
  2
*D42
 70
     1
 10
0.0
 20
0.0
 30
0.0
  3
*D42
  1

  0
LINE
  5
B39C
330
A9C2
100
AcDbEntity
  8
寸法引出
 48
25.0
370
    -2
100
AcDbLine
 10
2727.993792760311
 20
3660.881907904721
 30
0.0
 11
2727.993792760311
 21
3681.440398842077
 31
0.0
  0
LINE
  5
B39D
330
A9C2
100
AcDbEntity
  8
寸法引出
 48
25.0
370
    -2
100
AcDbLine
 10
2777.993792760311
 20
3636.381907904721
 30
0.0
 11
2777.993792760311
 21
3681.440398842077
 31
0.0
  0
LINE
  5
B39E
330
A9C2
100
AcDbEntity
  8
寸法引出
 48
25.0
370
    -2
100
AcDbLine
 10
2697.993792760311
 20
3671.440398842077
 30
0.0
 11
2667.993792760311
 21
3671.440398842077
 31
0.0
  0
LINE
  5
B39F
330
A9C2
100
AcDbEntity
  8
寸法引出
 48
25.0
370
    -2
100
AcDbLine
 10
2807.993792760311
 20
3671.440398842077
 30
0.0
 11
2837.993792760311
 21
3671.440398842077
 31
0.0
  0
LINE
  5
B3A0
330
A9C2
100
AcDbEntity
  8
寸法引出
 48
25.0
370
    -2
100
AcDbLine
 10
2727.993792760311
 20
3671.440398842077
 30
0.0
 11
2777.993792760311
 21
3671.440398842077
 31
0.0
  0
SOLID
  5
B3A1
330
A9C2
100
AcDbEntity
  8
寸法引出
 48
25.0
100
AcDbTrace
 10
2697.993792760311
 20
3676.440398842077
 30
0.0
 11
2697.993792760311
 21
3666.440398842076
 31
0.0
 12
2727.993792760311
 22
3671.440398842077
 32
0.0
 13
2727.993792760311
 23
3671.440398842077
 33
0.0
  0
SOLID
  5
B3A2
330
A9C2
100
AcDbEntity
  8
寸法引出
 48
25.0
100
AcDbTrace
 10
2807.993792760311
 20
3676.440398842077
 30
0.0
 11
2807.993792760311
 21
3666.440398842076
 31
0.0
 12
2777.993792760311
 22
3671.440398842077
 32
0.0
 13
2777.993792760311
 23
3671.440398842077
 33
0.0
  0
MTEXT
  5
B3A3
330
A9C2
100
AcDbEntity
  8
寸法引出
 48
25.0
100
AcDbMText
 10
2752.993792760311
 20
3711.440398842077
 30
0.0
 40
40.0
 41
0.0
 71
     5
 72
     1
  1
\A1;50
  7
SANWA
 73
     1
 44
1.0
  0
POINT
  5
B3A4
330
A9C2
100
AcDbEntity
  8
DEFPOINTS
 62
     0
 48
25.0
100
AcDbPoint
 10
2727.993792760311
 20
3640.881907904721
 30
0.0
  0
POINT
  5
B3A5
330
A9C2
100
AcDbEntity
  8
DEFPOINTS
 62
     0
 48
25.0
100
AcDbPoint
 10
2777.993792760311
 20
3616.381907904721
 30
0.0
  0
POINT
  5
B3A6
330
A9C2
100
AcDbEntity
  8
DEFPOINTS
 62
     0
 48
25.0
100
AcDbPoint
 10
2777.993792760311
 20
3671.440398842077
 30
0.0
  0
ENDBLK
  5
A9CF
330
A9C2
100
AcDbEntity
  8
0
 48
25.0
100
AcDbBlockEnd
  0
BLOCK
  5
A9DA
330
A9D0
100
AcDbEntity
  8
0
 48
25.0
100
AcDbBlockBegin
  2
*D43
 70
     1
 10
0.0
 20
0.0
 30
0.0
  3
*D43
  1

  0
LINE
  5
B393
330
A9D0
100
AcDbEntity
  8
寸法引出
 48
25.0
370
    -2
100
AcDbLine
 10
2707.993792760311
 20
3766.381907904721
 30
0.0
 11
2631.087915064889
 21
3766.381907904721
 31
0.0
  0
LINE
  5
B394
330
A9D0
100
AcDbEntity
  8
寸法引出
 48
25.0
370
    -2
100
AcDbLine
 10
2707.993792760311
 20
3616.381907904721
 30
0.0
 11
2631.087915064889
 21
3616.381907904721
 31
0.0
  0
LINE
  5
B395
330
A9D0
100
AcDbEntity
  8
寸法引出
 48
25.0
370
    -2
100
AcDbLine
 10
2641.087915064888
 20
3736.381907904721
 30
0.0
 11
2641.087915064888
 21
3646.381907904721
 31
0.0
  0
SOLID
  5
B396
330
A9D0
100
AcDbEntity
  8
寸法引出
 48
25.0
100
AcDbTrace
 10
2636.087915064889
 20
3736.381907904721
 30
0.0
 11
2646.087915064889
 21
3736.381907904721
 31
0.0
 12
2641.087915064888
 22
3766.381907904721
 32
0.0
 13
2641.087915064888
 23
3766.381907904721
 33
0.0
  0
SOLID
  5
B397
330
A9D0
100
AcDbEntity
  8
寸法引出
 48
25.0
100
AcDbTrace
 10
2636.087915064889
 20
3646.381907904721
 30
0.0
 11
2646.087915064889
 21
3646.381907904721
 31
0.0
 12
2641.087915064888
 22
3616.381907904721
 32
0.0
 13
2641.087915064888
 23
3616.381907904721
 33
0.0
  0
MTEXT
  5
B398
330
A9D0
100
AcDbEntity
  8
寸法引出
 48
25.0
100
AcDbMText
 10
2601.087915064888
 20
3691.381907904721
 30
0.0
 40
40.0
 41
0.0
 71
     5
 72
     1
  1
\A1;150
  7
SANWA
 11
0.0000000000000001
 21
1.0
 31
0.0
 73
     1
 44
1.0
  0
POINT
  5
B399
330
A9D0
100
AcDbEntity
  8
DEFPOINTS
 62
     0
 48
25.0
100
AcDbPoint
 10
2727.993792760311
 20
3766.381907904721
 30
0.0
  0
POINT
  5
B39A
330
A9D0
100
AcDbEntity
  8
DEFPOINTS
 62
     0
 48
25.0
100
AcDbPoint
 10
2727.993792760311
 20
3616.381907904721
 30
0.0
  0
POINT
  5
B39B
330
A9D0
100
AcDbEntity
  8
DEFPOINTS
 62
     0
 48
25.0
100
AcDbPoint
 10
2641.087915064888
 20
3616.381907904721
 30
0.0
  0
ENDBLK
  5
A9DB
330
A9D0
100
AcDbEntity
  8
0
 48
25.0
100
AcDbBlockEnd
  0
BLOCK
  5
B658
330
B64F
100
AcDbEntity
  8
0
 48
25.0
100
AcDbBlockBegin
  2
*D44
 70
     1
 10
0.0
 20
0.0
 30
0.0
  3
*D44
  1

  0
LINE
  5
C3C9
330
B64F
100
AcDbEntity
  8
寸法引出
 48
25.0
370
    -2
100
AcDbLine
 10
5042.762131327725
 20
3786.381907904721
 30
0.0
 11
5042.762131327725
 21
3898.446434966673
 31
0.0
  0
LINE
  5
C3CA
330
B64F
100
AcDbEntity
  8
寸法引出
 48
25.0
370
    -2
100
AcDbLine
 10
4832.762131327725
 20
3888.446434966672
 30
0.0
 11
5012.762131327725
 21
3888.446434966672
 31
0.0
  0
SOLID
  5
C3CB
330
B64F
100
AcDbEntity
  8
寸法引出
 48
25.0
100
AcDbTrace
 10
4832.762131327725
 20
3893.446434966672
 30
0.0
 11
4832.762131327725
 21
3883.446434966673
 31
0.0
 12
4802.762131327725
 22
3888.446434966672
 32
0.0
 13
4802.762131327725
 23
3888.446434966672
 33
0.0
  0
SOLID
  5
C3CC
330
B64F
100
AcDbEntity
  8
寸法引出
 48
25.0
100
AcDbTrace
 10
5012.762131327725
 20
3893.446434966672
 30
0.0
 11
5012.762131327725
 21
3883.446434966673
 31
0.0
 12
5042.762131327725
 22
3888.446434966672
 32
0.0
 13
5042.762131327725
 23
3888.446434966672
 33
0.0
  0
MTEXT
  5
C3CD
330
B64F
100
AcDbEntity
  8
寸法引出
 48
25.0
100
AcDbMText
 10
4922.762131327726
 20
3928.446434966673
 30
0.0
 40
40.0
 41
0.0
 71
     5
 72
     1
  1
\A1;240
  7
SANWA
 73
     1
 44
1.0
  0
POINT
  5
C3CE
330
B64F
100
AcDbEntity
  8
DEFPOINTS
 62
     0
 48
25.0
100
AcDbPoint
 10
4802.762131327725
 20
3766.381907904721
 30
0.0
  0
POINT
  5
C3CF
330
B64F
100
AcDbEntity
  8
DEFPOINTS
 62
     0
 48
25.0
100
AcDbPoint
 10
5042.762131327725
 20
3766.381907904721
 30
0.0
  0
POINT
  5
C3D0
330
B64F
100
AcDbEntity
  8
DEFPOINTS
 62
     0
 48
25.0
100
AcDbPoint
 10
5042.762131327725
 20
3888.446434966672
 30
0.0
  0
ENDBLK
  5
B659
330
B64F
100
AcDbEntity
  8
0
 48
25.0
100
AcDbBlockEnd
  0
BLOCK
  5
B664
330
B65A
100
AcDbEntity
  8
0
 48
25.0
100
AcDbBlockBegin
  2
*D45
 70
     1
 10
0.0
 20
0.0
 30
0.0
  3
*D45
  1

  0
LINE
  5
C389
330
B65A
100
AcDbEntity
  8
寸法引出
 48
25.0
370
    -2
100
AcDbLine
 10
3922.762131327725
 20
2277.635917105981
 30
0.0
 11
3922.762131327725
 21
2346.955860364498
 31
0.0
  0
LINE
  5
C38A
330
B65A
100
AcDbEntity
  8
寸法引出
 48
25.0
370
    -2
100
AcDbLine
 10
5922.762131327726
 20
2277.635917105981
 30
0.0
 11
5922.762131327726
 21
2346.955860364498
 31
0.0
  0
LINE
  5
C38B
330
B65A
100
AcDbEntity
  8
寸法引出
 48
25.0
370
    -2
100
AcDbLine
 10
3952.762131327725
 20
2336.955860364498
 30
0.0
 11
5892.762131327724
 21
2336.955860364498
 31
0.0
  0
SOLID
  5
C38C
330
B65A
100
AcDbEntity
  8
寸法引出
 48
25.0
100
AcDbTrace
 10
3952.762131327725
 20
2341.955860364498
 30
0.0
 11
3952.762131327725
 21
2331.955860364498
 31
0.0
 12
3922.762131327725
 22
2336.955860364498
 32
0.0
 13
3922.762131327725
 23
2336.955860364498
 33
0.0
  0
SOLID
  5
C38D
330
B65A
100
AcDbEntity
  8
寸法引出
 48
25.0
100
AcDbTrace
 10
5892.762131327724
 20
2341.955860364498
 30
0.0
 11
5892.762131327724
 21
2331.955860364498
 31
0.0
 12
5922.762131327726
 22
2336.955860364498
 32
0.0
 13
5922.762131327726
 23
2336.955860364498
 33
0.0
  0
MTEXT
  5
C38E
330
B65A
100
AcDbEntity
  8
寸法引出
 48
25.0
100
AcDbMText
 10
4922.762131327726
 20
2376.955860364498
 30
0.0
 40
40.0
 41
0.0
 71
     5
 72
     1
  1
\A1;2000
  7
SANWA
 73
     1
 44
1.0
  0
POINT
  5
C38F
330
B65A
100
AcDbEntity
  8
DEFPOINTS
 62
     0
 48
25.0
100
AcDbPoint
 10
3922.762131327725
 20
2257.635917105981
 30
0.0
  0
POINT
  5
C390
330
B65A
100
AcDbEntity
  8
DEFPOINTS
 62
     0
 48
25.0
100
AcDbPoint
 10
5922.762131327726
 20
2257.635917105981
 30
0.0
  0
POINT
  5
C391
330
B65A
100
AcDbEntity
  8
DEFPOINTS
 62
     0
 48
25.0
100
AcDbPoint
 10
5922.762131327726
 20
2336.955860364498
 30
0.0
  0
ENDBLK
  5
B665
330
B65A
100
AcDbEntity
  8
0
 48
25.0
100
AcDbBlockEnd
  0
BLOCK
  5
B670
330
B666
100
AcDbEntity
  8
0
 48
25.0
100
AcDbBlockBegin
  2
*D46
 70
     1
 10
0.0
 20
0.0
 30
0.0
  3
*D46
  1

  0
LINE
  5
C32D
330
B666
100
AcDbEntity
  8
寸法引出
 48
25.0
370
    -2
100
AcDbLine
 10
3902.762131327725
 20
2257.635917105981
 30
0.0
 11
3670.542675772407
 21
2257.635917105981
 31
0.0
  0
LINE
  5
C32E
330
B666
100
AcDbEntity
  8
寸法引出
 48
25.0
370
    -2
100
AcDbLine
 10
3902.762131327725
 20
1857.635917105981
 30
0.0
 11
3670.542675772407
 21
1857.635917105981
 31
0.0
  0
LINE
  5
C32F
330
B666
100
AcDbEntity
  8
寸法引出
 48
25.0
370
    -2
100
AcDbLine
 10
3680.542675772407
 20
2227.635917105981
 30
0.0
 11
3680.542675772407
 21
1887.635917105981
 31
0.0
  0
SOLID
  5
C330
330
B666
100
AcDbEntity
  8
寸法引出
 48
25.0
100
AcDbTrace
 10
3675.542675772407
 20
2227.635917105981
 30
0.0
 11
3685.542675772407
 21
2227.635917105981
 31
0.0
 12
3680.542675772407
 22
2257.635917105981
 32
0.0
 13
3680.542675772407
 23
2257.635917105981
 33
0.0
  0
SOLID
  5
C331
330
B666
100
AcDbEntity
  8
寸法引出
 48
25.0
100
AcDbTrace
 10
3675.542675772407
 20
1887.635917105981
 30
0.0
 11
3685.542675772407
 21
1887.635917105981
 31
0.0
 12
3680.542675772407
 22
1857.635917105981
 32
0.0
 13
3680.542675772407
 23
1857.635917105981
 33
0.0
  0
MTEXT
  5
C332
330
B666
100
AcDbEntity
  8
寸法引出
 48
25.0
100
AcDbMText
 10
3640.542675772406
 20
2057.635917105983
 30
0.0
 40
40.0
 41
0.0
 71
     5
 72
     1
  1
\A1;400
  7
SANWA
 11
0.0000000000000001
 21
1.0
 31
0.0
 73
     1
 44
1.0
  0
POINT
  5
C333
330
B666
100
AcDbEntity
  8
DEFPOINTS
 62
     0
 48
25.0
100
AcDbPoint
 10
3922.762131327725
 20
2257.635917105981
 30
0.0
  0
POINT
  5
C334
330
B666
100
AcDbEntity
  8
DEFPOINTS
 62
     0
 48
25.0
100
AcDbPoint
 10
3922.762131327725
 20
1857.635917105981
 30
0.0
  0
POINT
  5
C335
330
B666
100
AcDbEntity
  8
DEFPOINTS
 62
     0
 48
25.0
100
AcDbPoint
 10
3680.542675772407
 20
1857.635917105981
 30
0.0
  0
ENDBLK
  5
B671
330
B666
100
AcDbEntity
  8
0
 48
25.0
100
AcDbBlockEnd
  0
BLOCK
  5
B67D
330
B672
100
AcDbEntity
  8
0
 48
25.0
100
AcDbBlockBegin
  2
*D47
 70
     1
 10
0.0
 20
0.0
 30
0.0
  3
*D47
  1

  0
LINE
  5
C31A
330
B672
100
AcDbEntity
  8
寸法引出
 48
25.0
370
    -2
100
AcDbLine
 10
2091.101880824064
 20
3786.381907904721
 30
0.0
 11
2091.101880824064
 21
3878.81961767761
 31
0.0
  0
LINE
  5
C31B
330
B672
100
AcDbEntity
  8
寸法引出
 48
25.0
370
    -2
100
AcDbLine
 10
2171.101880824064
 20
3868.819617677609
 30
0.0
 11
2201.101880824064
 21
3868.819617677609
 31
0.0
  0
LINE
  5
C31C
330
B672
100
AcDbEntity
  8
寸法引出
 48
25.0
370
    -2
100
AcDbLine
 10
2061.101880824064
 20
3868.819617677609
 30
0.0
 11
2031.101880824064
 21
3868.819617677609
 31
0.0
  0
LINE
  5
C31D
330
B672
100
AcDbEntity
  8
寸法引出
 48
25.0
370
    -2
100
AcDbLine
 10
2141.101880824064
 20
3868.819617677609
 30
0.0
 11
2091.101880824064
 21
3868.819617677609
 31
0.0
  0
SOLID
  5
C31E
330
B672
100
AcDbEntity
  8
寸法引出
 48
25.0
100
AcDbTrace
 10
2171.101880824064
 20
3873.819617677609
 30
0.0
 11
2171.101880824064
 21
3863.819617677609
 31
0.0
 12
2141.101880824064
 22
3868.819617677609
 32
0.0
 13
2141.101880824064
 23
3868.819617677609
 33
0.0
  0
SOLID
  5
C31F
330
B672
100
AcDbEntity
  8
寸法引出
 48
25.0
100
AcDbTrace
 10
2061.101880824064
 20
3873.819617677609
 30
0.0
 11
2061.101880824064
 21
3863.819617677609
 31
0.0
 12
2091.101880824064
 22
3868.819617677609
 32
0.0
 13
2091.101880824064
 23
3868.819617677609
 33
0.0
  0
MTEXT
  5
C320
330
B672
100
AcDbEntity
  8
寸法引出
 48
25.0
100
AcDbMText
 10
2116.101880824064
 20
3908.819617677609
 30
0.0
 40
40.0
 41
0.0
 71
     5
 72
     1
  1
\A1;50
  7
SANWA
 73
     1
 44
1.0
  0
POINT
  5
C321
330
B672
100
AcDbEntity
  8
DEFPOINTS
 62
     0
 48
25.0
100
AcDbPoint
 10
2141.101880824064
 20
3766.381907904721
 30
0.0
  0
POINT
  5
C322
330
B672
100
AcDbEntity
  8
DEFPOINTS
 62
     0
 48
25.0
100
AcDbPoint
 10
2091.101880824064
 20
3766.381907904721
 30
0.0
  0
POINT
  5
C323
330
B672
100
AcDbEntity
  8
DEFPOINTS
 62
     0
 48
25.0
100
AcDbPoint
 10
2091.101880824064
 20
3868.819617677609
 30
0.0
  0
ENDBLK
  5
B67E
330
B672
100
AcDbEntity
  8
0
 48
25.0
100
AcDbBlockEnd
  0
BLOCK
  5
B68A
330
B67F
100
AcDbEntity
  8
0
 48
25.0
100
AcDbBlockBegin
  2
*D48
 70
     1
 10
0.0
 20
0.0
 30
0.0
  3
*D48
  1

  0
LINE
  5
C2E8
330
B67F
100
AcDbEntity
  8
寸法引出
 48
25.0
370
    -2
100
AcDbLine
 10
2091.101880824064
 20
3096.381907904721
 30
0.0
 11
2091.101880824064
 21
2845.03214736155
 31
0.0
  0
LINE
  5
C2E9
330
B67F
100
AcDbEntity
  8
寸法引出
 48
25.0
370
    -2
100
AcDbLine
 10
2201.101880824064
 20
2855.03214736155
 30
0.0
 11
2231.101880824064
 21
2855.03214736155
 31
0.0
  0
LINE
  5
C2EA
330
B67F
100
AcDbEntity
  8
寸法引出
 48
25.0
370
    -2
100
AcDbLine
 10
2061.101880824064
 20
2855.03214736155
 30
0.0
 11
2031.101880824064
 21
2855.03214736155
 31
0.0
  0
LINE
  5
C2EB
330
B67F
100
AcDbEntity
  8
寸法引出
 48
25.0
370
    -2
100
AcDbLine
 10
2171.101880824064
 20
2855.03214736155
 30
0.0
 11
2091.101880824064
 21
2855.03214736155
 31
0.0
  0
SOLID
  5
C2EC
330
B67F
100
AcDbEntity
  8
寸法引出
 48
25.0
100
AcDbTrace
 10
2201.101880824064
 20
2860.03214736155
 30
0.0
 11
2201.101880824064
 21
2850.03214736155
 31
0.0
 12
2171.101880824064
 22
2855.03214736155
 32
0.0
 13
2171.101880824064
 23
2855.03214736155
 33
0.0
  0
SOLID
  5
C2ED
330
B67F
100
AcDbEntity
  8
寸法引出
 48
25.0
100
AcDbTrace
 10
2061.101880824064
 20
2860.03214736155
 30
0.0
 11
2061.101880824064
 21
2850.03214736155
 31
0.0
 12
2091.101880824064
 22
2855.03214736155
 32
0.0
 13
2091.101880824064
 23
2855.03214736155
 33
0.0
  0
MTEXT
  5
C2EE
330
B67F
100
AcDbEntity
  8
寸法引出
 48
25.0
100
AcDbMText
 10
2131.101880824064
 20
2895.03214736155
 30
0.0
 40
40.0
 41
0.0
 71
     5
 72
     1
  1
\A1;80
  7
SANWA
 73
     1
 44
1.0
  0
POINT
  5
C2EF
330
B67F
100
AcDbEntity
  8
DEFPOINTS
 62
     0
 48
25.0
100
AcDbPoint
 10
2171.101880824064
 20
3086.381907904721
 30
0.0
  0
POINT
  5
C2F0
330
B67F
100
AcDbEntity
  8
DEFPOINTS
 62
     0
 48
25.0
100
AcDbPoint
 10
2091.101880824064
 20
3116.381907904721
 30
0.0
  0
POINT
  5
C2F1
330
B67F
100
AcDbEntity
  8
DEFPOINTS
 62
     0
 48
25.0
100
AcDbPoint
 10
2091.101880824064
 20
2855.03214736155
 30
0.0
  0
ENDBLK
  5
B68B
330
B67F
100
AcDbEntity
  8
0
 48
25.0
100
AcDbBlockEnd
  0
BLOCK
  5
B696
330
B68C
100
AcDbEntity
  8
0
 48
25.0
100
AcDbBlockBegin
  2
*D49
 70
     1
 10
0.0
 20
0.0
 30
0.0
  3
*D49
  1

  0
LINE
  5
C2C3
330
B68C
100
AcDbEntity
  8
寸法引出
 48
25.0
370
    -2
100
AcDbLine
 10
2071.101880824064
 20
3766.381907904721
 30
0.0
 11
1837.441026915019
 21
3766.381907904721
 31
0.0
  0
LINE
  5
C2C4
330
B68C
100
AcDbEntity
  8
寸法引出
 48
25.0
370
    -2
100
AcDbLine
 10
2101.101880824064
 20
3086.381907904721
 30
0.0
 11
1837.441026915019
 21
3086.381907904721
 31
0.0
  0
LINE
  5
C2C5
330
B68C
100
AcDbEntity
  8
寸法引出
 48
25.0
370
    -2
100
AcDbLine
 10
1847.441026915019
 20
3736.381907904721
 30
0.0
 11
1847.441026915019
 21
3116.381907904721
 31
0.0
  0
SOLID
  5
C2C6
330
B68C
100
AcDbEntity
  8
寸法引出
 48
25.0
100
AcDbTrace
 10
1842.441026915019
 20
3736.381907904721
 30
0.0
 11
1852.441026915019
 21
3736.381907904721
 31
0.0
 12
1847.441026915019
 22
3766.381907904721
 32
0.0
 13
1847.441026915019
 23
3766.381907904721
 33
0.0
  0
SOLID
  5
C2C7
330
B68C
100
AcDbEntity
  8
寸法引出
 48
25.0
100
AcDbTrace
 10
1842.441026915019
 20
3116.381907904721
 30
0.0
 11
1852.441026915019
 21
3116.381907904721
 31
0.0
 12
1847.441026915019
 22
3086.381907904721
 32
0.0
 13
1847.441026915019
 23
3086.381907904721
 33
0.0
  0
MTEXT
  5
C2C8
330
B68C
100
AcDbEntity
  8
寸法引出
 48
25.0
100
AcDbMText
 10
1807.441026915018
 20
3426.381907904721
 30
0.0
 40
40.0
 41
0.0
 71
     5
 72
     1
  1
\A1;680
  7
SANWA
 11
0.0000000000000001
 21
1.0
 31
0.0
 73
     1
 44
1.0
  0
POINT
  5
C2C9
330
B68C
100
AcDbEntity
  8
DEFPOINTS
 62
     0
 48
25.0
100
AcDbPoint
 10
2091.101880824064
 20
3766.381907904721
 30
0.0
  0
POINT
  5
C2CA
330
B68C
100
AcDbEntity
  8
DEFPOINTS
 62
     0
 48
25.0
100
AcDbPoint
 10
2121.101880824064
 20
3086.381907904721
 30
0.0
  0
POINT
  5
C2CB
330
B68C
100
AcDbEntity
  8
DEFPOINTS
 62
     0
 48
25.0
100
AcDbPoint
 10
1847.441026915019
 20
3086.381907904721
 30
0.0
  0
ENDBLK
  5
B697
330
B68C
100
AcDbEntity
  8
0
 48
25.0
100
AcDbBlockEnd
  0
BLOCK
  5
B6A4
330
B698
100
AcDbEntity
  8
0
 48
25.0
100
AcDbBlockBegin
  2
*D50
 70
     1
 10
0.0
 20
0.0
 30
0.0
  3
*D50
  1

  0
LINE
  5
C2F2
330
B698
100
AcDbEntity
  8
寸法引出
 48
25.0
370
    -2
100
AcDbLine
 10
2076.959745200333
 20
3130.524043528451
 30
0.0
 11
2010.146179113514
 21
3197.337609615276
 31
0.0
  0
LINE
  5
C2F3
330
B698
100
AcDbEntity
  8
寸法引出
 48
25.0
370
    -2
100
AcDbLine
 10
2101.101880824061
 20
3086.381907904721
 30
0.0
 11
1964.186822642376
 21
3086.381907904721
 31
0.0
  0
ARC
  5
C2F4
330
B698
100
AcDbEntity
  8
寸法引出
 48
25.0
370
    -2
100
AcDbCircle
 10
2121.101880824062
 20
3086.381907904721
 30
0.0
 40
146.9150581816851
100
AcDbArc
 50
146.7201998606362
 51
168.2798001393619
  0
SOLID
  5
C2F5
330
B698
100
AcDbEntity
  8
寸法引出
 48
25.0
100
AcDbTrace
 10
1994.402729298317
 20
3170.154411497436
 30
0.0
 11
2002.158799539555
 21
3163.842250661955
 31
0.0
 12
2017.217246925379
 22
3190.26654180341
 32
0.0
 13
2017.217246925379
 23
3190.26654180341
 33
0.0
  0
SOLID
  5
C2F6
330
B698
100
AcDbEntity
  8
寸法引出
 48
25.0
100
AcDbTrace
 10
1982.223687835891
 20
3115.714633619548
 30
0.0
 11
1972.275946242243
 21
3116.735631751778
 31
0.0
 12
1974.186822642376
 22
3086.381907904721
 32
0.0
 13
1974.186822642376
 23
3086.381907904721
 33
0.0
  0
MTEXT
  5
C2F7
330
B698
100
AcDbEntity
  8
寸法引出
 48
25.0
100
AcDbMText
 10
1965.492578397902
 20
3189.933749865677
 30
0.0
 40
40.0
 41
0.0
 71
     5
 72
     1
  1
\A1;45°
  7
SANWA
 11
0.5540048135677836
 21
0.83251346328076
 31
0.0
 73
     1
 44
1.0
  0
POINT
  5
C2F8
330
B698
100
AcDbEntity
  8
DEFPOINTS
 62
     0
 48
25.0
100
AcDbPoint
 10
1979.192831855611
 20
3124.406322974487
 30
0.0
  0
POINT
  5
C2F9
330
B698
100
AcDbEntity
  8
DEFPOINTS
 62
     0
 48
25.0
100
AcDbPoint
 10
2091.101880824064
 20
3116.38190790472
 30
0.0
  0
POINT
  5
C2FA
330
B698
100
AcDbEntity
  8
DEFPOINTS
 62
     0
 48
25.0
100
AcDbPoint
 10
2461.101880824064
 20
3086.381907904721
 30
0.0
  0
POINT
  5
C2FB
330
B698
100
AcDbEntity
  8
DEFPOINTS
 62
     0
 48
25.0
100
AcDbPoint
 10
2121.101880824063
 20
3086.381907904721
 30
0.0
  0
POINT
  5
C2FC
330
B698
100
AcDbEntity
  8
DEFPOINTS
 62
     0
 48
25.0
100
AcDbPoint
 10
2121.101880824062
 20
3086.38190790472
 30
0.0
  0
ENDBLK
  5
B6A5
330
B698
100
AcDbEntity
  8
0
 48
25.0
100
AcDbBlockEnd
  0
BLOCK
  5
B6B0
330
B6A6
100
AcDbEntity
  8
0
 48
25.0
100
AcDbBlockBegin
  2
*D51
 70
     1
 10
0.0
 20
0.0
 30
0.0
  3
*D51
  1

  0
LINE
  5
C3A4
330
B6A6
100
AcDbEntity
  8
寸法引出
 48
25.0
370
    -2
100
AcDbLine
 10
3902.762131327725
 20
3766.381907904721
 30
0.0
 11
3670.542675772407
 21
3766.381907904721
 31
0.0
  0
LINE
  5
C3A5
330
B6A6
100
AcDbEntity
  8
寸法引出
 48
25.0
370
    -2
100
AcDbLine
 10
3912.762131327725
 20
3086.381907904721
 30
0.0
 11
3670.542675772407
 21
3086.381907904721
 31
0.0
  0
LINE
  5
C3A6
330
B6A6
100
AcDbEntity
  8
寸法引出
 48
25.0
370
    -2
100
AcDbLine
 10
3680.542675772407
 20
3736.381907904721
 30
0.0
 11
3680.542675772407
 21
3116.381907904721
 31
0.0
  0
SOLID
  5
C3A7
330
B6A6
100
AcDbEntity
  8
寸法引出
 48
25.0
100
AcDbTrace
 10
3675.542675772407
 20
3736.381907904721
 30
0.0
 11
3685.542675772407
 21
3736.381907904721
 31
0.0
 12
3680.542675772407
 22
3766.381907904721
 32
0.0
 13
3680.542675772407
 23
3766.381907904721
 33
0.0
  0
SOLID
  5
C3A8
330
B6A6
100
AcDbEntity
  8
寸法引出
 48
25.0
100
AcDbTrace
 10
3675.542675772407
 20
3116.381907904721
 30
0.0
 11
3685.542675772407
 21
3116.381907904721
 31
0.0
 12
3680.542675772407
 22
3086.381907904721
 32
0.0
 13
3680.542675772407
 23
3086.381907904721
 33
0.0
  0
MTEXT
  5
C3A9
330
B6A6
100
AcDbEntity
  8
寸法引出
 48
25.0
100
AcDbMText
 10
3640.542675772406
 20
3426.381907904722
 30
0.0
 40
40.0
 41
0.0
 71
     5
 72
     1
  1
\A1;680
  7
SANWA
 11
0.0000000000000001
 21
1.0
 31
0.0
 73
     1
 44
1.0
  0
POINT
  5
C3AA
330
B6A6
100
AcDbEntity
  8
DEFPOINTS
 62
     0
 48
25.0
100
AcDbPoint
 10
3922.762131327725
 20
3766.381907904721
 30
0.0
  0
POINT
  5
C3AB
330
B6A6
100
AcDbEntity
  8
DEFPOINTS
 62
     0
 48
25.0
100
AcDbPoint
 10
3932.762131327725
 20
3086.381907904721
 30
0.0
  0
POINT
  5
C3AC
330
B6A6
100
AcDbEntity
  8
DEFPOINTS
 62
     0
 48
25.0
100
AcDbPoint
 10
3680.542675772407
 20
3086.381907904721
 30
0.0
  0
ENDBLK
  5
B6B1
330
B6A6
100
AcDbEntity
  8
0
 48
25.0
100
AcDbBlockEnd
  0
BLOCK
  5
B6BC
330
B6B2
100
AcDbEntity
  8
0
 48
25.0
100
AcDbBlockBegin
  2
*D52
 70
     1
 10
0.0
 20
0.0
 30
0.0
  3
*D52
  1

  0
LINE
  5
C2BA
330
B6B2
100
AcDbEntity
  8
寸法引出
 48
25.0
370
    -2
100
AcDbLine
 10
2511.101880824064
 20
3766.381907904721
 30
0.0
 11
2778.575716326906
 21
3766.381907904721
 31
0.0
  0
LINE
  5
C2BB
330
B6B2
100
AcDbEntity
  8
寸法引出
 48
25.0
370
    -2
100
AcDbLine
 10
2511.101880824064
 20
3166.381907904721
 30
0.0
 11
2778.575716326906
 21
3166.381907904721
 31
0.0
  0
LINE
  5
C2BC
330
B6B2
100
AcDbEntity
  8
寸法引出
 48
25.0
370
    -2
100
AcDbLine
 10
2768.575716326906
 20
3736.381907904721
 30
0.0
 11
2768.575716326906
 21
3196.381907904721
 31
0.0
  0
SOLID
  5
C2BD
330
B6B2
100
AcDbEntity
  8
寸法引出
 48
25.0
100
AcDbTrace
 10
2763.575716326906
 20
3736.381907904721
 30
0.0
 11
2773.575716326906
 21
3736.381907904721
 31
0.0
 12
2768.575716326906
 22
3766.381907904721
 32
0.0
 13
2768.575716326906
 23
3766.381907904721
 33
0.0
  0
SOLID
  5
C2BE
330
B6B2
100
AcDbEntity
  8
寸法引出
 48
25.0
100
AcDbTrace
 10
2763.575716326906
 20
3196.381907904721
 30
0.0
 11
2773.575716326906
 21
3196.381907904721
 31
0.0
 12
2768.575716326906
 22
3166.381907904721
 32
0.0
 13
2768.575716326906
 23
3166.381907904721
 33
0.0
  0
MTEXT
  5
C2BF
330
B6B2
100
AcDbEntity
  8
寸法引出
 48
25.0
100
AcDbMText
 10
2728.575716326905
 20
3466.381907904721
 30
0.0
 40
40.0
 41
0.0
 71
     5
 72
     1
  1
\A1;600
  7
SANWA
 11
0.0000000000000001
 21
1.0
 31
0.0
 73
     1
 44
1.0
  0
POINT
  5
C2C0
330
B6B2
100
AcDbEntity
  8
DEFPOINTS
 62
     0
 48
25.0
100
AcDbPoint
 10
2491.101880824064
 20
3766.381907904721
 30
0.0
  0
POINT
  5
C2C1
330
B6B2
100
AcDbEntity
  8
DEFPOINTS
 62
     0
 48
25.0
100
AcDbPoint
 10
2491.101880824064
 20
3166.381907904721
 30
0.0
  0
POINT
  5
C2C2
330
B6B2
100
AcDbEntity
  8
DEFPOINTS
 62
     0
 48
25.0
100
AcDbPoint
 10
2768.575716326906
 20
3166.381907904721
 30
0.0
  0
ENDBLK
  5
B6BD
330
B6B2
100
AcDbEntity
  8
0
 48
25.0
100
AcDbBlockEnd
  0
BLOCK
  5
B6C9
330
B6BE
100
AcDbEntity
  8
0
 48
25.0
100
AcDbBlockBegin
  2
*D53
 70
     1
 10
0.0
 20
0.0
 30
0.0
  3
*D53
  1

  0
LINE
  5
C2FD
330
B6BE
100
AcDbEntity
  8
寸法引出
 48
25.0
370
    -2
100
AcDbLine
 10
2481.101880824064
 20
3086.381907904721
 30
0.0
 11
2778.575716326906
 21
3086.381907904721
 31
0.0
  0
LINE
  5
C2FE
330
B6BE
100
AcDbEntity
  8
寸法引出
 48
25.0
370
    -2
100
AcDbLine
 10
2768.575716326906
 20
3196.381907904721
 30
0.0
 11
2768.575716326906
 21
3226.381907904721
 31
0.0
  0
LINE
  5
C2FF
330
B6BE
100
AcDbEntity
  8
寸法引出
 48
25.0
370
    -2
100
AcDbLine
 10
2768.575716326906
 20
3056.381907904721
 30
0.0
 11
2768.575716326906
 21
3026.381907904721
 31
0.0
  0
LINE
  5
C300
330
B6BE
100
AcDbEntity
  8
寸法引出
 48
25.0
370
    -2
100
AcDbLine
 10
2768.575716326906
 20
3166.381907904721
 30
0.0
 11
2768.575716326906
 21
3086.381907904721
 31
0.0
  0
SOLID
  5
C301
330
B6BE
100
AcDbEntity
  8
寸法引出
 48
25.0
100
AcDbTrace
 10
2763.575716326906
 20
3196.381907904721
 30
0.0
 11
2773.575716326906
 21
3196.381907904721
 31
0.0
 12
2768.575716326906
 22
3166.381907904721
 32
0.0
 13
2768.575716326906
 23
3166.381907904721
 33
0.0
  0
SOLID
  5
C302
330
B6BE
100
AcDbEntity
  8
寸法引出
 48
25.0
100
AcDbTrace
 10
2763.575716326906
 20
3056.381907904721
 30
0.0
 11
2773.575716326906
 21
3056.381907904721
 31
0.0
 12
2768.575716326906
 22
3086.381907904721
 32
0.0
 13
2768.575716326906
 23
3086.381907904721
 33
0.0
  0
MTEXT
  5
C303
330
B6BE
100
AcDbEntity
  8
寸法引出
 48
25.0
100
AcDbMText
 10
2728.575716326905
 20
3126.381907904721
 30
0.0
 40
40.0
 41
0.0
 71
     5
 72
     1
  1
\A1;80
  7
SANWA
 11
0.0000000000000001
 21
1.0
 31
0.0
 73
     1
 44
1.0
  0
POINT
  5
C304
330
B6BE
100
AcDbEntity
  8
DEFPOINTS
 62
     0
 48
25.0
100
AcDbPoint
 10
2491.101880824064
 20
3166.381907904721
 30
0.0
  0
POINT
  5
C305
330
B6BE
100
AcDbEntity
  8
DEFPOINTS
 62
     0
 48
25.0
100
AcDbPoint
 10
2461.101880824064
 20
3086.381907904721
 30
0.0
  0
POINT
  5
C306
330
B6BE
100
AcDbEntity
  8
DEFPOINTS
 62
     0
 48
25.0
100
AcDbPoint
 10
2768.575716326906
 20
3086.381907904721
 30
0.0
  0
ENDBLK
  5
B6CA
330
B6BE
100
AcDbEntity
  8
0
 48
25.0
100
AcDbBlockEnd
  0
BLOCK
  5
B6D5
330
B6CB
100
AcDbEntity
  8
0
 48
25.0
100
AcDbBlockBegin
  2
*D54
 70
     1
 10
0.0
 20
0.0
 30
0.0
  3
*D54
  1

  0
LINE
  5
C2D5
330
B6CB
100
AcDbEntity
  8
寸法引出
 48
25.0
370
    -2
100
AcDbLine
 10
2171.101880824064
 20
3066.381907904721
 30
0.0
 11
2171.101880824064
 21
2845.03214736155
 31
0.0
  0
LINE
  5
C2D6
330
B6CB
100
AcDbEntity
  8
寸法引出
 48
25.0
370
    -2
100
AcDbLine
 10
2411.101880824064
 20
3066.381907904721
 30
0.0
 11
2411.101880824064
 21
2845.03214736155
 31
0.0
  0
LINE
  5
C2D7
330
B6CB
100
AcDbEntity
  8
寸法引出
 48
25.0
370
    -2
100
AcDbLine
 10
2201.101880824064
 20
2855.03214736155
 30
0.0
 11
2381.101880824064
 21
2855.03214736155
 31
0.0
  0
SOLID
  5
C2D8
330
B6CB
100
AcDbEntity
  8
寸法引出
 48
25.0
100
AcDbTrace
 10
2201.101880824064
 20
2860.03214736155
 30
0.0
 11
2201.101880824064
 21
2850.03214736155
 31
0.0
 12
2171.101880824064
 22
2855.03214736155
 32
0.0
 13
2171.101880824064
 23
2855.03214736155
 33
0.0
  0
SOLID
  5
C2D9
330
B6CB
100
AcDbEntity
  8
寸法引出
 48
25.0
100
AcDbTrace
 10
2381.101880824064
 20
2860.03214736155
 30
0.0
 11
2381.101880824064
 21
2850.03214736155
 31
0.0
 12
2411.101880824064
 22
2855.03214736155
 32
0.0
 13
2411.101880824064
 23
2855.03214736155
 33
0.0
  0
MTEXT
  5
C2DA
330
B6CB
100
AcDbEntity
  8
寸法引出
 48
25.0
100
AcDbMText
 10
2291.101880824064
 20
2895.03214736155
 30
0.0
 40
40.0
 41
0.0
 71
     5
 72
     1
  1
\A1;240
  7
SANWA
 73
     1
 44
1.0
  0
POINT
  5
C2DB
330
B6CB
100
AcDbEntity
  8
DEFPOINTS
 62
     0
 48
25.0
100
AcDbPoint
 10
2171.101880824064
 20
3086.381907904721
 30
0.0
  0
POINT
  5
C2DC
330
B6CB
100
AcDbEntity
  8
DEFPOINTS
 62
     0
 48
25.0
100
AcDbPoint
 10
2411.101880824064
 20
3086.381907904721
 30
0.0
  0
POINT
  5
C2DD
330
B6CB
100
AcDbEntity
  8
DEFPOINTS
 62
     0
 48
25.0
100
AcDbPoint
 10
2411.101880824064
 20
2855.03214736155
 30
0.0
  0
ENDBLK
  5
B6D6
330
B6CB
100
AcDbEntity
  8
0
 48
25.0
100
AcDbBlockEnd
  0
BLOCK
  5
B6E2
330
B6D7
100
AcDbEntity
  8
0
 48
25.0
100
AcDbBlockBegin
  2
*D55
 70
     1
 10
0.0
 20
0.0
 30
0.0
  3
*D55
  1

  0
LINE
  5
C2DE
330
B6D7
100
AcDbEntity
  8
寸法引出
 48
25.0
370
    -2
100
AcDbLine
 10
2491.101880824064
 20
3096.381907904721
 30
0.0
 11
2491.101880824064
 21
2845.03214736155
 31
0.0
  0
LINE
  5
C2DF
330
B6D7
100
AcDbEntity
  8
寸法引出
 48
25.0
370
    -2
100
AcDbLine
 10
2381.101880824064
 20
2855.03214736155
 30
0.0
 11
2351.101880824064
 21
2855.03214736155
 31
0.0
  0
LINE
  5
C2E0
330
B6D7
100
AcDbEntity
  8
寸法引出
 48
25.0
370
    -2
100
AcDbLine
 10
2521.101880824064
 20
2855.03214736155
 30
0.0
 11
2551.101880824064
 21
2855.03214736155
 31
0.0
  0
LINE
  5
C2E1
330
B6D7
100
AcDbEntity
  8
寸法引出
 48
25.0
370
    -2
100
AcDbLine
 10
2411.101880824064
 20
2855.03214736155
 30
0.0
 11
2491.101880824064
 21
2855.03214736155
 31
0.0
  0
SOLID
  5
C2E2
330
B6D7
100
AcDbEntity
  8
寸法引出
 48
25.0
100
AcDbTrace
 10
2381.101880824064
 20
2860.03214736155
 30
0.0
 11
2381.101880824064
 21
2850.03214736155
 31
0.0
 12
2411.101880824064
 22
2855.03214736155
 32
0.0
 13
2411.101880824064
 23
2855.03214736155
 33
0.0
  0
SOLID
  5
C2E3
330
B6D7
100
AcDbEntity
  8
寸法引出
 48
25.0
100
AcDbTrace
 10
2521.101880824064
 20
2860.03214736155
 30
0.0
 11
2521.101880824064
 21
2850.03214736155
 31
0.0
 12
2491.101880824064
 22
2855.03214736155
 32
0.0
 13
2491.101880824064
 23
2855.03214736155
 33
0.0
  0
MTEXT
  5
C2E4
330
B6D7
100
AcDbEntity
  8
寸法引出
 48
25.0
100
AcDbMText
 10
2451.101880824064
 20
2895.03214736155
 30
0.0
 40
40.0
 41
0.0
 71
     5
 72
     1
  1
\A1;80
  7
SANWA
 73
     1
 44
1.0
  0
POINT
  5
C2E5
330
B6D7
100
AcDbEntity
  8
DEFPOINTS
 62
     0
 48
25.0
100
AcDbPoint
 10
2411.101880824064
 20
3086.381907904721
 30
0.0
  0
POINT
  5
C2E6
330
B6D7
100
AcDbEntity
  8
DEFPOINTS
 62
     0
 48
25.0
100
AcDbPoint
 10
2491.101880824064
 20
3116.381907904721
 30
0.0
  0
POINT
  5
C2E7
330
B6D7
100
AcDbEntity
  8
DEFPOINTS
 62
     0
 48
25.0
100
AcDbPoint
 10
2491.101880824064
 20
2855.03214736155
 30
0.0
  0
ENDBLK
  5
B6E3
330
B6D7
100
AcDbEntity
  8
0
 48
25.0
100
AcDbBlockEnd
  0
BLOCK
  5
B6EE
330
B6E4
100
AcDbEntity
  8
0
 48
25.0
100
AcDbBlockBegin
  2
*D56
 70
     1
 10
0.0
 20
0.0
 30
0.0
  3
*D56
  1

  0
LINE
  5
C324
330
B6E4
100
AcDbEntity
  8
寸法引出
 48
25.0
370
    -2
100
AcDbLine
 10
2141.101880824064
 20
3786.381907904721
 30
0.0
 11
2141.101880824064
 21
3878.81961767761
 31
0.0
  0
LINE
  5
C325
330
B6E4
100
AcDbEntity
  8
寸法引出
 48
25.0
370
    -2
100
AcDbLine
 10
2441.101880824064
 20
3786.381907904721
 30
0.0
 11
2441.101880824064
 21
3878.81961767761
 31
0.0
  0
LINE
  5
C326
330
B6E4
100
AcDbEntity
  8
寸法引出
 48
25.0
370
    -2
100
AcDbLine
 10
2171.101880824064
 20
3868.819617677609
 30
0.0
 11
2411.101880824064
 21
3868.819617677609
 31
0.0
  0
SOLID
  5
C327
330
B6E4
100
AcDbEntity
  8
寸法引出
 48
25.0
100
AcDbTrace
 10
2171.101880824064
 20
3873.819617677609
 30
0.0
 11
2171.101880824064
 21
3863.819617677609
 31
0.0
 12
2141.101880824064
 22
3868.819617677609
 32
0.0
 13
2141.101880824064
 23
3868.819617677609
 33
0.0
  0
SOLID
  5
C328
330
B6E4
100
AcDbEntity
  8
寸法引出
 48
25.0
100
AcDbTrace
 10
2411.101880824064
 20
3873.819617677609
 30
0.0
 11
2411.101880824064
 21
3863.819617677609
 31
0.0
 12
2441.101880824064
 22
3868.819617677609
 32
0.0
 13
2441.101880824064
 23
3868.819617677609
 33
0.0
  0
MTEXT
  5
C329
330
B6E4
100
AcDbEntity
  8
寸法引出
 48
25.0
100
AcDbMText
 10
2291.101880824064
 20
3908.819617677609
 30
0.0
 40
40.0
 41
0.0
 71
     5
 72
     1
  1
\A1;300
  7
SANWA
 73
     1
 44
1.0
  0
POINT
  5
C32A
330
B6E4
100
AcDbEntity
  8
DEFPOINTS
 62
     0
 48
25.0
100
AcDbPoint
 10
2141.101880824064
 20
3766.381907904721
 30
0.0
  0
POINT
  5
C32B
330
B6E4
100
AcDbEntity
  8
DEFPOINTS
 62
     0
 48
25.0
100
AcDbPoint
 10
2441.101880824064
 20
3766.381907904721
 30
0.0
  0
POINT
  5
C32C
330
B6E4
100
AcDbEntity
  8
DEFPOINTS
 62
     0
 48
25.0
100
AcDbPoint
 10
2441.101880824064
 20
3868.819617677609
 30
0.0
  0
ENDBLK
  5
B6EF
330
B6E4
100
AcDbEntity
  8
0
 48
25.0
100
AcDbBlockEnd
  0
BLOCK
  5
B6FB
330
B6F0
100
AcDbEntity
  8
0
 48
25.0
100
AcDbBlockBegin
  2
*D57
 70
     1
 10
0.0
 20
0.0
 30
0.0
  3
*D57
  1

  0
LINE
  5
C307
330
B6F0
100
AcDbEntity
  8
寸法引出
 48
25.0
370
    -2
100
AcDbLine
 10
2491.101880824064
 20
3786.381907904721
 30
0.0
 11
2491.101880824064
 21
3878.81961767761
 31
0.0
  0
LINE
  5
C308
330
B6F0
100
AcDbEntity
  8
寸法引出
 48
25.0
370
    -2
100
AcDbLine
 10
2411.101880824064
 20
3868.819617677609
 30
0.0
 11
2381.101880824064
 21
3868.819617677609
 31
0.0
  0
LINE
  5
C309
330
B6F0
100
AcDbEntity
  8
寸法引出
 48
25.0
370
    -2
100
AcDbLine
 10
2521.101880824064
 20
3868.819617677609
 30
0.0
 11
2551.101880824064
 21
3868.819617677609
 31
0.0
  0
LINE
  5
C30A
330
B6F0
100
AcDbEntity
  8
寸法引出
 48
25.0
370
    -2
100
AcDbLine
 10
2441.101880824064
 20
3868.819617677609
 30
0.0
 11
2491.101880824064
 21
3868.819617677609
 31
0.0
  0
SOLID
  5
C30B
330
B6F0
100
AcDbEntity
  8
寸法引出
 48
25.0
100
AcDbTrace
 10
2411.101880824064
 20
3873.819617677609
 30
0.0
 11
2411.101880824064
 21
3863.819617677609
 31
0.0
 12
2441.101880824064
 22
3868.819617677609
 32
0.0
 13
2441.101880824064
 23
3868.819617677609
 33
0.0
  0
SOLID
  5
C30C
330
B6F0
100
AcDbEntity
  8
寸法引出
 48
25.0
100
AcDbTrace
 10
2521.101880824064
 20
3873.819617677609
 30
0.0
 11
2521.101880824064
 21
3863.819617677609
 31
0.0
 12
2491.101880824064
 22
3868.819617677609
 32
0.0
 13
2491.101880824064
 23
3868.819617677609
 33
0.0
  0
MTEXT
  5
C30D
330
B6F0
100
AcDbEntity
  8
寸法引出
 48
25.0
100
AcDbMText
 10
2466.101880824064
 20
3908.819617677609
 30
0.0
 40
40.0
 41
0.0
 71
     5
 72
     1
  1
\A1;50
  7
SANWA
 73
     1
 44
1.0
  0
POINT
  5
C30E
330
B6F0
100
AcDbEntity
  8
DEFPOINTS
 62
     0
 48
25.0
100
AcDbPoint
 10
2441.101880824064
 20
3766.381907904721
 30
0.0
  0
POINT
  5
C30F
330
B6F0
100
AcDbEntity
  8
DEFPOINTS
 62
     0
 48
25.0
100
AcDbPoint
 10
2491.101880824064
 20
3766.381907904721
 30
0.0
  0
POINT
  5
C310
330
B6F0
100
AcDbEntity
  8
DEFPOINTS
 62
     0
 48
25.0
100
AcDbPoint
 10
2491.101880824064
 20
3868.819617677609
 30
0.0
  0
ENDBLK
  5
B6FC
330
B6F0
100
AcDbEntity
  8
0
 48
25.0
100
AcDbBlockEnd
  0
BLOCK
  5
B707
330
B6FD
100
AcDbEntity
  8
0
 48
25.0
100
AcDbBlockBegin
  2
*D58
 70
     1
 10
0.0
 20
0.0
 30
0.0
  3
*D58
  1

  0
LINE
  5
C311
330
B6FD
100
AcDbEntity
  8
寸法引出
 48
25.0
370
    -2
100
AcDbLine
 10
2091.101880824064
 20
3786.381907904721
 30
0.0
 11
2091.101880824064
 21
3967.128094517928
 31
0.0
  0
LINE
  5
C312
330
B6FD
100
AcDbEntity
  8
寸法引出
 48
25.0
370
    -2
100
AcDbLine
 10
2491.101880824064
 20
3786.381907904721
 30
0.0
 11
2491.101880824064
 21
3967.128094517928
 31
0.0
  0
LINE
  5
C313
330
B6FD
100
AcDbEntity
  8
寸法引出
 48
25.0
370
    -2
100
AcDbLine
 10
2121.101880824064
 20
3957.128094517928
 30
0.0
 11
2461.101880824064
 21
3957.128094517928
 31
0.0
  0
SOLID
  5
C314
330
B6FD
100
AcDbEntity
  8
寸法引出
 48
25.0
100
AcDbTrace
 10
2121.101880824064
 20
3962.128094517929
 30
0.0
 11
2121.101880824064
 21
3952.128094517928
 31
0.0
 12
2091.101880824064
 22
3957.128094517928
 32
0.0
 13
2091.101880824064
 23
3957.128094517928
 33
0.0
  0
SOLID
  5
C315
330
B6FD
100
AcDbEntity
  8
寸法引出
 48
25.0
100
AcDbTrace
 10
2461.101880824064
 20
3962.128094517929
 30
0.0
 11
2461.101880824064
 21
3952.128094517928
 31
0.0
 12
2491.101880824064
 22
3957.128094517928
 32
0.0
 13
2491.101880824064
 23
3957.128094517928
 33
0.0
  0
MTEXT
  5
C316
330
B6FD
100
AcDbEntity
  8
寸法引出
 48
25.0
100
AcDbMText
 10
2291.101880824064
 20
3997.128094517928
 30
0.0
 40
40.0
 41
0.0
 71
     5
 72
     1
  1
\A1;400
  7
SANWA
 73
     1
 44
1.0
  0
POINT
  5
C317
330
B6FD
100
AcDbEntity
  8
DEFPOINTS
 62
     0
 48
25.0
100
AcDbPoint
 10
2091.101880824064
 20
3766.381907904721
 30
0.0
  0
POINT
  5
C318
330
B6FD
100
AcDbEntity
  8
DEFPOINTS
 62
     0
 48
25.0
100
AcDbPoint
 10
2491.101880824064
 20
3766.381907904721
 30
0.0
  0
POINT
  5
C319
330
B6FD
100
AcDbEntity
  8
DEFPOINTS
 62
     0
 48
25.0
100
AcDbPoint
 10
2491.101880824064
 20
3957.128094517928
 30
0.0
  0
ENDBLK
  5
B708
330
B6FD
100
AcDbEntity
  8
0
 48
25.0
100
AcDbBlockEnd
  0
BLOCK
  5
B712
330
B709
100
AcDbEntity
  8
0
 48
25.0
100
AcDbBlockBegin
  2
*D59
 70
     1
 10
0.0
 20
0.0
 30
0.0
  3
*D59
  1

  0
LINE
  5
C3B8
330
B709
100
AcDbEntity
  8
寸法引出
 48
25.0
370
    -2
100
AcDbLine
 10
4802.762131327725
 20
3786.381907904721
 30
0.0
 11
4802.762131327725
 21
3898.446434966673
 31
0.0
  0
LINE
  5
C3B9
330
B709
100
AcDbEntity
  8
寸法引出
 48
25.0
370
    -2
100
AcDbLine
 10
4072.762131327725
 20
3888.446434966672
 30
0.0
 11
4772.762131327725
 21
3888.446434966672
 31
0.0
  0
SOLID
  5
C3BA
330
B709
100
AcDbEntity
  8
寸法引出
 48
25.0
100
AcDbTrace
 10
4072.762131327725
 20
3893.446434966672
 30
0.0
 11
4072.762131327725
 21
3883.446434966673
 31
0.0
 12
4042.762131327725
 22
3888.446434966672
 32
0.0
 13
4042.762131327725
 23
3888.446434966672
 33
0.0
  0
SOLID
  5
C3BB
330
B709
100
AcDbEntity
  8
寸法引出
 48
25.0
100
AcDbTrace
 10
4772.762131327725
 20
3893.446434966672
 30
0.0
 11
4772.762131327725
 21
3883.446434966673
 31
0.0
 12
4802.762131327725
 22
3888.446434966672
 32
0.0
 13
4802.762131327725
 23
3888.446434966672
 33
0.0
  0
MTEXT
  5
C3BC
330
B709
100
AcDbEntity
  8
寸法引出
 48
25.0
100
AcDbMText
 10
4422.762131327725
 20
3928.446434966673
 30
0.0
 40
40.0
 41
0.0
 71
     5
 72
     1
  1
\A1;760
  7
SANWA
 73
     1
 44
1.0
  0
POINT
  5
C3BD
330
B709
100
AcDbEntity
  8
DEFPOINTS
 62
     0
 48
25.0
100
AcDbPoint
 10
4042.762131327725
 20
3766.381907904721
 30
0.0
  0
POINT
  5
C3BE
330
B709
100
AcDbEntity
  8
DEFPOINTS
 62
     0
 48
25.0
100
AcDbPoint
 10
4802.762131327725
 20
3766.381907904721
 30
0.0
  0
POINT
  5
C3BF
330
B709
100
AcDbEntity
  8
DEFPOINTS
 62
     0
 48
25.0
100
AcDbPoint
 10
4802.762131327725
 20
3888.446434966672
 30
0.0
  0
ENDBLK
  5
B713
330
B709
100
AcDbEntity
  8
0
 48
25.0
100
AcDbBlockEnd
  0
BLOCK
  5
B71E
330
B714
100
AcDbEntity
  8
0
 48
25.0
100
AcDbBlockBegin
  2
*D60
 70
     1
 10
0.0
 20
0.0
 30
0.0
  3
*D60
  1

  0
LINE
  5
C3C0
330
B714
100
AcDbEntity
  8
寸法引出
 48
25.0
370
    -2
100
AcDbLine
 10
3922.762131327725
 20
3786.381907904721
 30
0.0
 11
3922.762131327725
 21
3898.446434966673
 31
0.0
  0
LINE
  5
C3C1
330
B714
100
AcDbEntity
  8
寸法引出
 48
25.0
370
    -2
100
AcDbLine
 10
4042.762131327725
 20
3786.381907904721
 30
0.0
 11
4042.762131327725
 21
3898.446434966673
 31
0.0
  0
LINE
  5
C3C2
330
B714
100
AcDbEntity
  8
寸法引出
 48
25.0
370
    -2
100
AcDbLine
 10
3952.762131327725
 20
3888.446434966672
 30
0.0
 11
4012.762131327725
 21
3888.446434966672
 31
0.0
  0
SOLID
  5
C3C3
330
B714
100
AcDbEntity
  8
寸法引出
 48
25.0
100
AcDbTrace
 10
3952.762131327725
 20
3893.446434966672
 30
0.0
 11
3952.762131327725
 21
3883.446434966673
 31
0.0
 12
3922.762131327725
 22
3888.446434966672
 32
0.0
 13
3922.762131327725
 23
3888.446434966672
 33
0.0
  0
SOLID
  5
C3C4
330
B714
100
AcDbEntity
  8
寸法引出
 48
25.0
100
AcDbTrace
 10
4012.762131327725
 20
3893.446434966672
 30
0.0
 11
4012.762131327725
 21
3883.446434966673
 31
0.0
 12
4042.762131327725
 22
3888.446434966672
 32
0.0
 13
4042.762131327725
 23
3888.446434966672
 33
0.0
  0
MTEXT
  5
C3C5
330
B714
100
AcDbEntity
  8
寸法引出
 48
25.0
100
AcDbMText
 10
3982.762131327724
 20
3928.446434966673
 30
0.0
 40
40.0
 41
0.0
 71
     5
 72
     1
  1
\A1;120
  7
SANWA
 73
     1
 44
1.0
  0
POINT
  5
C3C6
330
B714
100
AcDbEntity
  8
DEFPOINTS
 62
     0
 48
25.0
100
AcDbPoint
 10
3922.762131327725
 20
3766.381907904721
 30
0.0
  0
POINT
  5
C3C7
330
B714
100
AcDbEntity
  8
DEFPOINTS
 62
     0
 48
25.0
100
AcDbPoint
 10
4042.762131327725
 20
3766.381907904721
 30
0.0
  0
POINT
  5
C3C8
330
B714
100
AcDbEntity
  8
DEFPOINTS
 62
     0
 48
25.0
100
AcDbPoint
 10
4042.762131327725
 20
3888.446434966672
 30
0.0
  0
ENDBLK
  5
B71F
330
B714
100
AcDbEntity
  8
0
 48
25.0
100
AcDbBlockEnd
  0
BLOCK
  5
B750
330
B744
100
AcDbEntity
  8
0
 48
25.0
100
AcDbBlockBegin
  2
*D61
 70
     1
 10
0.0
 20
0.0
 30
0.0
  3
*D61
  1

  0
LINE
  5
C33F
330
B744
100
AcDbEntity
  8
寸法引出
 48
25.0
370
    -2
100
AcDbLine
 10
3699.631789356667
 20
1032.677873433879
 30
0.0
 11
3699.631789356667
 21
1120.56788305415
 31
0.0
  0
LINE
  5
C340
330
B744
100
AcDbEntity
  8
寸法引出
 48
25.0
370
    -2
100
AcDbLine
 10
3749.631789356667
 20
1032.677873433879
 30
0.0
 11
3749.631789356667
 21
1120.56788305415
 31
0.0
  0
LINE
  5
C341
330
B744
100
AcDbEntity
  8
寸法引出
 48
25.0
370
    -2
100
AcDbLine
 10
3669.631789356666
 20
1110.56788305415
 30
0.0
 11
3639.631789356666
 21
1110.56788305415
 31
0.0
  0
LINE
  5
C342
330
B744
100
AcDbEntity
  8
寸法引出
 48
25.0
370
    -2
100
AcDbLine
 10
3779.631789356666
 20
1110.56788305415
 30
0.0
 11
3809.631789356666
 21
1110.56788305415
 31
0.0
  0
LINE
  5
C343
330
B744
100
AcDbEntity
  8
寸法引出
 48
25.0
370
    -2
100
AcDbLine
 10
3699.631789356667
 20
1110.56788305415
 30
0.0
 11
3749.631789356667
 21
1110.56788305415
 31
0.0
  0
SOLID
  5
C344
330
B744
100
AcDbEntity
  8
寸法引出
 48
25.0
100
AcDbTrace
 10
3669.631789356666
 20
1115.56788305415
 30
0.0
 11
3669.631789356666
 21
1105.56788305415
 31
0.0
 12
3699.631789356667
 22
1110.56788305415
 32
0.0
 13
3699.631789356667
 23
1110.56788305415
 33
0.0
  0
SOLID
  5
C345
330
B744
100
AcDbEntity
  8
寸法引出
 48
25.0
100
AcDbTrace
 10
3779.631789356666
 20
1115.56788305415
 30
0.0
 11
3779.631789356666
 21
1105.56788305415
 31
0.0
 12
3749.631789356667
 22
1110.56788305415
 32
0.0
 13
3749.631789356667
 23
1110.56788305415
 33
0.0
  0
MTEXT
  5
C346
330
B744
100
AcDbEntity
  8
寸法引出
 48
25.0
100
AcDbMText
 10
3724.631789356667
 20
1150.56788305415
 30
0.0
 40
40.0
 41
0.0
 71
     5
 72
     1
  1
\A1;5
  7
SANWA
 73
     1
 44
1.0
  0
POINT
  5
C347
330
B744
100
AcDbEntity
  8
DEFPOINTS
 62
     0
 48
25.0
100
AcDbPoint
 10
3699.631789356667
 20
1012.677873433879
 30
0.0
  0
POINT
  5
C348
330
B744
100
AcDbEntity
  8
DEFPOINTS
 62
     0
 48
25.0
100
AcDbPoint
 10
3749.631789356667
 20
1012.677873433879
 30
0.0
  0
POINT
  5
C349
330
B744
100
AcDbEntity
  8
DEFPOINTS
 62
     0
 48
25.0
100
AcDbPoint
 10
3749.631789356667
 20
1110.56788305415
 30
0.0
  0
ENDBLK
  5
B751
330
B744
100
AcDbEntity
  8
0
 48
25.0
100
AcDbBlockEnd
  0
BLOCK
  5
B75C
330
B752
100
AcDbEntity
  8
0
 48
25.0
100
AcDbBlockBegin
  2
*D62
 70
     1
 10
0.0
 20
0.0
 30
0.0
  3
*D62
  1

  0
LINE
  5
C336
330
B752
100
AcDbEntity
  8
寸法引出
 48
25.0
370
    -2
100
AcDbLine
 10
3549.631789356666
 20
1032.677873433879
 30
0.0
 11
3549.631789356666
 21
1206.851078528567
 31
0.0
  0
LINE
  5
C337
330
B752
100
AcDbEntity
  8
寸法引出
 48
25.0
370
    -2
100
AcDbLine
 10
3749.631789356667
 20
1032.677873433879
 30
0.0
 11
3749.631789356667
 21
1206.851078528567
 31
0.0
  0
LINE
  5
C338
330
B752
100
AcDbEntity
  8
寸法引出
 48
25.0
370
    -2
100
AcDbLine
 10
3579.631789356666
 20
1196.851078528567
 30
0.0
 11
3719.631789356666
 21
1196.851078528567
 31
0.0
  0
SOLID
  5
C339
330
B752
100
AcDbEntity
  8
寸法引出
 48
25.0
100
AcDbTrace
 10
3579.631789356666
 20
1201.851078528568
 30
0.0
 11
3579.631789356666
 21
1191.851078528568
 31
0.0
 12
3549.631789356666
 22
1196.851078528567
 32
0.0
 13
3549.631789356666
 23
1196.851078528567
 33
0.0
  0
SOLID
  5
C33A
330
B752
100
AcDbEntity
  8
寸法引出
 48
25.0
100
AcDbTrace
 10
3719.631789356666
 20
1201.851078528568
 30
0.0
 11
3719.631789356666
 21
1191.851078528568
 31
0.0
 12
3749.631789356667
 22
1196.851078528567
 32
0.0
 13
3749.631789356667
 23
1196.851078528567
 33
0.0
  0
MTEXT
  5
C33B
330
B752
100
AcDbEntity
  8
寸法引出
 48
25.0
100
AcDbMText
 10
3649.631789356666
 20
1236.851078528568
 30
0.0
 40
40.0
 41
0.0
 71
     5
 72
     1
  1
\A1;20
  7
SANWA
 73
     1
 44
1.0
  0
POINT
  5
C33C
330
B752
100
AcDbEntity
  8
DEFPOINTS
 62
     0
 48
25.0
100
AcDbPoint
 10
3549.631789356666
 20
1012.677873433879
 30
0.0
  0
POINT
  5
C33D
330
B752
100
AcDbEntity
  8
DEFPOINTS
 62
     0
 48
25.0
100
AcDbPoint
 10
3749.631789356667
 20
1012.677873433879
 30
0.0
  0
POINT
  5
C33E
330
B752
100
AcDbEntity
  8
DEFPOINTS
 62
     0
 48
25.0
100
AcDbPoint
 10
3749.631789356667
 20
1196.851078528567
 30
0.0
  0
ENDBLK
  5
B75D
330
B752
100
AcDbEntity
  8
0
 48
25.0
100
AcDbBlockEnd
  0
BLOCK
  5
B76A
330
B75E
100
AcDbEntity
  8
0
 48
25.0
100
AcDbBlockBegin
  2
*D63
 70
     1
 10
0.0
 20
0.0
 30
0.0
  3
*D63
  1

  0
LINE
  5
C34A
330
B75E
100
AcDbEntity
  8
寸法引出
 48
25.0
370
    -2
100
AcDbLine
 10
3599.631789356667
 20
1032.677873433879
 30
0.0
 11
3599.631789356667
 21
1120.56788305415
 31
0.0
  0
LINE
  5
C34B
330
B75E
100
AcDbEntity
  8
寸法引出
 48
25.0
370
    -2
100
AcDbLine
 10
3699.631789356667
 20
1032.677873433879
 30
0.0
 11
3699.631789356667
 21
1120.56788305415
 31
0.0
  0
LINE
  5
C34C
330
B75E
100
AcDbEntity
  8
寸法引出
 48
25.0
370
    -2
100
AcDbLine
 10
3569.631789356666
 20
1110.56788305415
 30
0.0
 11
3539.631789356667
 21
1110.56788305415
 31
0.0
  0
LINE
  5
C34D
330
B75E
100
AcDbEntity
  8
寸法引出
 48
25.0
370
    -2
100
AcDbLine
 10
3729.631789356666
 20
1110.56788305415
 30
0.0
 11
3759.631789356666
 21
1110.56788305415
 31
0.0
  0
LINE
  5
C34E
330
B75E
100
AcDbEntity
  8
寸法引出
 48
25.0
370
    -2
100
AcDbLine
 10
3599.631789356667
 20
1110.56788305415
 30
0.0
 11
3699.631789356667
 21
1110.56788305415
 31
0.0
  0
SOLID
  5
C34F
330
B75E
100
AcDbEntity
  8
寸法引出
 48
25.0
100
AcDbTrace
 10
3569.631789356666
 20
1115.56788305415
 30
0.0
 11
3569.631789356666
 21
1105.56788305415
 31
0.0
 12
3599.631789356667
 22
1110.56788305415
 32
0.0
 13
3599.631789356667
 23
1110.56788305415
 33
0.0
  0
SOLID
  5
C350
330
B75E
100
AcDbEntity
  8
寸法引出
 48
25.0
100
AcDbTrace
 10
3729.631789356666
 20
1115.56788305415
 30
0.0
 11
3729.631789356666
 21
1105.56788305415
 31
0.0
 12
3699.631789356667
 22
1110.56788305415
 32
0.0
 13
3699.631789356667
 23
1110.56788305415
 33
0.0
  0
MTEXT
  5
C351
330
B75E
100
AcDbEntity
  8
寸法引出
 48
25.0
100
AcDbMText
 10
3649.631789356666
 20
1150.56788305415
 30
0.0
 40
40.0
 41
0.0
 71
     5
 72
     1
  1
\A1;10
  7
SANWA
 73
     1
 44
1.0
  0
POINT
  5
C352
330
B75E
100
AcDbEntity
  8
DEFPOINTS
 62
     0
 48
25.0
100
AcDbPoint
 10
3599.631789356667
 20
1012.677873433879
 30
0.0
  0
POINT
  5
C353
330
B75E
100
AcDbEntity
  8
DEFPOINTS
 62
     0
 48
25.0
100
AcDbPoint
 10
3699.631789356667
 20
1012.677873433879
 30
0.0
  0
POINT
  5
C354
330
B75E
100
AcDbEntity
  8
DEFPOINTS
 62
     0
 48
25.0
100
AcDbPoint
 10
3699.631789356667
 20
1110.56788305415
 30
0.0
  0
ENDBLK
  5
B76B
330
B75E
100
AcDbEntity
  8
0
 48
25.0
100
AcDbBlockEnd
  0
BLOCK
  5
B778
330
B76C
100
AcDbEntity
  8
0
 48
25.0
100
AcDbBlockBegin
  2
*D64
 70
     1
 10
0.0
 20
0.0
 30
0.0
  3
*D64
  1

  0
LINE
  5
C376
330
B76C
100
AcDbEntity
  8
寸法引出
 48
25.0
370
    -2
100
AcDbLine
 10
3549.631789356666
 20
1032.677873433879
 30
0.0
 11
3549.631789356666
 21
1120.56788305415
 31
0.0
  0
LINE
  5
C377
330
B76C
100
AcDbEntity
  8
寸法引出
 48
25.0
370
    -2
100
AcDbLine
 10
3599.631789356667
 20
1032.677873433879
 30
0.0
 11
3599.631789356667
 21
1120.56788305415
 31
0.0
  0
LINE
  5
C378
330
B76C
100
AcDbEntity
  8
寸法引出
 48
25.0
370
    -2
100
AcDbLine
 10
3519.631789356666
 20
1110.56788305415
 30
0.0
 11
3489.631789356666
 21
1110.56788305415
 31
0.0
  0
LINE
  5
C379
330
B76C
100
AcDbEntity
  8
寸法引出
 48
25.0
370
    -2
100
AcDbLine
 10
3629.631789356666
 20
1110.56788305415
 30
0.0
 11
3659.631789356666
 21
1110.56788305415
 31
0.0
  0
LINE
  5
C37A
330
B76C
100
AcDbEntity
  8
寸法引出
 48
25.0
370
    -2
100
AcDbLine
 10
3549.631789356666
 20
1110.56788305415
 30
0.0
 11
3599.631789356667
 21
1110.56788305415
 31
0.0
  0
SOLID
  5
C37B
330
B76C
100
AcDbEntity
  8
寸法引出
 48
25.0
100
AcDbTrace
 10
3519.631789356666
 20
1115.56788305415
 30
0.0
 11
3519.631789356666
 21
1105.56788305415
 31
0.0
 12
3549.631789356666
 22
1110.56788305415
 32
0.0
 13
3549.631789356666
 23
1110.56788305415
 33
0.0
  0
SOLID
  5
C37C
330
B76C
100
AcDbEntity
  8
寸法引出
 48
25.0
100
AcDbTrace
 10
3629.631789356666
 20
1115.56788305415
 30
0.0
 11
3629.631789356666
 21
1105.56788305415
 31
0.0
 12
3599.631789356667
 22
1110.56788305415
 32
0.0
 13
3599.631789356667
 23
1110.56788305415
 33
0.0
  0
MTEXT
  5
C37D
330
B76C
100
AcDbEntity
  8
寸法引出
 48
25.0
100
AcDbMText
 10
3574.631789356667
 20
1150.56788305415
 30
0.0
 40
40.0
 41
0.0
 71
     5
 72
     1
  1
\A1;5
  7
SANWA
 73
     1
 44
1.0
  0
POINT
  5
C37E
330
B76C
100
AcDbEntity
  8
DEFPOINTS
 62
     0
 48
25.0
100
AcDbPoint
 10
3549.631789356666
 20
1012.677873433879
 30
0.0
  0
POINT
  5
C37F
330
B76C
100
AcDbEntity
  8
DEFPOINTS
 62
     0
 48
25.0
100
AcDbPoint
 10
3599.631789356667
 20
1012.677873433879
 30
0.0
  0
POINT
  5
C380
330
B76C
100
AcDbEntity
  8
DEFPOINTS
 62
     0
 48
25.0
100
AcDbPoint
 10
3599.631789356667
 20
1110.56788305415
 30
0.0
  0
ENDBLK
  5
B779
330
B76C
100
AcDbEntity
  8
0
 48
25.0
100
AcDbBlockEnd
  0
BLOCK
  5
B786
330
B77A
100
AcDbEntity
  8
0
 48
25.0
100
AcDbBlockBegin
  2
*D65
 70
     1
 10
0.0
 20
0.0
 30
0.0
  3
*D65
  1

  0
LINE
  5
C360
330
B77A
100
AcDbEntity
  8
寸法引出
 48
25.0
370
    -2
100
AcDbLine
 10
3529.631789356666
 20
842.6778734338794
 30
0.0
 11
3455.514492224123
 21
842.6778734338794
 31
0.0
  0
LINE
  5
C361
330
B77A
100
AcDbEntity
  8
寸法引出
 48
25.0
370
    -2
100
AcDbLine
 10
3579.631789356666
 20
912.6778734338795
 30
0.0
 11
3455.514492224123
 21
912.6778734338795
 31
0.0
  0
LINE
  5
C362
330
B77A
100
AcDbEntity
  8
寸法引出
 48
25.0
370
    -2
100
AcDbLine
 10
3465.514492224123
 20
812.6778734338795
 30
0.0
 11
3465.514492224123
 21
782.6778734338796
 31
0.0
  0
LINE
  5
C363
330
B77A
100
AcDbEntity
  8
寸法引出
 48
25.0
370
    -2
100
AcDbLine
 10
3465.514492224123
 20
942.6778734338794
 30
0.0
 11
3465.514492224123
 21
972.6778734338795
 31
0.0
  0
LINE
  5
C364
330
B77A
100
AcDbEntity
  8
寸法引出
 48
25.0
370
    -2
100
AcDbLine
 10
3465.514492224123
 20
842.6778734338794
 30
0.0
 11
3465.514492224123
 21
912.6778734338795
 31
0.0
  0
SOLID
  5
C365
330
B77A
100
AcDbEntity
  8
寸法引出
 48
25.0
100
AcDbTrace
 10
3460.514492224123
 20
812.6778734338795
 30
0.0
 11
3470.514492224123
 21
812.6778734338795
 31
0.0
 12
3465.514492224123
 22
842.6778734338794
 32
0.0
 13
3465.514492224123
 23
842.6778734338794
 33
0.0
  0
SOLID
  5
C366
330
B77A
100
AcDbEntity
  8
寸法引出
 48
25.0
100
AcDbTrace
 10
3460.514492224123
 20
942.6778734338794
 30
0.0
 11
3470.514492224123
 21
942.6778734338794
 31
0.0
 12
3465.514492224123
 22
912.6778734338795
 32
0.0
 13
3465.514492224123
 23
912.6778734338795
 33
0.0
  0
MTEXT
  5
C367
330
B77A
100
AcDbEntity
  8
寸法引出
 48
25.0
100
AcDbMText
 10
3425.514492224123
 20
877.6778734338801
 30
0.0
 40
40.0
 41
0.0
 71
     5
 72
     1
  1
\A1;7
  7
SANWA
 11
0.0000000000000001
 21
1.0
 31
0.0
 73
     1
 44
1.0
  0
POINT
  5
C368
330
B77A
100
AcDbEntity
  8
DEFPOINTS
 62
     0
 48
25.0
100
AcDbPoint
 10
3549.631789356666
 20
842.6778734338794
 30
0.0
  0
POINT
  5
C369
330
B77A
100
AcDbEntity
  8
DEFPOINTS
 62
     0
 48
25.0
100
AcDbPoint
 10
3599.631789356667
 20
912.6778734338795
 30
0.0
  0
POINT
  5
C36A
330
B77A
100
AcDbEntity
  8
DEFPOINTS
 62
     0
 48
25.0
100
AcDbPoint
 10
3465.514492224123
 20
912.6778734338795
 30
0.0
  0
ENDBLK
  5
B787
330
B77A
100
AcDbEntity
  8
0
 48
25.0
100
AcDbBlockEnd
  0
BLOCK
  5
B794
330
B788
100
AcDbEntity
  8
0
 48
25.0
100
AcDbBlockBegin
  2
*D66
 70
     1
 10
0.0
 20
0.0
 30
0.0
  3
*D66
  1

  0
LINE
  5
C355
330
B788
100
AcDbEntity
  8
寸法引出
 48
25.0
370
    -2
100
AcDbLine
 10
3629.631789356666
 20
812.6778734338795
 30
0.0
 11
3455.514492224123
 21
812.6778734338795
 31
0.0
  0
LINE
  5
C356
330
B788
100
AcDbEntity
  8
寸法引出
 48
25.0
370
    -2
100
AcDbLine
 10
3529.631789356666
 20
842.6778734338794
 30
0.0
 11
3455.514492224123
 21
842.6778734338794
 31
0.0
  0
LINE
  5
C357
330
B788
100
AcDbEntity
  8
寸法引出
 48
25.0
370
    -2
100
AcDbLine
 10
3465.514492224123
 20
782.6778734338796
 30
0.0
 11
3465.514492224123
 21
752.6778734338795
 31
0.0
  0
LINE
  5
C358
330
B788
100
AcDbEntity
  8
寸法引出
 48
25.0
370
    -2
100
AcDbLine
 10
3465.514492224123
 20
872.6778734338795
 30
0.0
 11
3465.514492224123
 21
902.6778734338796
 31
0.0
  0
LINE
  5
C359
330
B788
100
AcDbEntity
  8
寸法引出
 48
25.0
370
    -2
100
AcDbLine
 10
3465.514492224123
 20
812.6778734338795
 30
0.0
 11
3465.514492224123
 21
842.6778734338794
 31
0.0
  0
SOLID
  5
C35A
330
B788
100
AcDbEntity
  8
寸法引出
 48
25.0
100
AcDbTrace
 10
3460.514492224123
 20
782.6778734338796
 30
0.0
 11
3470.514492224123
 21
782.6778734338796
 31
0.0
 12
3465.514492224123
 22
812.6778734338795
 32
0.0
 13
3465.514492224123
 23
812.6778734338795
 33
0.0
  0
SOLID
  5
C35B
330
B788
100
AcDbEntity
  8
寸法引出
 48
25.0
100
AcDbTrace
 10
3460.514492224123
 20
872.6778734338795
 30
0.0
 11
3470.514492224123
 21
872.6778734338795
 31
0.0
 12
3465.514492224123
 22
842.6778734338794
 32
0.0
 13
3465.514492224123
 23
842.6778734338794
 33
0.0
  0
MTEXT
  5
C35C
330
B788
100
AcDbEntity
  8
寸法引出
 48
25.0
100
AcDbMText
 10
3425.514492224123
 20
827.6778734338801
 30
0.0
 40
40.0
 41
0.0
 71
     5
 72
     1
  1
\A1;3
  7
SANWA
 11
0.0000000000000001
 21
1.0
 31
0.0
 73
     1
 44
1.0
  0
POINT
  5
C35D
330
B788
100
AcDbEntity
  8
DEFPOINTS
 62
     0
 48
25.0
100
AcDbPoint
 10
3649.631789356666
 20
812.6778734338795
 30
0.0
  0
POINT
  5
C35E
330
B788
100
AcDbEntity
  8
DEFPOINTS
 62
     0
 48
25.0
100
AcDbPoint
 10
3549.631789356666
 20
842.6778734338794
 30
0.0
  0
POINT
  5
C35F
330
B788
100
AcDbEntity
  8
DEFPOINTS
 62
     0
 48
25.0
100
AcDbPoint
 10
3465.514492224123
 20
842.6778734338794
 30
0.0
  0
ENDBLK
  5
B795
330
B788
100
AcDbEntity
  8
0
 48
25.0
100
AcDbBlockEnd
  0
BLOCK
  5
B7A2
330
B796
100
AcDbEntity
  8
0
 48
25.0
100
AcDbBlockBegin
  2
*D67
 70
     1
 10
0.0
 20
0.0
 30
0.0
  3
*D67
  1

  0
LINE
  5
C36B
330
B796
100
AcDbEntity
  8
寸法引出
 48
25.0
370
    -2
100
AcDbLine
 10
3579.631789356666
 20
912.6778734338795
 30
0.0
 11
3455.514492224123
 21
912.6778734338795
 31
0.0
  0
LINE
  5
C36C
330
B796
100
AcDbEntity
  8
寸法引出
 48
25.0
370
    -2
100
AcDbLine
 10
3579.631789356666
 20
1012.677873433879
 30
0.0
 11
3455.514492224123
 21
1012.677873433879
 31
0.0
  0
LINE
  5
C36D
330
B796
100
AcDbEntity
  8
寸法引出
 48
25.0
370
    -2
100
AcDbLine
 10
3465.514492224123
 20
882.6778734338795
 30
0.0
 11
3465.514492224123
 21
852.6778734338796
 31
0.0
  0
LINE
  5
C36E
330
B796
100
AcDbEntity
  8
寸法引出
 48
25.0
370
    -2
100
AcDbLine
 10
3465.514492224124
 20
1042.677873433879
 30
0.0
 11
3465.514492224124
 21
1072.677873433879
 31
0.0
  0
LINE
  5
C36F
330
B796
100
AcDbEntity
  8
寸法引出
 48
25.0
370
    -2
100
AcDbLine
 10
3465.514492224123
 20
912.6778734338795
 30
0.0
 11
3465.514492224123
 21
1012.677873433879
 31
0.0
  0
SOLID
  5
C370
330
B796
100
AcDbEntity
  8
寸法引出
 48
25.0
100
AcDbTrace
 10
3460.514492224123
 20
882.6778734338795
 30
0.0
 11
3470.514492224123
 21
882.6778734338795
 31
0.0
 12
3465.514492224123
 22
912.6778734338795
 32
0.0
 13
3465.514492224123
 23
912.6778734338795
 33
0.0
  0
SOLID
  5
C371
330
B796
100
AcDbEntity
  8
寸法引出
 48
25.0
100
AcDbTrace
 10
3460.514492224123
 20
1042.677873433879
 30
0.0
 11
3470.514492224124
 21
1042.677873433879
 31
0.0
 12
3465.514492224123
 22
1012.677873433879
 32
0.0
 13
3465.514492224123
 23
1012.677873433879
 33
0.0
  0
MTEXT
  5
C372
330
B796
100
AcDbEntity
  8
寸法引出
 48
25.0
100
AcDbMText
 10
3425.514492224123
 20
962.6778734338801
 30
0.0
 40
40.0
 41
0.0
 71
     5
 72
     1
  1
\A1;10
  7
SANWA
 11
0.0000000000000001
 21
1.0
 31
0.0
 73
     1
 44
1.0
  0
POINT
  5
C373
330
B796
100
AcDbEntity
  8
DEFPOINTS
 62
     0
 48
25.0
100
AcDbPoint
 10
3599.631789356667
 20
912.6778734338795
 30
0.0
  0
POINT
  5
C374
330
B796
100
AcDbEntity
  8
DEFPOINTS
 62
     0
 48
25.0
100
AcDbPoint
 10
3599.631789356667
 20
1012.677873433879
 30
0.0
  0
POINT
  5
C375
330
B796
100
AcDbEntity
  8
DEFPOINTS
 62
     0
 48
25.0
100
AcDbPoint
 10
3465.514492224123
 20
1012.677873433879
 30
0.0
  0
ENDBLK
  5
B7A3
330
B796
100
AcDbEntity
  8
0
 48
25.0
100
AcDbBlockEnd
  0
BLOCK
  5
B7AE
330
B7A4
100
AcDbEntity
  8
0
 48
25.0
100
AcDbBlockBegin
  2
*D68
 70
     1
 10
0.0
 20
0.0
 30
0.0
  3
*D68
  1

  0
LINE
  5
C29D
330
B7A4
100
AcDbEntity
  8
寸法引出
 48
25.0
370
    -2
100
AcDbLine
 10
1544.463170910155
 20
762.3712771834025
 30
0.0
 11
1544.463170910155
 21
678.7005753087424
 31
0.0
  0
LINE
  5
C29E
330
B7A4
100
AcDbEntity
  8
寸法引出
 48
25.0
370
    -2
100
AcDbLine
 10
1694.463170910156
 20
850.8712771834025
 30
0.0
 11
1694.463170910156
 21
678.7005753087424
 31
0.0
  0
LINE
  5
C29F
330
B7A4
100
AcDbEntity
  8
寸法引出
 48
25.0
370
    -2
100
AcDbLine
 10
1574.463170910155
 20
688.7005753087423
 30
0.0
 11
1664.463170910156
 21
688.7005753087423
 31
0.0
  0
SOLID
  5
C2A0
330
B7A4
100
AcDbEntity
  8
寸法引出
 48
25.0
100
AcDbTrace
 10
1574.463170910155
 20
693.7005753087423
 30
0.0
 11
1574.463170910155
 21
683.7005753087423
 31
0.0
 12
1544.463170910155
 22
688.7005753087423
 32
0.0
 13
1544.463170910155
 23
688.7005753087423
 33
0.0
  0
SOLID
  5
C2A1
330
B7A4
100
AcDbEntity
  8
寸法引出
 48
25.0
100
AcDbTrace
 10
1664.463170910156
 20
693.7005753087423
 30
0.0
 11
1664.463170910156
 21
683.7005753087423
 31
0.0
 12
1694.463170910156
 22
688.7005753087423
 32
0.0
 13
1694.463170910156
 23
688.7005753087423
 33
0.0
  0
MTEXT
  5
C2A2
330
B7A4
100
AcDbEntity
  8
寸法引出
 48
25.0
100
AcDbMText
 10
1619.463170910156
 20
728.7005753087424
 30
0.0
 40
40.0
 41
0.0
 71
     5
 72
     1
  1
\A1;50
  7
SANWA
 73
     1
 44
1.0
  0
POINT
  5
C2A3
330
B7A4
100
AcDbEntity
  8
DEFPOINTS
 62
     0
 48
25.0
100
AcDbPoint
 10
1544.463170910155
 20
782.3712771834025
 30
0.0
  0
POINT
  5
C2A4
330
B7A4
100
AcDbEntity
  8
DEFPOINTS
 62
     0
 48
25.0
100
AcDbPoint
 10
1694.463170910156
 20
870.8712771834026
 30
0.0
  0
POINT
  5
C2A5
330
B7A4
100
AcDbEntity
  8
DEFPOINTS
 62
     0
 48
25.0
100
AcDbPoint
 10
1694.463170910156
 20
688.7005753087423
 30
0.0
  0
ENDBLK
  5
B7AF
330
B7A4
100
AcDbEntity
  8
0
 48
25.0
100
AcDbBlockEnd
  0
BLOCK
  5
B7BA
330
B7B0
100
AcDbEntity
  8
0
 48
25.0
100
AcDbBlockBegin
  2
*D69
 70
     1
 10
0.0
 20
0.0
 30
0.0
  3
*D69
  1

  0
LINE
  5
C289
330
B7B0
100
AcDbEntity
  8
寸法引出
 48
25.0
370
    -2
100
AcDbLine
 10
1819.463170910161
 20
788.3712771834025
 30
0.0
 11
1962.138017486453
 21
788.3712771834025
 31
0.0
  0
LINE
  5
C28A
330
B7B0
100
AcDbEntity
  8
寸法引出
 48
25.0
370
    -2
100
AcDbLine
 10
1819.463170910156
 20
953.3712771834025
 30
0.0
 11
1962.138017486453
 21
953.3712771834025
 31
0.0
  0
LINE
  5
C28B
330
B7B0
100
AcDbEntity
  8
寸法引出
 48
25.0
370
    -2
100
AcDbLine
 10
1952.138017486453
 20
818.3712771834025
 30
0.0
 11
1952.138017486453
 21
923.3712771834024
 31
0.0
  0
SOLID
  5
C28C
330
B7B0
100
AcDbEntity
  8
寸法引出
 48
25.0
100
AcDbTrace
 10
1947.138017486453
 20
818.3712771834025
 30
0.0
 11
1957.138017486453
 21
818.3712771834025
 31
0.0
 12
1952.138017486453
 22
788.3712771834025
 32
0.0
 13
1952.138017486453
 23
788.3712771834025
 33
0.0
  0
SOLID
  5
C28D
330
B7B0
100
AcDbEntity
  8
寸法引出
 48
25.0
100
AcDbTrace
 10
1947.138017486453
 20
923.3712771834024
 30
0.0
 11
1957.138017486453
 21
923.3712771834024
 31
0.0
 12
1952.138017486453
 22
953.3712771834025
 32
0.0
 13
1952.138017486453
 23
953.3712771834025
 33
0.0
  0
MTEXT
  5
C28E
330
B7B0
100
AcDbEntity
  8
寸法引出
 48
25.0
100
AcDbMText
 10
1912.138017486453
 20
870.8712771834028
 30
0.0
 40
40.0
 41
0.0
 71
     5
 72
     1
  1
\A1;55
  7
SANWA
 11
0.0000000000000001
 21
1.0
 31
0.0
 73
     1
 44
1.0
  0
POINT
  5
C28F
330
B7B0
100
AcDbEntity
  8
DEFPOINTS
 62
     0
 48
25.0
100
AcDbPoint
 10
1799.463170910161
 20
788.3712771834025
 30
0.0
  0
POINT
  5
C290
330
B7B0
100
AcDbEntity
  8
DEFPOINTS
 62
     0
 48
25.0
100
AcDbPoint
 10
1799.463170910155
 20
953.3712771834025
 30
0.0
  0
POINT
  5
C291
330
B7B0
100
AcDbEntity
  8
DEFPOINTS
 62
     0
 48
25.0
100
AcDbPoint
 10
1952.138017486453
 20
953.3712771834025
 30
0.0
  0
ENDBLK
  5
B7BB
330
B7B0
100
AcDbEntity
  8
0
 48
25.0
100
AcDbBlockEnd
  0
BLOCK
  5
B7C8
330
B7BC
100
AcDbEntity
  8
0
 48
25.0
100
AcDbBlockBegin
  2
*D70
 70
     1
 10
0.0
 20
0.0
 30
0.0
  3
*D70
  1

  0
LINE
  5
C292
330
B7BC
100
AcDbEntity
  8
寸法引出
 48
25.0
370
    -2
100
AcDbLine
 10
1799.463170910155
 20
973.3712771834024
 30
0.0
 11
1799.463170910155
 21
1043.778916802019
 31
0.0
  0
LINE
  5
C293
330
B7BC
100
AcDbEntity
  8
寸法引出
 48
25.0
370
    -2
100
AcDbLine
 10
1805.463170910156
 20
979.3712771834025
 30
0.0
 11
1805.463170910156
 21
1043.778916802019
 31
0.0
  0
LINE
  5
C294
330
B7BC
100
AcDbEntity
  8
寸法引出
 48
25.0
370
    -2
100
AcDbLine
 10
1769.463170910156
 20
1033.778916802019
 30
0.0
 11
1739.463170910156
 21
1033.778916802019
 31
0.0
  0
LINE
  5
C295
330
B7BC
100
AcDbEntity
  8
寸法引出
 48
25.0
370
    -2
100
AcDbLine
 10
1835.463170910156
 20
1033.778916802019
 30
0.0
 11
1865.463170910155
 21
1033.778916802019
 31
0.0
  0
LINE
  5
C296
330
B7BC
100
AcDbEntity
  8
寸法引出
 48
25.0
370
    -2
100
AcDbLine
 10
1799.463170910155
 20
1033.778916802019
 30
0.0
 11
1805.463170910156
 21
1033.778916802019
 31
0.0
  0
SOLID
  5
C297
330
B7BC
100
AcDbEntity
  8
寸法引出
 48
25.0
100
AcDbTrace
 10
1769.463170910156
 20
1038.77891680202
 30
0.0
 11
1769.463170910156
 21
1028.778916802019
 31
0.0
 12
1799.463170910155
 22
1033.778916802019
 32
0.0
 13
1799.463170910155
 23
1033.778916802019
 33
0.0
  0
SOLID
  5
C298
330
B7BC
100
AcDbEntity
  8
寸法引出
 48
25.0
100
AcDbTrace
 10
1835.463170910156
 20
1038.77891680202
 30
0.0
 11
1835.463170910156
 21
1028.778916802019
 31
0.0
 12
1805.463170910156
 22
1033.778916802019
 32
0.0
 13
1805.463170910156
 23
1033.778916802019
 33
0.0
  0
MTEXT
  5
C299
330
B7BC
100
AcDbEntity
  8
寸法引出
 48
25.0
100
AcDbMText
 10
1802.463170910155
 20
1073.778916802019
 30
0.0
 40
40.0
 41
0.0
 71
     5
 72
     1
  1
\A1;2
  7
SANWA
 73
     1
 44
1.0
  0
POINT
  5
C29A
330
B7BC
100
AcDbEntity
  8
DEFPOINTS
 62
     0
 48
25.0
100
AcDbPoint
 10
1799.463170910155
 20
953.3712771834025
 30
0.0
  0
POINT
  5
C29B
330
B7BC
100
AcDbEntity
  8
DEFPOINTS
 62
     0
 48
25.0
100
AcDbPoint
 10
1805.463170910156
 20
959.3712771834026
 30
0.0
  0
POINT
  5
C29C
330
B7BC
100
AcDbEntity
  8
DEFPOINTS
 62
     0
 48
25.0
100
AcDbPoint
 10
1805.463170910156
 20
1033.778916802019
 30
0.0
  0
ENDBLK
  5
B7C9
330
B7BC
100
AcDbEntity
  8
0
 48
25.0
100
AcDbBlockEnd
  0
BLOCK
  5
B7D4
330
B7CA
100
AcDbEntity
  8
0
 48
25.0
100
AcDbBlockBegin
  2
*D71
 70
     1
 10
0.0
 20
0.0
 30
0.0
  3
*D71
  1

  0
LINE
  5
C2A6
330
B7CA
100
AcDbEntity
  8
寸法引出
 48
25.0
370
    -2
100
AcDbLine
 10
1544.463170910155
 20
979.3712771834025
 30
0.0
 11
1544.463170910155
 21
1043.778916802019
 31
0.0
  0
LINE
  5
C2A7
330
B7CA
100
AcDbEntity
  8
寸法引出
 48
25.0
370
    -2
100
AcDbLine
 10
1799.463170910155
 20
973.3712771834024
 30
0.0
 11
1799.463170910155
 21
1043.778916802019
 31
0.0
  0
LINE
  5
C2A8
330
B7CA
100
AcDbEntity
  8
寸法引出
 48
25.0
370
    -2
100
AcDbLine
 10
1574.463170910155
 20
1033.778916802019
 30
0.0
 11
1769.463170910156
 21
1033.778916802019
 31
0.0
  0
SOLID
  5
C2A9
330
B7CA
100
AcDbEntity
  8
寸法引出
 48
25.0
100
AcDbTrace
 10
1574.463170910155
 20
1038.77891680202
 30
0.0
 11
1574.463170910155
 21
1028.778916802019
 31
0.0
 12
1544.463170910155
 22
1033.778916802019
 32
0.0
 13
1544.463170910155
 23
1033.778916802019
 33
0.0
  0
SOLID
  5
C2AA
330
B7CA
100
AcDbEntity
  8
寸法引出
 48
25.0
100
AcDbTrace
 10
1769.463170910156
 20
1038.77891680202
 30
0.0
 11
1769.463170910156
 21
1028.778916802019
 31
0.0
 12
1799.463170910155
 22
1033.778916802019
 32
0.0
 13
1799.463170910155
 23
1033.778916802019
 33
0.0
  0
MTEXT
  5
C2AB
330
B7CA
100
AcDbEntity
  8
寸法引出
 48
25.0
100
AcDbMText
 10
1671.963170910156
 20
1073.778916802019
 30
0.0
 40
40.0
 41
0.0
 71
     5
 72
     1
  1
\A1;85
  7
SANWA
 73
     1
 44
1.0
  0
POINT
  5
C2AC
330
B7CA
100
AcDbEntity
  8
DEFPOINTS
 62
     0
 48
25.0
100
AcDbPoint
 10
1544.463170910155
 20
959.3712771834026
 30
0.0
  0
POINT
  5
C2AD
330
B7CA
100
AcDbEntity
  8
DEFPOINTS
 62
     0
 48
25.0
100
AcDbPoint
 10
1799.463170910155
 20
953.3712771834025
 30
0.0
  0
POINT
  5
C2AE
330
B7CA
100
AcDbEntity
  8
DEFPOINTS
 62
     0
 48
25.0
100
AcDbPoint
 10
1799.463170910155
 20
1033.778916802019
 30
0.0
  0
ENDBLK
  5
B7D5
330
B7CA
100
AcDbEntity
  8
0
 48
25.0
100
AcDbBlockEnd
  0
BLOCK
  5
B7E2
330
B7D6
100
AcDbEntity
  8
0
 48
25.0
100
AcDbBlockBegin
  2
*D72
 70
     1
 10
0.0
 20
0.0
 30
0.0
  3
*D72
  1

  0
LINE
  5
C2AF
330
B7D6
100
AcDbEntity
  8
寸法引出
 48
25.0
370
    -2
100
AcDbLine
 10
2377.54022515401
 20
762.3712771834025
 30
0.0
 11
2377.54022515401
 21
683.7706937497959
 31
0.0
  0
LINE
  5
C2B0
330
B7D6
100
AcDbEntity
  8
寸法引出
 48
25.0
370
    -2
100
AcDbLine
 10
2387.140225154012
 20
768.3712771834025
 30
0.0
 11
2387.140225154012
 21
683.7706937497959
 31
0.0
  0
LINE
  5
C2B1
330
B7D6
100
AcDbEntity
  8
寸法引出
 48
25.0
370
    -2
100
AcDbLine
 10
2347.54022515401
 20
693.770693749796
 30
0.0
 11
2317.540225154011
 21
693.770693749796
 31
0.0
  0
LINE
  5
C2B2
330
B7D6
100
AcDbEntity
  8
寸法引出
 48
25.0
370
    -2
100
AcDbLine
 10
2417.140225154013
 20
693.770693749796
 30
0.0
 11
2447.140225154013
 21
693.770693749796
 31
0.0
  0
LINE
  5
C2B3
330
B7D6
100
AcDbEntity
  8
寸法引出
 48
25.0
370
    -2
100
AcDbLine
 10
2377.54022515401
 20
693.770693749796
 30
0.0
 11
2387.140225154012
 21
693.770693749796
 31
0.0
  0
SOLID
  5
C2B4
330
B7D6
100
AcDbEntity
  8
寸法引出
 48
25.0
100
AcDbTrace
 10
2347.54022515401
 20
698.770693749796
 30
0.0
 11
2347.54022515401
 21
688.7706937497959
 31
0.0
 12
2377.54022515401
 22
693.770693749796
 32
0.0
 13
2377.54022515401
 23
693.770693749796
 33
0.0
  0
SOLID
  5
C2B5
330
B7D6
100
AcDbEntity
  8
寸法引出
 48
25.0
100
AcDbTrace
 10
2417.140225154013
 20
698.770693749796
 30
0.0
 11
2417.140225154013
 21
688.7706937497959
 31
0.0
 12
2387.140225154012
 22
693.770693749796
 32
0.0
 13
2387.140225154012
 23
693.770693749796
 33
0.0
  0
MTEXT
  5
C2B6
330
B7D6
100
AcDbEntity
  8
寸法引出
 48
25.0
100
AcDbMText
 10
2382.340225154012
 20
733.7706937497959
 30
0.0
 40
40.0
 41
0.0
 71
     5
 72
     1
  1
\A1;3.2
  7
SANWA
 73
     1
 44
1.0
  0
POINT
  5
C2B7
330
B7D6
100
AcDbEntity
  8
DEFPOINTS
 62
     0
 48
25.0
100
AcDbPoint
 10
2377.54022515401
 20
782.3712771834025
 30
0.0
  0
POINT
  5
C2B8
330
B7D6
100
AcDbEntity
  8
DEFPOINTS
 62
     0
 48
25.0
100
AcDbPoint
 10
2387.140225154012
 20
788.3712771834025
 30
0.0
  0
POINT
  5
C2B9
330
B7D6
100
AcDbEntity
  8
DEFPOINTS
 62
     0
 48
25.0
100
AcDbPoint
 10
2387.140225154012
 20
693.770693749796
 30
0.0
  0
ENDBLK
  5
B7E3
330
B7D6
100
AcDbEntity
  8
0
 48
25.0
100
AcDbBlockEnd
  0
BLOCK
  5
B7EE
330
B7E4
100
AcDbEntity
  8
0
 48
25.0
100
AcDbBlockBegin
  2
*D73
 70
     1
 10
0.0
 20
0.0
 30
0.0
  3
*D73
  1

  0
LINE
  5
C2CC
330
B7E4
100
AcDbEntity
  8
寸法引出
 48
25.0
370
    -2
100
AcDbLine
 10
2071.101880824064
 20
3766.381907904721
 30
0.0
 11
1982.376683236862
 21
3766.381907904721
 31
0.0
  0
LINE
  5
C2CD
330
B7E4
100
AcDbEntity
  8
寸法引出
 48
25.0
370
    -2
100
AcDbLine
 10
2071.101880824064
 20
3616.381907904721
 30
0.0
 11
1982.376683236862
 21
3616.381907904721
 31
0.0
  0
LINE
  5
C2CE
330
B7E4
100
AcDbEntity
  8
寸法引出
 48
25.0
370
    -2
100
AcDbLine
 10
1992.376683236862
 20
3736.381907904721
 30
0.0
 11
1992.376683236862
 21
3646.381907904721
 31
0.0
  0
SOLID
  5
C2CF
330
B7E4
100
AcDbEntity
  8
寸法引出
 48
25.0
100
AcDbTrace
 10
1987.376683236862
 20
3736.381907904721
 30
0.0
 11
1997.376683236862
 21
3736.381907904721
 31
0.0
 12
1992.376683236862
 22
3766.381907904721
 32
0.0
 13
1992.376683236862
 23
3766.381907904721
 33
0.0
  0
SOLID
  5
C2D0
330
B7E4
100
AcDbEntity
  8
寸法引出
 48
25.0
100
AcDbTrace
 10
1987.376683236862
 20
3646.381907904721
 30
0.0
 11
1997.376683236862
 21
3646.381907904721
 31
0.0
 12
1992.376683236862
 22
3616.381907904721
 32
0.0
 13
1992.376683236862
 23
3616.381907904721
 33
0.0
  0
MTEXT
  5
C2D1
330
B7E4
100
AcDbEntity
  8
寸法引出
 48
25.0
100
AcDbMText
 10
1952.376683236861
 20
3691.381907904721
 30
0.0
 40
40.0
 41
0.0
 71
     5
 72
     1
  1
\A1;150
  7
SANWA
 11
0.0000000000000001
 21
1.0
 31
0.0
 73
     1
 44
1.0
  0
POINT
  5
C2D2
330
B7E4
100
AcDbEntity
  8
DEFPOINTS
 62
     0
 48
25.0
100
AcDbPoint
 10
2091.101880824064
 20
3766.381907904721
 30
0.0
  0
POINT
  5
C2D3
330
B7E4
100
AcDbEntity
  8
DEFPOINTS
 62
     0
 48
25.0
100
AcDbPoint
 10
2091.101880824064
 20
3616.381907904721
 30
0.0
  0
POINT
  5
C2D4
330
B7E4
100
AcDbEntity
  8
DEFPOINTS
 62
     0
 48
25.0
100
AcDbPoint
 10
1992.376683236862
 20
3616.381907904721
 30
0.0
  0
ENDBLK
  5
B7EF
330
B7E4
100
AcDbEntity
  8
0
 48
25.0
100
AcDbBlockEnd
  0
BLOCK
  5
B7FA
330
B7F0
100
AcDbEntity
  8
0
 48
25.0
100
AcDbBlockBegin
  2
*D74
 70
     1
 10
0.0
 20
0.0
 30
0.0
  3
*D74
  1

  0
LINE
  5
C392
330
B7F0
100
AcDbEntity
  8
寸法引出
 48
25.0
370
    -2
100
AcDbLine
 10
3922.762131327725
 20
3076.381907904721
 30
0.0
 11
3922.762131327725
 21
2917.90039990345
 31
0.0
  0
LINE
  5
C393
330
B7F0
100
AcDbEntity
  8
寸法引出
 48
25.0
370
    -2
100
AcDbLine
 10
5922.762131327726
 20
3076.381907904721
 30
0.0
 11
5922.762131327726
 21
2917.90039990345
 31
0.0
  0
LINE
  5
C394
330
B7F0
100
AcDbEntity
  8
寸法引出
 48
25.0
370
    -2
100
AcDbLine
 10
3952.762131327725
 20
2927.90039990345
 30
0.0
 11
5892.762131327724
 21
2927.90039990345
 31
0.0
  0
SOLID
  5
C395
330
B7F0
100
AcDbEntity
  8
寸法引出
 48
25.0
100
AcDbTrace
 10
3952.762131327725
 20
2932.90039990345
 30
0.0
 11
3952.762131327725
 21
2922.900399903451
 31
0.0
 12
3922.762131327725
 22
2927.90039990345
 32
0.0
 13
3922.762131327725
 23
2927.90039990345
 33
0.0
  0
SOLID
  5
C396
330
B7F0
100
AcDbEntity
  8
寸法引出
 48
25.0
100
AcDbTrace
 10
5892.762131327724
 20
2932.90039990345
 30
0.0
 11
5892.762131327724
 21
2922.900399903451
 31
0.0
 12
5922.762131327726
 22
2927.90039990345
 32
0.0
 13
5922.762131327726
 23
2927.90039990345
 33
0.0
  0
MTEXT
  5
C397
330
B7F0
100
AcDbEntity
  8
寸法引出
 48
25.0
100
AcDbMText
 10
4922.762131327726
 20
2967.900399903451
 30
0.0
 40
40.0
 41
0.0
 71
     5
 72
     1
  1
\A1;2000
  7
SANWA
 73
     1
 44
1.0
  0
POINT
  5
C398
330
B7F0
100
AcDbEntity
  8
DEFPOINTS
 62
     0
 48
25.0
100
AcDbPoint
 10
3922.762131327725
 20
3096.381907904721
 30
0.0
  0
POINT
  5
C399
330
B7F0
100
AcDbEntity
  8
DEFPOINTS
 62
     0
 48
25.0
100
AcDbPoint
 10
5922.762131327726
 20
3096.381907904721
 30
0.0
  0
POINT
  5
C39A
330
B7F0
100
AcDbEntity
  8
DEFPOINTS
 62
     0
 48
25.0
100
AcDbPoint
 10
5922.762131327726
 20
2927.90039990345
 30
0.0
  0
ENDBLK
  5
B7FB
330
B7F0
100
AcDbEntity
  8
0
 48
25.0
100
AcDbBlockEnd
  0
BLOCK
  5
B808
330
B7FC
100
AcDbEntity
  8
0
 48
25.0
100
AcDbBlockBegin
  2
*D75
 70
     1
 10
0.0
 20
0.0
 30
0.0
  3
*D75
  1

  0
LINE
  5
C3AD
330
B7FC
100
AcDbEntity
  8
寸法引出
 48
25.0
370
    -2
100
AcDbLine
 10
3922.762131327725
 20
3660.881907904721
 30
0.0
 11
3922.762131327725
 21
3681.440398842077
 31
0.0
  0
LINE
  5
C3AE
330
B7FC
100
AcDbEntity
  8
寸法引出
 48
25.0
370
    -2
100
AcDbLine
 10
3972.762131327725
 20
3636.381907904721
 30
0.0
 11
3972.762131327725
 21
3681.440398842077
 31
0.0
  0
LINE
  5
C3AF
330
B7FC
100
AcDbEntity
  8
寸法引出
 48
25.0
370
    -2
100
AcDbLine
 10
3892.762131327724
 20
3671.440398842077
 30
0.0
 11
3862.762131327725
 21
3671.440398842077
 31
0.0
  0
LINE
  5
C3B0
330
B7FC
100
AcDbEntity
  8
寸法引出
 48
25.0
370
    -2
100
AcDbLine
 10
4002.762131327725
 20
3671.440398842077
 30
0.0
 11
4032.762131327724
 21
3671.440398842077
 31
0.0
  0
LINE
  5
C3B1
330
B7FC
100
AcDbEntity
  8
寸法引出
 48
25.0
370
    -2
100
AcDbLine
 10
3922.762131327725
 20
3671.440398842077
 30
0.0
 11
3972.762131327725
 21
3671.440398842077
 31
0.0
  0
SOLID
  5
C3B2
330
B7FC
100
AcDbEntity
  8
寸法引出
 48
25.0
100
AcDbTrace
 10
3892.762131327724
 20
3676.440398842077
 30
0.0
 11
3892.762131327724
 21
3666.440398842076
 31
0.0
 12
3922.762131327725
 22
3671.440398842077
 32
0.0
 13
3922.762131327725
 23
3671.440398842077
 33
0.0
  0
SOLID
  5
C3B3
330
B7FC
100
AcDbEntity
  8
寸法引出
 48
25.0
100
AcDbTrace
 10
4002.762131327725
 20
3676.440398842077
 30
0.0
 11
4002.762131327725
 21
3666.440398842076
 31
0.0
 12
3972.762131327725
 22
3671.440398842077
 32
0.0
 13
3972.762131327725
 23
3671.440398842077
 33
0.0
  0
MTEXT
  5
C3B4
330
B7FC
100
AcDbEntity
  8
寸法引出
 48
25.0
100
AcDbMText
 10
3947.762131327725
 20
3711.440398842077
 30
0.0
 40
40.0
 41
0.0
 71
     5
 72
     1
  1
\A1;50
  7
SANWA
 73
     1
 44
1.0
  0
POINT
  5
C3B5
330
B7FC
100
AcDbEntity
  8
DEFPOINTS
 62
     0
 48
25.0
100
AcDbPoint
 10
3922.762131327725
 20
3640.881907904721
 30
0.0
  0
POINT
  5
C3B6
330
B7FC
100
AcDbEntity
  8
DEFPOINTS
 62
     0
 48
25.0
100
AcDbPoint
 10
3972.762131327725
 20
3616.381907904721
 30
0.0
  0
POINT
  5
C3B7
330
B7FC
100
AcDbEntity
  8
DEFPOINTS
 62
     0
 48
25.0
100
AcDbPoint
 10
3972.762131327725
 20
3671.440398842077
 30
0.0
  0
ENDBLK
  5
B809
330
B7FC
100
AcDbEntity
  8
0
 48
25.0
100
AcDbBlockEnd
  0
BLOCK
  5
B814
330
B80A
100
AcDbEntity
  8
0
 48
25.0
100
AcDbBlockBegin
  2
*D76
 70
     1
 10
0.0
 20
0.0
 30
0.0
  3
*D76
  1

  0
LINE
  5
C39B
330
B80A
100
AcDbEntity
  8
寸法引出
 48
25.0
370
    -2
100
AcDbLine
 10
3902.762131327725
 20
3766.381907904721
 30
0.0
 11
3825.856253632302
 21
3766.381907904721
 31
0.0
  0
LINE
  5
C39C
330
B80A
100
AcDbEntity
  8
寸法引出
 48
25.0
370
    -2
100
AcDbLine
 10
3902.762131327725
 20
3616.381907904721
 30
0.0
 11
3825.856253632302
 21
3616.381907904721
 31
0.0
  0
LINE
  5
C39D
330
B80A
100
AcDbEntity
  8
寸法引出
 48
25.0
370
    -2
100
AcDbLine
 10
3835.856253632302
 20
3736.381907904721
 30
0.0
 11
3835.856253632302
 21
3646.381907904721
 31
0.0
  0
SOLID
  5
C39E
330
B80A
100
AcDbEntity
  8
寸法引出
 48
25.0
100
AcDbTrace
 10
3830.856253632302
 20
3736.381907904721
 30
0.0
 11
3840.856253632302
 21
3736.381907904721
 31
0.0
 12
3835.856253632302
 22
3766.381907904721
 32
0.0
 13
3835.856253632302
 23
3766.381907904721
 33
0.0
  0
SOLID
  5
C39F
330
B80A
100
AcDbEntity
  8
寸法引出
 48
25.0
100
AcDbTrace
 10
3830.856253632302
 20
3646.381907904721
 30
0.0
 11
3840.856253632302
 21
3646.381907904721
 31
0.0
 12
3835.856253632302
 22
3616.381907904721
 32
0.0
 13
3835.856253632302
 23
3616.381907904721
 33
0.0
  0
MTEXT
  5
C3A0
330
B80A
100
AcDbEntity
  8
寸法引出
 48
25.0
100
AcDbMText
 10
3795.856253632301
 20
3691.381907904721
 30
0.0
 40
40.0
 41
0.0
 71
     5
 72
     1
  1
\A1;150
  7
SANWA
 11
0.0000000000000001
 21
1.0
 31
0.0
 73
     1
 44
1.0
  0
POINT
  5
C3A1
330
B80A
100
AcDbEntity
  8
DEFPOINTS
 62
     0
 48
25.0
100
AcDbPoint
 10
3922.762131327725
 20
3766.381907904721
 30
0.0
  0
POINT
  5
C3A2
330
B80A
100
AcDbEntity
  8
DEFPOINTS
 62
     0
 48
25.0
100
AcDbPoint
 10
3922.762131327725
 20
3616.381907904721
 30
0.0
  0
POINT
  5
C3A3
330
B80A
100
AcDbEntity
  8
DEFPOINTS
 62
     0
 48
25.0
100
AcDbPoint
 10
3835.856253632302
 20
3616.381907904721
 30
0.0
  0
ENDBLK
  5
B815
330
B80A
100
AcDbEntity
  8
0
 48
25.0
100
AcDbBlockEnd
  0
BLOCK
  5
B82C
330
B823
100
AcDbEntity
  8
0
 48
25.0
100
AcDbBlockBegin
  2
*D77
 70
     1
 10
0.0
 20
0.0
 30
0.0
  3
*D77
  1

  0
LINE
  5
C381
330
B823
100
AcDbEntity
  8
寸法引出
 48
25.0
370
    -2
100
AcDbLine
 10
5802.762131327725
 20
3786.381907904721
 30
0.0
 11
5802.762131327725
 21
3898.446434966673
 31
0.0
  0
LINE
  5
C382
330
B823
100
AcDbEntity
  8
寸法引出
 48
25.0
370
    -2
100
AcDbLine
 10
5072.762131327725
 20
3888.446434966672
 30
0.0
 11
5772.762131327725
 21
3888.446434966672
 31
0.0
  0
SOLID
  5
C383
330
B823
100
AcDbEntity
  8
寸法引出
 48
25.0
100
AcDbTrace
 10
5072.762131327725
 20
3893.446434966672
 30
0.0
 11
5072.762131327725
 21
3883.446434966673
 31
0.0
 12
5042.762131327725
 22
3888.446434966672
 32
0.0
 13
5042.762131327725
 23
3888.446434966672
 33
0.0
  0
SOLID
  5
C384
330
B823
100
AcDbEntity
  8
寸法引出
 48
25.0
100
AcDbTrace
 10
5772.762131327725
 20
3893.446434966672
 30
0.0
 11
5772.762131327725
 21
3883.446434966673
 31
0.0
 12
5802.762131327725
 22
3888.446434966672
 32
0.0
 13
5802.762131327725
 23
3888.446434966672
 33
0.0
  0
MTEXT
  5
C385
330
B823
100
AcDbEntity
  8
寸法引出
 48
25.0
100
AcDbMText
 10
5422.762131327726
 20
3928.446434966673
 30
0.0
 40
40.0
 41
0.0
 71
     5
 72
     1
  1
\A1;760
  7
SANWA
 73
     1
 44
1.0
  0
POINT
  5
C386
330
B823
100
AcDbEntity
  8
DEFPOINTS
 62
     0
 48
25.0
100
AcDbPoint
 10
5042.762131327725
 20
3766.381907904721
 30
0.0
  0
POINT
  5
C387
330
B823
100
AcDbEntity
  8
DEFPOINTS
 62
     0
 48
25.0
100
AcDbPoint
 10
5802.762131327725
 20
3766.381907904721
 30
0.0
  0
POINT
  5
C388
330
B823
100
AcDbEntity
  8
DEFPOINTS
 62
     0
 48
25.0
100
AcDbPoint
 10
5802.762131327725
 20
3888.446434966672
 30
0.0
  0
ENDBLK
  5
B82D
330
B823
100
AcDbEntity
  8
0
 48
25.0
100
AcDbBlockEnd
  0
BLOCK
  5
B837
330
B82E
100
AcDbEntity
  8
0
 48
25.0
100
AcDbBlockBegin
  2
*D78
 70
     1
 10
0.0
 20
0.0
 30
0.0
  3
*D78
  1

  0
LINE
  5
C3D1
330
B82E
100
AcDbEntity
  8
寸法引出
 48
25.0
370
    -2
100
AcDbLine
 10
5922.762131327726
 20
3786.381907904721
 30
0.0
 11
5922.762131327726
 21
3898.446434966673
 31
0.0
  0
LINE
  5
C3D2
330
B82E
100
AcDbEntity
  8
寸法引出
 48
25.0
370
    -2
100
AcDbLine
 10
5832.762131327725
 20
3888.446434966672
 30
0.0
 11
5892.762131327724
 21
3888.446434966672
 31
0.0
  0
SOLID
  5
C3D3
330
B82E
100
AcDbEntity
  8
寸法引出
 48
25.0
100
AcDbTrace
 10
5832.762131327725
 20
3893.446434966672
 30
0.0
 11
5832.762131327725
 21
3883.446434966673
 31
0.0
 12
5802.762131327725
 22
3888.446434966672
 32
0.0
 13
5802.762131327725
 23
3888.446434966672
 33
0.0
  0
SOLID
  5
C3D4
330
B82E
100
AcDbEntity
  8
寸法引出
 48
25.0
100
AcDbTrace
 10
5892.762131327724
 20
3893.446434966672
 30
0.0
 11
5892.762131327724
 21
3883.446434966673
 31
0.0
 12
5922.762131327726
 22
3888.446434966672
 32
0.0
 13
5922.762131327726
 23
3888.446434966672
 33
0.0
  0
MTEXT
  5
C3D5
330
B82E
100
AcDbEntity
  8
寸法引出
 48
25.0
100
AcDbMText
 10
5862.762131327725
 20
3928.446434966673
 30
0.0
 40
40.0
 41
0.0
 71
     5
 72
     1
  1
\A1;120
  7
SANWA
 73
     1
 44
1.0
  0
POINT
  5
C3D6
330
B82E
100
AcDbEntity
  8
DEFPOINTS
 62
     0
 48
25.0
100
AcDbPoint
 10
5802.762131327725
 20
3766.381907904721
 30
0.0
  0
POINT
  5
C3D7
330
B82E
100
AcDbEntity
  8
DEFPOINTS
 62
     0
 48
25.0
100
AcDbPoint
 10
5922.762131327726
 20
3766.381907904721
 30
0.0
  0
POINT
  5
C3D8
330
B82E
100
AcDbEntity
  8
DEFPOINTS
 62
     0
 48
25.0
100
AcDbPoint
 10
5922.762131327726
 20
3888.446434966672
 30
0.0
  0
ENDBLK
  5
B838
330
B82E
100
AcDbEntity
  8
0
 48
25.0
100
AcDbBlockEnd
  0
BLOCK
  5
BDE6
330
BDDC
100
AcDbEntity
  8
0
 48
25.0
100
AcDbBlockBegin
  2
*D79
 70
     1
 10
0.0
 20
0.0
 30
0.0
  3
*D79
  1

  0
LINE
  5
BF94
330
BDDC
100
AcDbEntity
  8
寸法引出
 48
25.0
370
    -2
100
AcDbLine
 10
15337.03411491812
 20
-2971.946151430943
 30
0.0
 11
15232.37214037289
 21
-2966.713052703681
 31
0.0
  0
LINE
  5
BF95
330
BDDC
100
AcDbEntity
  8
寸法引出
 48
25.0
370
    -2
100
AcDbLine
 10
15313.0141211681
 20
-3452.346026431186
 30
0.0
 11
15208.35214662287
 21
-3447.112927703925
 31
0.0
  0
LINE
  5
BF96
330
BDDC
100
AcDbEntity
  8
寸法引出
 48
25.0
370
    -2
100
AcDbLine
 10
15240.86153525335
 20
-2997.174999039455
 30
0.0
 11
15219.83779851997
 21
-3417.649733707028
 31
0.0
  0
SOLID
  5
BF97
330
BDDC
100
AcDbEntity
  8
寸法引出
 48
25.0
100
AcDbTrace
 10
15235.86777355896
 20
-2996.925310954736
 30
0.0
 11
15245.85529694774
 21
-2997.424687124174
 31
0.0
 12
15242.35966376166
 22
-2967.21242887312
 32
0.0
 13
15242.35966376166
 23
-2967.21242887312
 33
0.0
  0
SOLID
  5
BF98
330
BDDC
100
AcDbEntity
  8
寸法引出
 48
25.0
100
AcDbTrace
 10
15214.84403682558
 20
-3417.400045622309
 30
0.0
 11
15224.83156021436
 21
-3417.899421791747
 31
0.0
 12
15218.33967001165
 22
-3447.612303873364
 32
0.0
 13
15218.33967001165
 23
-3447.612303873364
 33
0.0
  0
MTEXT
  5
BF99
330
BDDC
100
AcDbEntity
  8
寸法引出
 48
25.0
100
AcDbMText
 10
15190.39957333154
 20
-3205.414861695487
 30
0.0
 40
40.0
 41
0.0
 71
     5
 72
     1
  1
\A1;481
  7
SANWA
 11
0.0499376169438938
 21
0.9987523388778447
 31
0.0
 73
     1
 44
1.0
  0
POINT
  5
BF9A
330
BDDC
100
AcDbEntity
  8
DEFPOINTS
 62
     0
 48
25.0
100
AcDbPoint
 10
15357.00916169567
 20
-2972.94490376982
 30
0.0
  0
POINT
  5
BF9B
330
BDDC
100
AcDbEntity
  8
DEFPOINTS
 62
     0
 48
25.0
100
AcDbPoint
 10
15332.98916794566
 20
-3453.344778770064
 30
0.0
  0
POINT
  5
BF9C
330
BDDC
100
AcDbEntity
  8
DEFPOINTS
 62
     0
 48
25.0
100
AcDbPoint
 10
15218.33967001165
 20
-3447.612303873364
 30
0.0
  0
ENDBLK
  5
BDE7
330
BDDC
100
AcDbEntity
  8
0
 48
25.0
100
AcDbBlockEnd
  0
BLOCK
  5
BDF2
330
BDE8
100
AcDbEntity
  8
0
 48
25.0
100
AcDbBlockBegin
  2
*D80
 70
     1
 10
0.0
 20
0.0
 30
0.0
  3
*D80
  1

  0
LINE
  5
BF9D
330
BDE8
100
AcDbEntity
  8
寸法引出
 48
25.0
370
    -2
100
AcDbLine
 10
14489.73227844216
 20
-3102.109587316153
 30
0.0
 11
14489.73227844216
 21
-3013.204168812388
 31
0.0
  0
LINE
  5
BF9E
330
BDE8
100
AcDbEntity
  8
寸法引出
 48
25.0
370
    -2
100
AcDbLine
 10
14859.73227844216
 20
-3102.109587316153
 30
0.0
 11
14859.73227844216
 21
-3013.204168812388
 31
0.0
  0
LINE
  5
BF9F
330
BDE8
100
AcDbEntity
  8
寸法引出
 48
25.0
370
    -2
100
AcDbLine
 10
14519.73227844216
 20
-3023.204168812388
 30
0.0
 11
14829.73227844216
 21
-3023.204168812388
 31
0.0
  0
SOLID
  5
BFA0
330
BDE8
100
AcDbEntity
  8
寸法引出
 48
25.0
100
AcDbTrace
 10
14519.73227844216
 20
-3018.204168812388
 30
0.0
 11
14519.73227844216
 21
-3028.204168812388
 31
0.0
 12
14489.73227844216
 22
-3023.204168812388
 32
0.0
 13
14489.73227844216
 23
-3023.204168812388
 33
0.0
  0
SOLID
  5
BFA1
330
BDE8
100
AcDbEntity
  8
寸法引出
 48
25.0
100
AcDbTrace
 10
14829.73227844216
 20
-3018.204168812388
 30
0.0
 11
14829.73227844216
 21
-3028.204168812388
 31
0.0
 12
14859.73227844216
 22
-3023.204168812388
 32
0.0
 13
14859.73227844216
 23
-3023.204168812388
 33
0.0
  0
MTEXT
  5
BFA2
330
BDE8
100
AcDbEntity
  8
寸法引出
 48
25.0
100
AcDbMText
 10
14674.73227844216
 20
-2983.204168812388
 30
0.0
 40
40.0
 41
0.0
 71
     5
 72
     1
  1
\A1;370
  7
SANWA
 73
     1
 44
1.0
  0
POINT
  5
BFA3
330
BDE8
100
AcDbEntity
  8
DEFPOINTS
 62
     0
 48
25.0
100
AcDbPoint
 10
14489.73227844216
 20
-3122.109587316153
 30
0.0
  0
POINT
  5
BFA4
330
BDE8
100
AcDbEntity
  8
DEFPOINTS
 62
     0
 48
25.0
100
AcDbPoint
 10
14859.73227844216
 20
-3122.109587316153
 30
0.0
  0
POINT
  5
BFA5
330
BDE8
100
AcDbEntity
  8
DEFPOINTS
 62
     0
 48
25.0
100
AcDbPoint
 10
14859.73227844216
 20
-3023.204168812388
 30
0.0
  0
ENDBLK
  5
BDF3
330
BDE8
100
AcDbEntity
  8
0
 48
25.0
100
AcDbBlockEnd
  0
BLOCK
  5
BDFE
330
BDF4
100
AcDbEntity
  8
0
 48
25.0
100
AcDbBlockBegin
  2
*D81
 70
     1
 10
0.0
 20
0.0
 30
0.0
  3
*D81
  1

  0
LINE
  5
BFA6
330
BDF4
100
AcDbEntity
  8
寸法引出
 48
25.0
370
    -2
100
AcDbLine
 10
15789.28406720499
 20
-1765.172263911374
 30
0.0
 11
15975.59984187553
 21
-1765.172263911375
 31
0.0
  0
LINE
  5
BFA7
330
BDF4
100
AcDbEntity
  8
寸法引出
 48
25.0
370
    -2
100
AcDbLine
 10
15789.28406720499
 20
-3705.172263911375
 30
0.0
 11
15975.59984187553
 21
-3705.172263911375
 31
0.0
  0
LINE
  5
BFA8
330
BDF4
100
AcDbEntity
  8
寸法引出
 48
25.0
370
    -2
100
AcDbLine
 10
15965.59984187553
 20
-1795.172263911374
 30
0.0
 11
15965.59984187553
 21
-3675.172263911374
 31
0.0
  0
SOLID
  5
BFA9
330
BDF4
100
AcDbEntity
  8
寸法引出
 48
25.0
100
AcDbTrace
 10
15960.59984187553
 20
-1795.172263911374
 30
0.0
 11
15970.59984187553
 21
-1795.172263911374
 31
0.0
 12
15965.59984187553
 22
-1765.172263911375
 32
0.0
 13
15965.59984187553
 23
-1765.172263911375
 33
0.0
  0
SOLID
  5
BFAA
330
BDF4
100
AcDbEntity
  8
寸法引出
 48
25.0
100
AcDbTrace
 10
15960.59984187553
 20
-3675.172263911374
 30
0.0
 11
15970.59984187553
 21
-3675.172263911374
 31
0.0
 12
15965.59984187553
 22
-3705.172263911375
 32
0.0
 13
15965.59984187553
 23
-3705.172263911375
 33
0.0
  0
MTEXT
  5
BFAB
330
BDF4
100
AcDbEntity
  8
寸法引出
 48
25.0
100
AcDbMText
 10
15925.59984187553
 20
-2735.172263911371
 30
0.0
 40
40.0
 41
0.0
 71
     5
 72
     1
  1
\A1;1940
  7
SANWA
 11
0.0000000000000001
 21
1.0
 31
0.0
 73
     1
 44
1.0
  0
POINT
  5
BFAC
330
BDF4
100
AcDbEntity
  8
DEFPOINTS
 62
     0
 48
25.0
100
AcDbPoint
 10
15769.28406720499
 20
-1765.172263911374
 30
0.0
  0
POINT
  5
BFAD
330
BDF4
100
AcDbEntity
  8
DEFPOINTS
 62
     0
 48
25.0
100
AcDbPoint
 10
15769.28406720499
 20
-3705.172263911375
 30
0.0
  0
POINT
  5
BFAE
330
BDF4
100
AcDbEntity
  8
DEFPOINTS
 62
     0
 48
25.0
100
AcDbPoint
 10
15965.59984187553
 20
-3705.172263911375
 30
0.0
  0
ENDBLK
  5
BDFF
330
BDF4
100
AcDbEntity
  8
0
 48
25.0
100
AcDbBlockEnd
  0
BLOCK
  5
BE0B
330
BE00
100
AcDbEntity
  8
0
 48
25.0
100
AcDbBlockBegin
  2
*D82
 70
     1
 10
0.0
 20
0.0
 30
0.0
  3
*D82
  1

  0
LINE
  5
BFAF
330
BE00
100
AcDbEntity
  8
寸法引出
 48
25.0
370
    -2
100
AcDbLine
 10
15039.05142574711
 20
-2451.639390479133
 30
0.0
 11
15039.05142574711
 21
-2555.277985415115
 31
0.0
  0
LINE
  5
BFB0
330
BE00
100
AcDbEntity
  8
寸法引出
 48
25.0
370
    -2
100
AcDbLine
 10
15159.05142574711
 20
-2331.639390479133
 30
0.0
 11
15262.6900206831
 21
-2331.639390479132
 31
0.0
  0
ARC
  5
BFB1
330
BE00
100
AcDbEntity
  8
寸法引出
 48
25.0
370
    -2
100
AcDbCircle
 10
15039.05142574711
 20
-2331.639390479133
 30
0.0
 40
213.6385949359847
100
AcDbArc
 50
278.0523315159738
 51
351.9476684840261
  0
SOLID
  5
BFB2
330
BE00
100
AcDbEntity
  8
寸法引出
 48
25.0
100
AcDbTrace
 10
15069.32844860869
 20
-2548.159284885763
 30
0.0
 11
15068.62632828233
 21
-2538.183963986298
 31
0.0
 12
15039.05142574711
 22
-2545.277985415117
 32
0.0
 13
15039.05142574711
 23
-2545.277985415117
 33
0.0
  0
SOLID
  5
BFB3
330
BE00
100
AcDbEntity
  8
寸法引出
 48
25.0
100
AcDbTrace
 10
15245.59599925428
 20
-2361.214293014346
 30
0.0
 11
15255.57132015374
 21
-2361.916413340708
 31
0.0
 12
15252.69002068309
 22
-2331.639390479132
 32
0.0
 13
15252.69002068309
 23
-2331.639390479132
 33
0.0
  0
MTEXT
  5
BFB4
330
BE00
100
AcDbEntity
  8
寸法引出
 48
25.0
100
AcDbMText
 10
15161.83245370205
 20
-2454.420418434073
 30
0.0
 40
40.0
 41
0.0
 71
     5
 72
     1
  1
\A1;157
  7
SANWA
 11
0.7071067811865476
 21
0.7071067811865475
 31
0.0
 73
     1
 44
1.0
  0
POINT
  5
BFB5
330
BE00
100
AcDbEntity
  8
DEFPOINTS
 62
     0
 48
25.0
100
AcDbPoint
 10
15039.05142574711
 20
-2331.639390479133
 30
0.0
  0
POINT
  5
BFB6
330
BE00
100
AcDbEntity
  8
DEFPOINTS
 62
     0
 48
25.0
100
AcDbPoint
 10
15039.05142574711
 20
-2431.63939047913
 30
0.0
  0
POINT
  5
BFB7
330
BE00
100
AcDbEntity
  8
DEFPOINTS
 62
     0
 48
25.0
100
AcDbPoint
 10
15139.05142574711
 20
-2331.639390479131
 30
0.0
  0
POINT
  5
BFB8
330
BE00
100
AcDbEntity
  8
DEFPOINTS
 62
     0
 48
25.0
100
AcDbPoint
 10
15145.8707232151
 20
-2516.65584092251
 30
0.0
  0
ENDBLK
  5
BE0C
330
BE00
100
AcDbEntity
  8
0
 48
25.0
100
AcDbBlockEnd
  0
BLOCK
  5
BE2D
330
BE23
100
AcDbEntity
  8
0
 48
25.0
100
AcDbBlockBegin
  2
*D83
 70
     1
 10
0.0
 20
0.0
 30
0.0
  3
*D83
  1

  0
LINE
  5
BFC9
330
BE23
100
AcDbEntity
  8
寸法引出
 48
25.0
370
    -2
100
AcDbLine
 10
14759.05142574711
 20
-1791.639390479131
 30
0.0
 11
14655.25393320696
 21
-1791.639390479131
 31
0.0
  0
LINE
  5
BFCA
330
BE23
100
AcDbEntity
  8
寸法引出
 48
25.0
370
    -2
100
AcDbLine
 10
14759.05142574711
 20
-2331.639390479131
 30
0.0
 11
14655.25393320696
 21
-2331.639390479131
 31
0.0
  0
LINE
  5
BFCB
330
BE23
100
AcDbEntity
  8
寸法引出
 48
25.0
370
    -2
100
AcDbLine
 10
14665.25393320696
 20
-1821.639390479131
 30
0.0
 11
14665.25393320696
 21
-2301.639390479131
 31
0.0
  0
SOLID
  5
BFCC
330
BE23
100
AcDbEntity
  8
寸法引出
 48
25.0
100
AcDbTrace
 10
14660.25393320696
 20
-1821.639390479131
 30
0.0
 11
14670.25393320696
 21
-1821.639390479131
 31
0.0
 12
14665.25393320696
 22
-1791.639390479131
 32
0.0
 13
14665.25393320696
 23
-1791.639390479131
 33
0.0
  0
SOLID
  5
BFCD
330
BE23
100
AcDbEntity
  8
寸法引出
 48
25.0
100
AcDbTrace
 10
14660.25393320696
 20
-2301.639390479131
 30
0.0
 11
14670.25393320696
 21
-2301.639390479131
 31
0.0
 12
14665.25393320696
 22
-2331.639390479131
 32
0.0
 13
14665.25393320696
 23
-2331.639390479131
 33
0.0
  0
MTEXT
  5
BFCE
330
BE23
100
AcDbEntity
  8
寸法引出
 48
25.0
100
AcDbMText
 10
14625.25393320696
 20
-2061.639390479129
 30
0.0
 40
40.0
 41
0.0
 71
     5
 72
     1
  1
\A1;540
  7
SANWA
 11
0.0000000000000001
 21
1.0
 31
0.0
 73
     1
 44
1.0
  0
POINT
  5
BFCF
330
BE23
100
AcDbEntity
  8
DEFPOINTS
 62
     0
 48
25.0
100
AcDbPoint
 10
14779.05142574711
 20
-1791.639390479131
 30
0.0
  0
POINT
  5
BFD0
330
BE23
100
AcDbEntity
  8
DEFPOINTS
 62
     0
 48
25.0
100
AcDbPoint
 10
14779.05142574711
 20
-2331.639390479131
 30
0.0
  0
POINT
  5
BFD1
330
BE23
100
AcDbEntity
  8
DEFPOINTS
 62
     0
 48
25.0
100
AcDbPoint
 10
14665.25393320696
 20
-2331.639390479131
 30
0.0
  0
ENDBLK
  5
BE2E
330
BE23
100
AcDbEntity
  8
0
 48
25.0
100
AcDbBlockEnd
  0
BLOCK
  5
BE3A
330
BE2F
100
AcDbEntity
  8
0
 48
25.0
100
AcDbBlockBegin
  2
*D84
 70
     1
 10
0.0
 20
0.0
 30
0.0
  3
*D84
  1

  0
LINE
  5
BFD2
330
BE2F
100
AcDbEntity
  8
寸法引出
 48
25.0
370
    -2
100
AcDbLine
 10
14759.0514257471
 20
-2331.639390479133
 30
0.0
 11
14655.25393320695
 21
-2331.639390479134
 31
0.0
  0
LINE
  5
BFD3
330
BE2F
100
AcDbEntity
  8
寸法引出
 48
25.0
370
    -2
100
AcDbLine
 10
14879.05142574711
 20
-2451.639390479132
 30
0.0
 11
14879.05142574711
 21
-2555.436883019283
 31
0.0
  0
ARC
  5
BFD4
330
BE2F
100
AcDbEntity
  8
寸法引出
 48
25.0
370
    -2
100
AcDbCircle
 10
14879.05142574711
 20
-2331.639390479133
 30
0.0
 40
213.7974925401519
100
AcDbArc
 50
188.0463370397663
 51
261.9536629602343
  0
SOLID
  5
BFD5
330
BE2F
100
AcDbEntity
  8
寸法引出
 48
25.0
100
AcDbTrace
 10
14662.37104989852
 20
-2361.916262573688
 30
0.0
 11
14672.34640751343
 21
-2361.214664074015
 31
0.0
 12
14665.25393320695
 22
-2331.639390479134
 32
0.0
 13
14665.25393320695
 23
-2331.639390479134
 33
0.0
  0
SOLID
  5
BFD6
330
BE2F
100
AcDbEntity
  8
寸法引出
 48
25.0
100
AcDbTrace
 10
14849.47615215223
 20
-2538.344408712815
 30
0.0
 11
14848.77455365255
 21
-2548.319766327719
 31
0.0
 12
14879.05142574711
 22
-2545.436883019284
 32
0.0
 13
14879.05142574711
 23
-2545.436883019284
 33
0.0
  0
MTEXT
  5
BFD7
330
BE2F
100
AcDbEntity
  8
寸法引出
 48
25.0
100
AcDbMText
 10
14756.15804021875
 20
-2454.532776007491
 30
0.0
 40
40.0
 41
0.0
 71
     5
 72
     1
  1
\A1;157
  7
SANWA
 11
0.7071067811865476
 21
-0.7071067811865475
 31
0.0
 73
     1
 44
1.0
  0
POINT
  5
BFD8
330
BE2F
100
AcDbEntity
  8
DEFPOINTS
 62
     0
 48
25.0
100
AcDbPoint
 10
14879.05142574711
 20
-2331.639390479133
 30
0.0
  0
POINT
  5
BFD9
330
BE2F
100
AcDbEntity
  8
DEFPOINTS
 62
     0
 48
25.0
100
AcDbPoint
 10
14779.05142574711
 20
-2331.639390479133
 30
0.0
  0
POINT
  5
BFDA
330
BE2F
100
AcDbEntity
  8
DEFPOINTS
 62
     0
 48
25.0
100
AcDbPoint
 10
14879.05142574711
 20
-2431.63939047913
 30
0.0
  0
POINT
  5
BFDB
330
BE2F
100
AcDbEntity
  8
DEFPOINTS
 62
     0
 48
25.0
100
AcDbPoint
 10
14693.89736594192
 20
-2438.538136749209
 30
0.0
  0
ENDBLK
  5
BE3B
330
BE2F
100
AcDbEntity
  8
0
 48
25.0
100
AcDbBlockEnd
  0
BLOCK
  5
BE46
330
BE3C
100
AcDbEntity
  8
0
 48
25.0
100
AcDbBlockBegin
  2
*D85
 70
     1
 10
0.0
 20
0.0
 30
0.0
  3
*D85
  1

  0
LINE
  5
BFDC
330
BE3C
100
AcDbEntity
  8
寸法引出
 48
25.0
370
    -2
100
AcDbLine
 10
14879.05142574711
 20
-2451.639390479131
 30
0.0
 11
14879.05142574711
 21
-2555.277985415118
 31
0.0
  0
LINE
  5
BFDD
330
BE3C
100
AcDbEntity
  8
寸法引出
 48
25.0
370
    -2
100
AcDbLine
 10
15039.05142574711
 20
-2451.639390479131
 30
0.0
 11
15039.05142574711
 21
-2555.277985415118
 31
0.0
  0
LINE
  5
BFDE
330
BE3C
100
AcDbEntity
  8
寸法引出
 48
25.0
370
    -2
100
AcDbLine
 10
14909.05142574711
 20
-2545.277985415118
 30
0.0
 11
15009.05142574711
 21
-2545.277985415118
 31
0.0
  0
SOLID
  5
BFDF
330
BE3C
100
AcDbEntity
  8
寸法引出
 48
25.0
100
AcDbTrace
 10
14909.05142574711
 20
-2540.277985415118
 30
0.0
 11
14909.05142574711
 21
-2550.277985415118
 31
0.0
 12
14879.05142574711
 22
-2545.277985415118
 32
0.0
 13
14879.05142574711
 23
-2545.277985415118
 33
0.0
  0
SOLID
  5
BFE0
330
BE3C
100
AcDbEntity
  8
寸法引出
 48
25.0
100
AcDbTrace
 10
15009.05142574711
 20
-2540.277985415118
 30
0.0
 11
15009.05142574711
 21
-2550.277985415118
 31
0.0
 12
15039.05142574711
 22
-2545.277985415118
 32
0.0
 13
15039.05142574711
 23
-2545.277985415118
 33
0.0
  0
MTEXT
  5
BFE1
330
BE3C
100
AcDbEntity
  8
寸法引出
 48
25.0
100
AcDbMText
 10
14959.05142574711
 20
-2505.277985415118
 30
0.0
 40
40.0
 41
0.0
 71
     5
 72
     1
  1
\A1;160
  7
SANWA
 73
     1
 44
1.0
  0
POINT
  5
BFE2
330
BE3C
100
AcDbEntity
  8
DEFPOINTS
 62
     0
 48
25.0
100
AcDbPoint
 10
14879.05142574711
 20
-2431.639390479131
 30
0.0
  0
POINT
  5
BFE3
330
BE3C
100
AcDbEntity
  8
DEFPOINTS
 62
     0
 48
25.0
100
AcDbPoint
 10
15039.05142574711
 20
-2431.639390479131
 30
0.0
  0
POINT
  5
BFE4
330
BE3C
100
AcDbEntity
  8
DEFPOINTS
 62
     0
 48
25.0
100
AcDbPoint
 10
15039.05142574711
 20
-2545.277985415118
 30
0.0
  0
ENDBLK
  5
BE47
330
BE3C
100
AcDbEntity
  8
0
 48
25.0
100
AcDbBlockEnd
  0
BLOCK
  5
BE52
330
BE48
100
AcDbEntity
  8
0
 48
25.0
100
AcDbBlockBegin
  2
*D86
 70
     1
 10
0.0
 20
0.0
 30
0.0
  3
*D86
  1

  0
LINE
  5
BFE5
330
BE48
100
AcDbEntity
  8
寸法引出
 48
25.0
370
    -2
100
AcDbLine
 10
15159.05142574711
 20
-1791.639390479131
 30
0.0
 11
15262.6900206831
 21
-1791.639390479131
 31
0.0
  0
LINE
  5
BFE6
330
BE48
100
AcDbEntity
  8
寸法引出
 48
25.0
370
    -2
100
AcDbLine
 10
15159.05142574711
 20
-2331.639390479131
 30
0.0
 11
15262.6900206831
 21
-2331.639390479131
 31
0.0
  0
LINE
  5
BFE7
330
BE48
100
AcDbEntity
  8
寸法引出
 48
25.0
370
    -2
100
AcDbLine
 10
15252.6900206831
 20
-1821.639390479131
 30
0.0
 11
15252.6900206831
 21
-2301.639390479131
 31
0.0
  0
SOLID
  5
BFE8
330
BE48
100
AcDbEntity
  8
寸法引出
 48
25.0
100
AcDbTrace
 10
15247.6900206831
 20
-1821.639390479131
 30
0.0
 11
15257.6900206831
 21
-1821.639390479131
 31
0.0
 12
15252.6900206831
 22
-1791.639390479131
 32
0.0
 13
15252.6900206831
 23
-1791.639390479131
 33
0.0
  0
SOLID
  5
BFE9
330
BE48
100
AcDbEntity
  8
寸法引出
 48
25.0
100
AcDbTrace
 10
15247.6900206831
 20
-2301.639390479131
 30
0.0
 11
15257.6900206831
 21
-2301.639390479131
 31
0.0
 12
15252.6900206831
 22
-2331.639390479131
 32
0.0
 13
15252.6900206831
 23
-2331.639390479131
 33
0.0
  0
MTEXT
  5
BFEA
330
BE48
100
AcDbEntity
  8
寸法引出
 48
25.0
100
AcDbMText
 10
15212.6900206831
 20
-2061.639390479129
 30
0.0
 40
40.0
 41
0.0
 71
     5
 72
     1
  1
\A1;540
  7
SANWA
 11
0.0000000000000001
 21
1.0
 31
0.0
 73
     1
 44
1.0
  0
POINT
  5
BFEB
330
BE48
100
AcDbEntity
  8
DEFPOINTS
 62
     0
 48
25.0
100
AcDbPoint
 10
15139.05142574711
 20
-1791.639390479131
 30
0.0
  0
POINT
  5
BFEC
330
BE48
100
AcDbEntity
  8
DEFPOINTS
 62
     0
 48
25.0
100
AcDbPoint
 10
15139.05142574711
 20
-2331.639390479131
 30
0.0
  0
POINT
  5
BFED
330
BE48
100
AcDbEntity
  8
DEFPOINTS
 62
     0
 48
25.0
100
AcDbPoint
 10
15252.6900206831
 20
-2331.639390479131
 30
0.0
  0
ENDBLK
  5
BE53
330
BE48
100
AcDbEntity
  8
0
 48
25.0
100
AcDbBlockEnd
  0
ENDSEC
  0
SECTION
  2
ENTITIES
  0
DIMENSION
  5
B41B
330
747D
100
AcDbEntity
  8
寸法引出
 48
25.0
100
AcDbDimension
  2
*D74
 10
5922.762131327726
 20
2927.90039990345
 30
0.0
 11
4922.762131327726
 21
2967.900399903451
 31
0.0
 70
    32
 71
     5
 42
2000.0
  3
SANWA
100
AcDbAlignedDimension
 13
3922.762131327725
 23
3096.381907904721
 33
0.0
 14
5922.762131327726
 24
3096.381907904721
 34
0.0
100
AcDbRotatedDimension
1001
ACAD
1000
DSTYLE
1002
{
1070
    40
1040
20.0
1070
    41
1040
1.5
1070
    43
1040
5.0
1070
    44
1040
0.5
1070
   140
1040
2.0
1070
   147
1040
1.0
1070
   176
1070
   256
1070
   177
1070
   256
1070
   178
1070
   256
1002
}
  0
LEADER
  5
B41C
330
747D
100
AcDbEntity
  8
寸法引出
 48
20.0
100
AcDbLeader
  3
SANWA
 76
     2
 10
3649.631789356666
 20
705.7423459423725
 30
0.0
 10
3892.053487129626
 20
705.7423459423725
 30
0.0
1001
ACAD
1000
DSTYLE
1002
{
1070
   140
1040
2.0
1070
    40
1040
20.0
1070
   147
1040
1.0
1070
    44
1040
0.5
1070
    43
1040
5.0
1070
   178
1070
   256
1070
   177
1070
   256
1070
   176
1070
   256
1070
    41
1040
1.5
1002
}
  0
LINE
  5
B41D
330
747D
100
AcDbEntity
  8
0
 48
25.0
100
AcDbLine
 10
3649.631789356666
 20
812.6778734338795
 30
0.0
 11
3749.631789356667
 21
842.6778734338794
 31
0.0
  0
LINE
  5
B41E
330
747D
100
AcDbEntity
  8
0
 48
25.0
100
AcDbLine
 10
3749.631789356667
 20
842.6778734338794
 30
0.0
 11
3699.631789356667
 21
912.6778734338795
 31
0.0
  0
DIMENSION
  5
B41F
330
747D
100
AcDbEntity
  8
寸法引出
 48
25.0
100
AcDbDimension
  2
*D63
 10
3699.631789356667
 20
1110.56788305415
 30
0.0
 11
3649.631789356666
 21
1150.56788305415
 31
0.0
 70
    32
  1
10
 71
     5
 42
100.0
  3
SANWA
100
AcDbAlignedDimension
 13
3599.631789356667
 23
1012.677873433879
 33
0.0
 14
3699.631789356667
 24
1012.677873433879
 34
0.0
100
AcDbRotatedDimension
1001
ACAD
1000
DSTYLE
1002
{
1070
    40
1040
20.0
1070
    41
1040
1.5
1070
    43
1040
5.0
1070
    44
1040
0.5
1070
   140
1040
2.0
1070
   147
1040
1.0
1070
   176
1070
   256
1070
   177
1070
   256
1070
   178
1070
   256
1002
}
  0
LINE
  5
B420
330
747D
100
AcDbEntity
  8
0
100
AcDbLine
 10
3422.454431584268
 20
1402.542040389259
 30
0.0
 11
3882.208890636662
 21
1402.542040389259
 31
0.0
  0
TEXT
  5
B421
330
747D
100
AcDbEntity
  8
0
100
AcDbText
 10
3436.350082345322
 20
1422.106029292091
 30
0.0
 40
60.0
  1
目地詳細図
  7
SANWA
 72
     4
 11
3655.778653773894
 21
1453.306029292091
 31
0.0
100
AcDbText
  0
LINE
  5
B422
330
747D
100
AcDbEntity
  8
0
 48
25.0
100
AcDbLine
 10
3983.631363313012
 20
1012.677873433879
 30
0.0
 11
3699.631789356667
 21
1012.677873433879
 31
0.0
  0
DIMENSION
  5
B423
330
747D
100
AcDbEntity
  8
寸法引出
 48
25.0
100
AcDbDimension
  2
*D62
 10
3749.631789356667
 20
1196.851078528567
 30
0.0
 11
3649.631789356666
 21
1236.851078528568
 31
0.0
 70
    32
  1
20
 71
     5
 42
200.0
  3
SANWA
100
AcDbAlignedDimension
 13
3549.631789356666
 23
1012.677873433879
 33
0.0
 14
3749.631789356667
 24
1012.677873433879
 34
0.0
100
AcDbRotatedDimension
1001
ACAD
1000
DSTYLE
1002
{
1070
    40
1040
20.0
1070
    41
1040
1.5
1070
    43
1040
5.0
1070
    44
1040
0.5
1070
   140
1040
2.0
1070
   147
1040
1.0
1070
   176
1070
   256
1070
   177
1070
   256
1070
   178
1070
   256
1002
}
  0
DIMENSION
  5
B424
330
747D
100
AcDbEntity
  8
寸法引出
 48
25.0
100
AcDbDimension
  2
*D61
 10
3749.631789356667
 20
1110.56788305415
 30
0.0
 11
3724.631789356667
 21
1150.56788305415
 31
0.0
 70
    32
  1
5
 71
     5
 42
50.0
  3
SANWA
100
AcDbAlignedDimension
 13
3699.631789356667
 23
1012.677873433879
 33
0.0
 14
3749.631789356667
 24
1012.677873433879
 34
0.0
100
AcDbRotatedDimension
1001
ACAD
1000
DSTYLE
1002
{
1070
    40
1040
20.0
1070
    41
1040
1.5
1070
    43
1040
5.0
1070
    44
1040
0.5
1070
   140
1040
2.0
1070
   147
1040
1.0
1070
   176
1070
   256
1070
   177
1070
   256
1070
   178
1070
   256
1002
}
  0
DIMENSION
  5
B428
330
747D
100
AcDbEntity
  8
寸法引出
 48
25.0
100
AcDbDimension
  2
*D45
 10
5922.762131327726
 20
2336.955860364498
 30
0.0
 11
4922.762131327726
 21
2376.955860364498
 31
0.0
 70
    32
 71
     5
 42
2000.0
  3
SANWA
100
AcDbAlignedDimension
 13
3922.762131327725
 23
2257.635917105981
 33
0.0
 14
5922.762131327726
 24
2257.635917105981
 34
0.0
100
AcDbRotatedDimension
1001
ACAD
1000
DSTYLE
1002
{
1070
   140
1040
2.0
1070
    40
1040
20.0
1070
   147
1040
1.0
1070
    44
1040
0.5
1070
    43
1040
5.0
1070
   178
1070
   256
1070
   177
1070
   256
1070
   176
1070
   256
1070
    41
1040
1.5
1002
}
  0
DIMENSION
  5
B429
330
747D
100
AcDbEntity
  8
寸法引出
 48
25.0
100
AcDbDimension
  2
*D44
 10
5042.762131327725
 20
3888.446434966672
 30
0.0
 11
4922.762131327726
 21
3928.446434966673
 31
0.0
 70
    32
 71
     5
 42
240.0
  3
SANWA
100
AcDbAlignedDimension
 13
4802.762131327725
 23
3766.381907904721
 33
0.0
 14
5042.762131327725
 24
3766.381907904721
 34
0.0
100
AcDbRotatedDimension
1001
ACAD
1000
DSTYLE
1002
{
1070
    40
1040
20.0
1070
    41
1040
1.5
1070
    43
1040
5.0
1070
    44
1040
0.5
1070
    75
1070
     1
1070
   140
1040
2.0
1070
   147
1040
1.0
1070
   176
1070
   256
1070
   177
1070
   256
1070
   178
1070
   256
1070
   279
1070
     1
1002
}
  0
LINE
  5
B431
330
747D
100
AcDbEntity
  8
0
 48
25.0
100
AcDbLine
 10
5912.762131327725
 20
3086.381907904721
 30
0.0
 11
3932.762131327725
 21
3086.381907904721
 31
0.0
  0
LINE
  5
B432
330
747D
100
AcDbEntity
  8
0
 48
25.0
100
AcDbLine
 10
3922.762131327725
 20
3766.381907904721
 30
0.0
 11
5922.762131327726
 21
3766.381907904721
 31
0.0
  0
LINE
  5
B433
330
747D
100
AcDbEntity
  8
0
 48
25.0
100
AcDbLine
 10
5922.762131327726
 20
1857.635917105981
 30
0.0
 11
3922.762131327725
 21
1857.635917105981
 31
0.0
  0
LINE
  5
B434
330
747D
100
AcDbEntity
  8
0
 48
25.0
100
AcDbLine
 10
3922.762131327725
 20
2257.635917105981
 30
0.0
 11
5922.762131327726
 21
2257.635917105981
 31
0.0
  0
TEXT
  5
B435
330
747D
100
AcDbEntity
  8
0
100
AcDbText
 10
2874.32591125351
 20
4537.348317370435
 30
0.0
 40
70.0
  1
マルチスリット側溝（横断）  300×600×2000
  7
SANWA
 72
     4
 11
3949.525911253509
 21
4572.948317370435
 31
0.0
100
AcDbText
  0
LINE
  5
B436
330
747D
100
AcDbEntity
  8
0
100
AcDbLine
 10
2841.828126231717
 20
4480.000000000007
 30
0.0
 11
5627.824198564827
 21
4480.000000000007
 31
0.0
  0
LINE
  5
B437
330
747D
100
AcDbEntity
  8
0
100
AcDbLine
 10
2841.828126231717
 20
4500.0
 30
0.0
 11
5627.824198564827
 21
4500.0
 31
0.0
  0
LINE
  5
B438
330
747D
100
AcDbEntity
  8
枠
100
AcDbLine
 10
625.0
 20
250.0
 30
0.0
 11
7175.0
 21
250.0
 31
0.0
  0
LINE
  5
B439
330
747D
100
AcDbEntity
  8
枠
100
AcDbLine
 10
625.0
 20
5000.0
 30
0.0
 11
7175.0
 21
5000.0
 31
0.0
  0
LINE
  5
B43A
330
747D
100
AcDbEntity
  8
枠
100
AcDbLine
 10
625.0
 20
250.0
 30
0.0
 11
625.0
 21
5000.0
 31
0.0
  0
LINE
  5
B43B
330
747D
100
AcDbEntity
  8
0
100
AcDbLine
 10
625.0
 20
0.0
 30
0.0
 11
0.0
 21
0.0
 31
0.0
  0
LINE
  5
B43C
330
747D
100
AcDbEntity
  8
0
100
AcDbLine
 10
0.0
 20
0.0
 30
0.0
 11
0.0
 21
250.0
 31
0.0
  0
LINE
  5
B43D
330
747D
100
AcDbEntity
  8
0
 48
25.0
100
AcDbLine
 10
2377.54022515401
 20
1216.517627106076
 30
0.0
 11
2377.54022515401
 21
959.3712771834026
 31
0.0
  0
LINE
  5
B43E
330
747D
100
AcDbEntity
  8
寸法引出
 48
25.0
100
AcDbLine
 10
2271.645501236967
 20
1201.517627106076
 30
0.0
 11
2271.645501236969
 21
900.8712771834025
 31
0.0
  0
MTEXT
  5
B43F
330
747D
100
AcDbEntity
  8
寸法引出
 48
25.0
100
AcDbMText
 10
1912.138017486453
 20
987.7708416558498
 30
0.0
 40
40.0
 41
0.0
 71
     5
 72
     1
  1
\A1;2
  7
SANWA
 11
0.0000000000000001
 21
1.0
 31
0.0
 73
     1
 44
1.0
  0
DIMENSION
  5
B440
330
747D
100
AcDbEntity
  8
寸法引出
 48
25.0
100
AcDbDimension
  2
*D71
 10
1799.463170910155
 20
1033.778916802019
 30
0.0
 11
1671.963170910156
 21
1073.778916802019
 31
0.0
 70
    32
  1
85
 71
     5
 42
255.0
  3
SANWA
100
AcDbAlignedDimension
 13
1544.463170910155
 23
959.3712771834026
 33
0.0
 14
1799.463170910155
 24
953.3712771834025
 34
0.0
100
AcDbRotatedDimension
1001
ACAD
1000
DSTYLE
1002
{
1070
    40
1040
20.0
1070
    41
1040
1.5
1070
    43
1040
5.0
1070
    44
1040
0.5
1070
   140
1040
2.0
1070
   147
1040
1.0
1070
   176
1070
   256
1070
   177
1070
   256
1070
   178
1070
   256
1002
}
  0
DIMENSION
  5
B441
330
747D
100
AcDbEntity
  8
寸法引出
 48
25.0
100
AcDbDimension
  2
*D70
 10
1805.463170910156
 20
1033.778916802019
 30
0.0
 11
1802.463170910155
 21
1073.778916802019
 31
0.0
 70
    32
  1
2
 71
     5
 42
6.0
  3
SANWA
100
AcDbAlignedDimension
 13
1799.463170910155
 23
953.3712771834025
 33
0.0
 14
1805.463170910156
 24
959.3712771834026
 34
0.0
100
AcDbRotatedDimension
1001
ACAD
1000
DSTYLE
1002
{
1070
   279
1070
     1
1070
    40
1040
20.0
1070
    41
1040
1.5
1070
    43
1040
5.0
1070
    44
1040
0.5
1070
   140
1040
2.0
1070
   147
1040
1.0
1070
   176
1070
   256
1070
   177
1070
   256
1070
   178
1070
   256
1002
}
  0
MTEXT
  5
B442
330
747D
100
AcDbEntity
  8
寸法引出
 48
25.0
100
AcDbMText
 10
2231.64550123697
 20
1043.847776007752
 30
0.0
 40
40.0
 41
0.0
 71
     5
 72
     1
  1
天端より150
  7
SANWA
 11
0.0000000000000001
 21
1.0
 31
0.0
 73
     1
 44
1.0
  0
LINE
  5
B443
330
747D
100
AcDbEntity
  8
0
 48
25.0
100
AcDbLine
 10
1544.463170910155
 20
1109.371277183402
 30
0.0
 11
1544.46317091015
 21
632.3712771834025
 31
0.0
  0
SOLID
  5
B444
330
747D
100
AcDbEntity
  8
寸法引出
 48
25.0
100
AcDbTrace
 10
1947.138017486453
 20
989.3712771834024
 30
0.0
 11
1957.138017486453
 21
989.3712771834024
 31
0.0
 12
1952.138017486453
 22
959.3712771834026
 32
0.0
 13
1952.138017486453
 23
959.3712771834026
 33
0.0
  0
LINE
  5
B445
330
747D
100
AcDbEntity
  8
0
 48
25.0
100
AcDbLine
 10
3699.631789356667
 20
1012.677873433879
 30
0.0
 11
3699.631789356667
 21
912.6778734338795
 31
0.0
  0
LINE
  5
B446
330
747D
100
AcDbEntity
  8
0
 48
25.0
100
AcDbLine
 10
3599.631789356667
 20
1012.677873433879
 30
0.0
 11
3599.631789356667
 21
912.6778734338795
 31
0.0
  0
LEADER
  5
B447
330
747D
100
AcDbEntity
  8
寸法引出
 48
25.0
100
AcDbLeader
  3
SANWA
 76
     3
 10
2432.140225154013
 20
894.8712771834044
 30
0.0
 10
2477.724048408846
 20
987.6419177484377
 30
0.0
 10
2848.656073061109
 20
987.6419177484377
 30
0.0
1001
ACAD
1000
DSTYLE
1002
{
1070
    77
1070
     0
1070
    40
1040
20.0
1070
    41
1040
1.5
1070
    43
1040
5.0
1070
    44
1040
0.5
1070
   140
1040
2.0
1070
   147
1040
1.0
1070
   176
1070
   256
1070
   177
1070
   256
1070
   178
1070
   256
1002
}
  0
DIMENSION
  5
B448
330
747D
100
AcDbEntity
  8
寸法引出
 48
25.0
100
AcDbDimension
  2
*D67
 10
3465.514492224123
 20
1012.677873433879
 30
0.0
 11
3425.514492224123
 21
962.6778734338801
 31
0.0
 70
    32
  1
10
 71
     5
 42
100.0
  3
SANWA
100
AcDbAlignedDimension
 13
3599.631789356667
 23
912.6778734338795
 33
0.0
 14
3599.631789356667
 24
1012.677873433879
 34
0.0
 50
90.0
100
AcDbRotatedDimension
1001
ACAD
1000
DSTYLE
1002
{
1070
   279
1070
     1
1070
    40
1040
20.0
1070
    41
1040
1.5
1070
    43
1040
5.0
1070
    44
1040
0.5
1070
   140
1040
2.0
1070
   147
1040
1.0
1070
   176
1070
   256
1070
   177
1070
   256
1070
   178
1070
   256
1002
}
  0
LINE
  5
B449
330
747D
100
AcDbEntity
  8
0
 48
25.0
100
AcDbLine
 10
1544.463170910155
 20
959.3712771834026
 30
0.0
 11
1805.463170910156
 21
959.3712771834026
 31
0.0
  0
LINE
  5
B44A
330
747D
100
AcDbEntity
  8
0
 48
25.0
100
AcDbLine
 10
1544.463170910155
 20
782.3712771834025
 30
0.0
 11
1805.463170910156
 21
782.3712771834025
 31
0.0
  0
DIMENSION
  5
B44B
330
747D
100
AcDbEntity
  8
寸法引出
 48
25.0
100
AcDbDimension
  2
*D68
 10
1694.463170910156
 20
688.7005753087423
 30
0.0
 11
1619.463170910156
 21
728.7005753087424
 31
0.0
 70
    32
  1
50
 71
     5
 42
150.0
  3
SANWA
100
AcDbAlignedDimension
 13
1544.463170910155
 23
782.3712771834025
 33
0.0
 14
1694.463170910156
 24
870.8712771834026
 34
0.0
100
AcDbRotatedDimension
1001
ACAD
1000
DSTYLE
1002
{
1070
    40
1040
20.0
1070
    41
1040
1.5
1070
    43
1040
5.0
1070
    44
1040
0.5
1070
   140
1040
2.0
1070
   147
1040
1.0
1070
   176
1070
   256
1070
   177
1070
   256
1070
   178
1070
   256
1002
}
  0
LINE
  5
B44C
330
747D
100
AcDbEntity
  8
0
 48
25.0
100
AcDbLine
 10
1544.463170910155
 20
953.3712771834025
 30
0.0
 11
1799.463170910155
 21
953.3712771834025
 31
0.0
  0
LINE
  5
B44D
330
747D
100
AcDbEntity
  8
0
 48
25.0
100
AcDbLine
 10
1544.463170910155
 20
788.3712771834025
 30
0.0
 11
1799.463170910161
 21
788.3712771834025
 31
0.0
  0
CIRCLE
  5
B44E
330
747D
100
AcDbEntity
  8
0
 48
25.0
100
AcDbCircle
 10
1694.463170910156
 20
870.8712771834026
 30
0.0
 40
18.0
  0
SOLID
  5
B44F
330
747D
100
AcDbEntity
  8
寸法引出
 48
25.0
100
AcDbTrace
 10
1947.138017486453
 20
752.3712771834025
 30
0.0
 11
1957.138017486453
 21
752.3712771834025
 31
0.0
 12
1952.138017486453
 22
782.3712771834025
 32
0.0
 13
1952.138017486453
 23
782.3712771834025
 33
0.0
  0
MTEXT
  5
B450
330
747D
100
AcDbEntity
  8
寸法引出
 48
25.0
100
AcDbMText
 10
1912.138017486453
 20
751.8062501134818
 30
0.0
 40
40.0
 41
0.0
 71
     5
 72
     1
  1
\A1;2
  7
SANWA
 11
0.0000000000000001
 21
1.0
 31
0.0
 73
     1
 44
1.0
  0
LINE
  5
B451
330
747D
100
AcDbEntity
  8
寸法引出
 48
25.0
100
AcDbLine
 10
1952.138017486453
 20
752.3712771834025
 30
0.0
 11
1952.138017486453
 21
722.3712771834025
 31
0.0
  0
DIMENSION
  5
B452
330
747D
100
AcDbEntity
  8
寸法引出
 48
25.0
100
AcDbDimension
  2
*D69
 10
1952.138017486453
 20
953.3712771834025
 30
0.0
 11
1912.138017486453
 21
870.8712771834028
 31
0.0
 70
    32
  1
55
 71
     5
 42
165.0
  3
SANWA
100
AcDbAlignedDimension
 13
1799.463170910161
 23
788.3712771834025
 33
0.0
 14
1799.463170910155
 24
953.3712771834025
 34
0.0
 50
90.0
100
AcDbRotatedDimension
1001
ACAD
1000
DSTYLE
1002
{
1070
   279
1070
     1
1070
    40
1040
20.0
1070
    41
1040
1.5
1070
    43
1040
5.0
1070
    44
1040
0.5
1070
   140
1040
2.0
1070
   147
1040
1.0
1070
   176
1070
   256
1070
   177
1070
   256
1070
   178
1070
   256
1002
}
  0
LINE
  5
B453
330
747D
100
AcDbEntity
  8
寸法引出
 48
25.0
100
AcDbLine
 10
1825.463170910156
 20
959.3712771834026
 30
0.0
 11
1962.138017486453
 21
959.3712771834026
 31
0.0
  0
LINE
  5
B454
330
747D
100
AcDbEntity
  8
寸法引出
 48
25.0
100
AcDbLine
 10
1819.463170910156
 20
953.3712771834025
 30
0.0
 11
1962.138017486453
 21
953.3712771834025
 31
0.0
  0
LINE
  5
B455
330
747D
100
AcDbEntity
  8
寸法引出
 48
25.0
100
AcDbLine
 10
1819.463170910161
 20
788.3712771834025
 30
0.0
 11
1962.138017486453
 21
788.3712771834025
 31
0.0
  0
LINE
  5
B456
330
747D
100
AcDbEntity
  8
寸法引出
 48
25.0
100
AcDbLine
 10
1825.463170910156
 20
782.3712771834025
 30
0.0
 11
1962.138017486453
 21
782.3712771834025
 31
0.0
  0
LINE
  5
B457
330
747D
100
AcDbEntity
  8
0
 48
25.0
100
AcDbLine
 10
1799.463170910155
 20
953.3712771834025
 30
0.0
 11
1799.463170910161
 21
788.3712771834025
 31
0.0
  0
LINE
  5
B458
330
747D
100
AcDbEntity
  8
0
 48
25.0
100
AcDbLine
 10
1805.463170910156
 20
959.3712771834026
 30
0.0
 11
1805.463170910156
 21
782.3712771834025
 31
0.0
  0
LINE
  5
B459
330
747D
100
AcDbEntity
  8
0
 48
25.0
100
AcDbLine
 10
1799.463170910161
 20
788.3712771834025
 30
0.0
 11
1805.463170910156
 21
782.3712771834025
 31
0.0
  0
LINE
  5
B45A
330
747D
100
AcDbEntity
  8
0
 48
25.0
100
AcDbLine
 10
1799.463170910155
 20
953.3712771834025
 30
0.0
 11
1805.463170910156
 21
959.3712771834026
 31
0.0
  0
LINE
  5
B45B
330
747D
100
AcDbEntity
  8
寸法引出
 48
25.0
100
AcDbLine
 10
1952.138017486453
 20
923.3712771834024
 30
0.0
 11
1952.138017486453
 21
878.3712771834025
 31
0.0
  0
SOLID
  5
B45C
330
747D
100
AcDbEntity
  8
寸法引出
 48
25.0
100
AcDbTrace
 10
1947.138017486453
 20
818.3712771834025
 30
0.0
 11
1957.138017486453
 21
818.3712771834025
 31
0.0
 12
1952.138017486453
 22
788.3712771834025
 32
0.0
 13
1952.138017486453
 23
788.3712771834025
 33
0.0
  0
LINE
  5
B45D
330
747D
100
AcDbEntity
  8
寸法引出
 48
25.0
100
AcDbLine
 10
1952.138017486453
 20
818.3712771834025
 30
0.0
 11
1952.138017486453
 21
863.3712771834025
 31
0.0
  0
LINE
  5
B45E
330
747D
100
AcDbEntity
  8
寸法引出
 48
25.0
100
AcDbLine
 10
1952.138017486453
 20
782.3712771834025
 30
0.0
 11
1952.138017486453
 21
788.3712771834025
 31
0.0
  0
SOLID
  5
B45F
330
747D
100
AcDbEntity
  8
寸法引出
 48
25.0
100
AcDbTrace
 10
1947.138017486453
 20
923.3712771834024
 30
0.0
 11
1957.138017486453
 21
923.3712771834024
 31
0.0
 12
1952.138017486453
 22
953.3712771834025
 32
0.0
 13
1952.138017486453
 23
953.3712771834025
 33
0.0
  0
LINE
  5
B460
330
747D
100
AcDbEntity
  8
寸法引出
 48
25.0
100
AcDbLine
 10
1952.138017486453
 20
953.3712771834025
 30
0.0
 11
1952.138017486453
 21
959.3712771834026
 31
0.0
  0
LINE
  5
B461
330
747D
100
AcDbEntity
  8
寸法引出
 48
25.0
100
AcDbLine
 10
2337.140225154012
 20
870.8712771834026
 30
0.0
 11
2261.645501236969
 21
870.8712771834026
 31
0.0
  0
DIMENSION
  5
B462
330
747D
100
AcDbEntity
  8
寸法引出
 48
25.0
100
AcDbDimension
  2
*D72
 10
2387.140225154012
 20
693.770693749796
 30
0.0
 11
2382.340225154012
 21
733.7706937497959
 31
0.0
 70
    32
  1
3.2
 71
     5
 42
9.600000000002182
  3
SANWA
100
AcDbAlignedDimension
 13
2377.54022515401
 23
782.3712771834025
 33
0.0
 14
2387.140225154012
 24
788.3712771834025
 34
0.0
100
AcDbRotatedDimension
1001
ACAD
1000
DSTYLE
1002
{
1070
    40
1040
20.0
1070
    41
1040
1.5
1070
    43
1040
5.0
1070
    44
1040
0.5
1070
   140
1040
2.0
1070
   147
1040
1.0
1070
   176
1070
   256
1070
   177
1070
   256
1070
   178
1070
   256
1002
}
  0
LINE
  5
B463
330
747D
100
AcDbEntity
  8
0
 48
25.0
100
AcDbLine
 10
2377.54022515401
 20
782.3712771834025
 30
0.0
 11
2377.540225154005
 21
632.3712771834025
 31
0.0
  0
LINE
  5
B464
330
747D
100
AcDbEntity
  8
0
  6
CENTER2
 48
10.0
100
AcDbLine
 10
2357.140225154013
 20
870.8712771834026
 30
0.0
 11
2513.140225154013
 21
870.8712771834026
 31
0.0
  0
LINE
  5
B465
330
747D
100
AcDbEntity
  8
0
 48
25.0
100
AcDbLine
 10
2387.140225154012
 20
846.8712771834043
 30
0.0
 11
2477.140225154013
 21
846.8712771834043
 31
0.0
  0
LINE
  5
B466
330
747D
100
AcDbEntity
  8
0
 48
25.0
100
AcDbLine
 10
2387.140225154012
 20
852.8712771834044
 30
0.0
 11
2477.140225154013
 21
852.8712771834044
 31
0.0
  0
LINE
  5
B467
330
747D
100
AcDbEntity
  8
0
 48
25.0
100
AcDbLine
 10
2387.140225154012
 20
894.8712771834044
 30
0.0
 11
2477.140225154013
 21
894.8712771834044
 31
0.0
  0
LINE
  5
B468
330
747D
100
AcDbEntity
  8
0
 48
25.0
100
AcDbLine
 10
2387.140225154012
 20
888.8712771834043
 30
0.0
 11
2477.140225154013
 21
888.8712771834043
 31
0.0
  0
SOLID
  5
B469
330
747D
100
AcDbEntity
  8
寸法引出
 48
25.0
100
AcDbTrace
 10
2266.64550123697
 20
900.8712771834025
 30
0.0
 11
2276.645501236969
 21
900.8712771834025
 31
0.0
 12
2271.645501236969
 22
870.8712771834026
 32
0.0
 13
2271.645501236969
 23
870.8712771834026
 33
0.0
  0
LINE
  5
B46A
330
747D
100
AcDbEntity
  8
0
 48
25.0
100
AcDbLine
 10
2387.140225154012
 20
953.3712771834025
 30
0.0
 11
2387.140225154012
 21
788.3712771834025
 31
0.0
  0
LINE
  5
B46B
330
747D
100
AcDbEntity
  8
0
 48
25.0
100
AcDbLine
 10
2387.140225154007
 20
788.3712771834025
 30
0.0
 11
2377.540225154005
 21
782.3712771834025
 31
0.0
  0
LINE
  5
B46C
330
747D
100
AcDbEntity
  8
0
 48
25.0
100
AcDbLine
 10
2377.54022515401
 20
959.3712771834026
 30
0.0
 11
2387.140225154012
 21
953.3712771834025
 31
0.0
  0
LINE
  5
B46D
330
747D
100
AcDbEntity
  8
0
 48
25.0
100
AcDbLine
 10
2477.140225154013
 20
888.8712771834043
 30
0.0
 11
2477.140225154013
 21
852.8712771834044
 31
0.0
  0
LINE
  5
B46E
330
747D
100
AcDbEntity
  8
0
 48
25.0
100
AcDbLine
 10
2483.140225154013
 20
900.8712771834042
 30
0.0
 11
2483.140225154013
 21
840.8712771834043
 31
0.0
  0
LINE
  5
B46F
330
747D
100
AcDbEntity
  8
0
 48
25.0
100
AcDbLine
 10
2477.140225154013
 20
840.8712771834043
 30
0.0
 11
2483.140225154013
 21
840.8712771834043
 31
0.0
  0
LINE
  5
B470
330
747D
100
AcDbEntity
  8
0
 48
25.0
100
AcDbLine
 10
2477.140225154013
 20
846.8712771834043
 30
0.0
 11
2477.140225154013
 21
840.8712771834043
 31
0.0
  0
LINE
  5
B471
330
747D
100
AcDbEntity
  8
0
 48
25.0
100
AcDbLine
 10
2477.140225154013
 20
900.8712771834042
 30
0.0
 11
2483.140225154013
 21
900.8712771834042
 31
0.0
  0
LINE
  5
B472
330
747D
100
AcDbEntity
  8
0
 48
25.0
100
AcDbLine
 10
2477.140225154013
 20
900.8712771834042
 30
0.0
 11
2477.140225154013
 21
894.8712771834044
 31
0.0
  0
DIMENSION
  5
B473
330
747D
100
AcDbEntity
  8
寸法引出
 48
25.0
100
AcDbDimension
  2
*D66
 10
3465.514492224123
 20
842.6778734338794
 30
0.0
 11
3425.514492224123
 21
827.6778734338801
 31
0.0
 70
    32
  1
3
 71
     5
 42
30.0
  3
SANWA
100
AcDbAlignedDimension
 13
3649.631789356666
 23
812.6778734338795
 33
0.0
 14
3549.631789356666
 24
842.6778734338794
 34
0.0
 50
90.0
100
AcDbRotatedDimension
1001
ACAD
1000
DSTYLE
1002
{
1070
    40
1040
20.0
1070
    41
1040
1.5
1070
    43
1040
5.0
1070
    44
1040
0.5
1070
   140
1040
2.0
1070
   147
1040
1.0
1070
   176
1070
   256
1070
   177
1070
   256
1070
   178
1070
   256
1002
}
  0
DIMENSION
  5
B474
330
747D
100
AcDbEntity
  8
寸法引出
 48
25.0
100
AcDbDimension
  2
*D65
 10
3465.514492224123
 20
912.6778734338795
 30
0.0
 11
3425.514492224123
 21
877.6778734338801
 31
0.0
 70
    32
  1
7
 71
     5
 42
70.0
  3
SANWA
100
AcDbAlignedDimension
 13
3549.631789356666
 23
842.6778734338794
 33
0.0
 14
3599.631789356667
 24
912.6778734338795
 34
0.0
 50
90.0
100
AcDbRotatedDimension
1001
ACAD
1000
DSTYLE
1002
{
1070
   279
1070
     1
1070
    40
1040
20.0
1070
    41
1040
1.5
1070
    43
1040
5.0
1070
    44
1040
0.5
1070
   140
1040
2.0
1070
   147
1040
1.0
1070
   176
1070
   256
1070
   177
1070
   256
1070
   178
1070
   256
1002
}
  0
LINE
  5
B475
330
747D
100
AcDbEntity
  8
0
 48
25.0
100
AcDbLine
 10
3649.631789356666
 20
812.6778734338795
 30
0.0
 11
3649.631789356666
 21
598.8068184508656
 31
0.0
  0
LINE
  5
B476
330
747D
100
AcDbEntity
  8
0
 48
25.0
100
AcDbLine
 10
3549.631789356666
 20
842.6778734338794
 30
0.0
 11
3599.631789356667
 21
912.6778734338795
 31
0.0
  0
LINE
  5
B477
330
747D
100
AcDbEntity
  8
0
 48
25.0
100
AcDbLine
 10
3649.631789356666
 20
812.6778734338795
 30
0.0
 11
3549.631789356666
 21
842.6778734338794
 31
0.0
  0
MTEXT
  5
B478
330
747D
100
AcDbEntity
  8
寸法引出
 48
25.0
100
AcDbMText
 10
2662.998725132904
 20
1018.953456309597
 30
0.0
 40
40.0
 41
0.0
 71
     5
 72
     1
  1
ｲﾝｻｰﾄM12×32
  7
SANWA
 73
     1
 44
1.0
  0
DIMENSION
  5
B479
330
747D
100
AcDbEntity
  8
寸法引出
 48
25.0
100
AcDbDimension
  2
*D46
 10
3680.542675772407
 20
1857.635917105981
 30
0.0
 11
3640.542675772406
 21
2057.635917105983
 31
0.0
 70
    32
 71
     5
 42
400.0
  3
SANWA
100
AcDbAlignedDimension
 13
3922.762131327725
 23
2257.635917105981
 33
0.0
 14
3922.762131327725
 24
1857.635917105981
 34
0.0
 50
90.0
100
AcDbRotatedDimension
1001
ACAD
1000
DSTYLE
1002
{
1070
   140
1040
2.0
1070
    40
1040
20.0
1070
   147
1040
1.0
1070
    44
1040
0.5
1070
    43
1040
5.0
1070
   178
1070
   256
1070
   177
1070
   256
1070
   176
1070
   256
1070
    41
1040
1.5
1002
}
  0
TEXT
  5
B47A
330
747D
100
AcDbEntity
  8
0
100
AcDbText
 10
1829.703195825833
 20
1422.620315006377
 30
0.0
 40
60.0
  1
継手部詳細図
  7
SANWA
 72
     4
 11
2093.017481540119
 21
1453.306029292091
 31
0.0
100
AcDbText
  0
LINE
  5
B47B
330
747D
100
AcDbEntity
  8
0
100
AcDbLine
 10
1812.235198891659
 20
1402.542040389259
 30
0.0
 11
2370.178755122222
 21
1402.542040389259
 31
0.0
  0
LINE
  5
B47C
330
747D
100
AcDbEntity
  8
寸法引出
 48
25.0
100
AcDbLine
 10
1952.138017486453
 20
989.3712771834024
 30
0.0
 11
1952.138017486453
 21
1019.371277183402
 31
0.0
  0
LINE
  5
B47E
330
747D
100
AcDbEntity
  8
0
 48
25.0
100
AcDbLine
 10
3599.631789356667
 20
1012.677873433879
 30
0.0
 11
3394.034980875971
 21
1012.677873433879
 31
0.0
  0
DIMENSION
  5
B47F
330
747D
100
AcDbEntity
  8
寸法引出
 48
25.0
100
AcDbDimension
  2
*D64
 10
3599.631789356667
 20
1110.56788305415
 30
0.0
 11
3574.631789356667
 21
1150.56788305415
 31
0.0
 70
    32
  1
5
 71
     5
 42
50.0
  3
SANWA
100
AcDbAlignedDimension
 13
3549.631789356666
 23
1012.677873433879
 33
0.0
 14
3599.631789356667
 24
1012.677873433879
 34
0.0
100
AcDbRotatedDimension
1001
ACAD
1000
DSTYLE
1002
{
1070
    40
1040
20.0
1070
    41
1040
1.5
1070
    43
1040
5.0
1070
    44
1040
0.5
1070
   140
1040
2.0
1070
   147
1040
1.0
1070
   176
1070
   256
1070
   177
1070
   256
1070
   178
1070
   256
1002
}
  0
LINE
  5
B484
330
747D
100
AcDbEntity
  8
0
 48
25.0
100
AcDbLine
 10
3922.762131327725
 20
1857.635917105981
 30
0.0
 11
3922.762131327725
 21
2257.635917105981
 31
0.0
  0
LINE
  5
B48A
330
747D
100
AcDbEntity
  8
0
100
AcDbLine
 10
3806.765883263771
 20
2484.782037413615
 30
0.0
 11
4106.501629187095
 21
2484.782037413615
 31
0.0
  0
TEXT
  5
B48B
330
747D
100
AcDbEntity
  8
0
100
AcDbText
 10
3825.320359911247
 20
2505.031740602157
 30
0.0
 40
60.0
  1
底版部
  7
SANWA
 72
     4
 11
3956.97750276839
 21
2535.546026316442
 31
0.0
100
AcDbText
  0
DIMENSION
  5
B49B
330
747D
100
AcDbEntity
  8
寸法引出
 48
20.0
100
AcDbDimension
  2
*D73
 10
1992.376683236862
 20
3616.381907904721
 30
0.0
 11
1952.376683236861
 21
3691.381907904721
 31
0.0
 70
    32
 71
     5
 42
150.0
  3
SANWA
100
AcDbAlignedDimension
 13
2091.101880824064
 23
3766.381907904721
 33
0.0
 14
2091.101880824064
 24
3616.381907904721
 34
0.0
 50
90.0
100
AcDbRotatedDimension
1001
ACAD
1000
DSTYLE
1002
{
1070
    40
1040
20.0
1070
    41
1040
1.5
1070
    43
1040
5.0
1070
    44
1040
0.5
1070
   140
1040
2.0
1070
   147
1040
1.0
1070
   176
1070
   256
1070
   177
1070
   256
1070
   178
1070
   256
1002
}
  0
DIMENSION
  5
B49C
330
747D
100
AcDbEntity
  8
寸法引出
 48
25.0
100
AcDbDimension
  2
*D50
 10
2121.101880824062
 20
3086.381907904721
 30
0.0
 11
1998.793116929133
 21
3167.773557322965
 31
0.0
 70
   162
 71
     5
 42
0.7853981633974816
  3
SANWA
100
AcDb2LineAngularDimension
 13
2461.101880824064
 23
3086.381907904721
 33
0.0
 14
2121.101880824064
 24
3086.381907904721
 34
0.0
 15
2091.101880824064
 25
3116.38190790472
 35
0.0
 16
1979.192831855611
 26
3124.406322974487
 36
0.0
1001
ACAD
1000
DSTYLE
1002
{
1070
    40
1040
20.0
1070
    41
1040
1.5
1070
    43
1040
5.0
1070
    44
1040
0.5
1070
    79
1070
     2
1070
   140
1040
2.0
1070
   147
1040
1.0
1070
   176
1070
   256
1070
   177
1070
   256
1070
   178
1070
   256
1070
   179
1070
     4
1002
}
  0
DIMENSION
  5
B49D
330
747D
100
AcDbEntity
  8
寸法引出
 48
25.0
100
AcDbDimension
  2
*D49
 10
1847.441026915019
 20
3086.381907904721
 30
0.0
 11
1807.441026915018
 21
3426.381907904721
 31
0.0
 70
    32
 71
     5
 42
680.0
  3
SANWA
100
AcDbAlignedDimension
 13
2091.101880824064
 23
3766.381907904721
 33
0.0
 14
2121.101880824064
 24
3086.381907904721
 34
0.0
 50
90.0
100
AcDbRotatedDimension
1001
ACAD
1000
DSTYLE
1002
{
1070
   140
1040
2.0
1070
    40
1040
20.0
1070
   147
1040
1.0
1070
    44
1040
0.5
1070
    43
1040
5.0
1070
   178
1070
   256
1070
   177
1070
   256
1070
   176
1070
   256
1070
    41
1040
1.5
1002
}
  0
MTEXT
  5
B49E
330
747D
100
AcDbEntity
  8
寸法引出
  6
ByBlock
 48
25.0
100
AcDbMText
 10
2054.985363385056
 20
3013.830113828273
 30
0.0
 40
40.0
 41
0.0
 71
     5
 72
     1
  1
\A1;30
  7
SANWA
 73
     1
 44
1.0
  0
SOLID
  5
B49F
330
747D
100
AcDbEntity
  8
寸法引出
  6
ByBlock
 48
25.0
100
AcDbTrace
 10
2061.101880824064
 20
2978.830113828273
 30
0.0
 11
2061.101880824064
 21
2968.830113828273
 31
0.0
 12
2091.101880824064
 22
2973.830113828273
 32
0.0
 13
2091.101880824064
 23
2973.830113828273
 33
0.0
  0
DIMENSION
  5
B4A0
330
747D
100
AcDbEntity
  8
寸法引出
 48
25.0
100
AcDbDimension
  2
*D48
 10
2091.101880824064
 20
2855.03214736155
 30
0.0
 11
2131.101880824064
 21
2895.03214736155
 31
0.0
 70
    32
 71
     5
 42
80.0
  3
SANWA
100
AcDbAlignedDimension
 13
2171.101880824064
 23
3086.381907904721
 33
0.0
 14
2091.101880824064
 24
3116.381907904721
 34
0.0
100
AcDbRotatedDimension
1001
ACAD
1000
DSTYLE
1002
{
1070
    40
1040
20.0
1070
    41
1040
1.5
1070
    43
1040
5.0
1070
    44
1040
0.5
1070
    75
1070
     1
1070
   140
1040
2.0
1070
   147
1040
1.0
1070
   176
1070
   256
1070
   177
1070
   256
1070
   178
1070
   256
1070
   279
1070
     1
1002
}
  0
DIMENSION
  5
B4A1
330
747D
100
AcDbEntity
  8
寸法引出
 48
25.0
100
AcDbDimension
  2
*D47
 10
2091.101880824064
 20
3868.819617677609
 30
0.0
 11
2116.101880824064
 21
3908.819617677609
 31
0.0
 70
    32
 71
     5
 42
50.0
  3
SANWA
100
AcDbAlignedDimension
 13
2141.101880824064
 23
3766.381907904721
 33
0.0
 14
2091.101880824064
 24
3766.381907904721
 34
0.0
100
AcDbRotatedDimension
1001
ACAD
1000
DSTYLE
1002
{
1070
    40
1040
20.0
1070
    41
1040
1.5
1070
    43
1040
5.0
1070
    44
1040
0.5
1070
    75
1070
     1
1070
   140
1040
2.0
1070
   147
1040
1.0
1070
   176
1070
   256
1070
   177
1070
   256
1070
   178
1070
   256
1070
   279
1070
     1
1002
}
  0
LINE
  5
B4A2
330
747D
100
AcDbEntity
  8
0
100
AcDbLine
 10
1989.830403409858
 20
4151.062389819106
 30
0.0
 11
2289.566149333182
 21
4151.062389819106
 31
0.0
  0
TEXT
  5
B4A3
330
747D
100
AcDbEntity
  8
0
100
AcDbText
 10
2008.384880057334
 20
4171.826378721933
 30
0.0
 40
60.0
  1
断面図
  7
SANWA
 72
     4
 11
2140.042022914476
 21
4201.826378721933
 31
0.0
100
AcDbText
  0
LINE
  5
B4A4
330
747D
100
AcDbEntity
  8
寸法引出
  6
ByBlock
 48
25.0
100
AcDbLine
 10
2061.101880824064
 20
2973.830113828273
 30
0.0
 11
2031.101880824064
 21
2973.830113828273
 31
0.0
  0
LINE
  5
B4A5
330
747D
100
AcDbEntity
  8
0
100
AcDbLine
 10
0.0
 20
5250.0
 30
0.0
 11
625.0
 21
5250.0
 31
0.0
  0
LINE
  5
B4A6
330
747D
100
AcDbEntity
  8
0
100
AcDbLine
 10
0.0
 20
5000.0
 30
0.0
 11
0.0
 21
5250.0
 31
0.0
  0
MTEXT
  5
B4A7
102
{ACAD_REACTORS
330
B4AA
102
}
330
747D
100
AcDbEntity
  8
寸法引出
 48
25.0
100
AcDbMText
 10
3796.791971740835
 20
2966.422347391024
 30
0.0
 40
40.0
 41
0.0
 71
     6
 72
     1
  1
\A1;C10
  7
SANWA
 73
     1
 44
1.0
  0
MTEXT
  5
B4A8
102
{ACAD_REACTORS
330
B4AB
102
}
330
747D
100
AcDbEntity
  8
寸法引出
 48
25.0
100
AcDbMText
 10
3851.724824572758
 20
3888.491181366506
 30
0.0
 40
40.0
 41
0.0
 71
     6
 72
     1
  1
\A1;ﾛｯｸﾋﾟﾝ用ｲﾝｻｰﾄ
  7
SANWA
 73
     1
 44
1.0
  0
DIMENSION
  5
B4A9
330
747D
100
AcDbEntity
  8
寸法引出
 48
25.0
100
AcDbDimension
  2
*D51
 10
3680.542675772407
 20
3086.381907904721
 30
0.0
 11
3640.542675772406
 21
3426.381907904722
 31
0.0
 70
    32
 71
     5
 42
680.0
  3
SANWA
100
AcDbAlignedDimension
 13
3922.762131327725
 23
3766.381907904721
 33
0.0
 14
3932.762131327725
 24
3086.381907904721
 34
0.0
 50
90.0
100
AcDbRotatedDimension
1001
ACAD
1000
DSTYLE
1002
{
1070
   140
1040
2.0
1070
    40
1040
20.0
1070
   147
1040
1.0
1070
    44
1040
0.5
1070
    43
1040
5.0
1070
   178
1070
   256
1070
   177
1070
   256
1070
   176
1070
   256
1070
    41
1040
1.5
1002
}
  0
LEADER
  5
B4AA
330
747D
100
AcDbEntity
  8
寸法引出
 48
25.0
100
AcDbLeader
  3
SANWA
 73
     0
 75
     1
 40
40.0
 41
82.97142857142857
 76
     3
 10
3927.762131327725
 20
3091.381907904721
 30
0.0
 10
3846.791971740834
 20
2926.422347391024
 30
0.0
 10
3816.791971740835
 20
2926.422347391024
 30
0.0
340
B4A7
1001
ACAD
1000
DSTYLE
1002
{
1070
   140
1040
2.0
1070
    40
1040
20.0
1070
   147
1040
1.0
1070
    44
1040
0.5
1070
    43
1040
5.0
1070
   178
1070
   256
1070
   177
1070
   256
1070
   176
1070
   256
1070
    41
1040
1.5
1002
}
  0
LEADER
  5
B4AB
330
747D
100
AcDbEntity
  8
寸法引出
 48
25.0
100
AcDbLeader
  3
SANWA
 73
     0
 75
     1
 40
51.88571428571429
 41
371.4285714285714
 76
     3
 10
4042.762131327725
 20
3766.381907904721
 30
0.0
 10
3901.724824572758
 20
3842.548324223649
 30
0.0
 10
3871.724824572758
 20
3842.548324223649
 30
0.0
340
B4A8
1001
ACAD
1000
DSTYLE
1002
{
1070
   140
1040
2.0
1070
    40
1040
20.0
1070
   147
1040
1.0
1070
    44
1040
0.5
1070
    43
1040
5.0
1070
   178
1070
   256
1070
   177
1070
   256
1070
   176
1070
   256
1070
    41
1040
1.5
1002
}
  0
LINE
  5
B4AC
330
747D
100
AcDbEntity
  8
0
 48
25.0
100
AcDbLine
 10
2121.126834046506
 20
3765.383155565843
 30
0.0
 11
2148.207181261516
 21
3223.776211265668
 31
0.0
  0
DIMENSION
  5
B4AD
330
747D
100
AcDbEntity
  8
寸法引出
 48
25.0
100
AcDbDimension
  2
*D52
 10
2768.575716326906
 20
3166.381907904721
 30
0.0
 11
2728.575716326905
 21
3466.381907904721
 31
0.0
 70
    32
 71
     5
 42
600.0
  3
SANWA
100
AcDbAlignedDimension
 13
2491.101880824064
 23
3766.381907904721
 33
0.0
 14
2491.101880824064
 24
3166.381907904721
 34
0.0
 50
90.0
100
AcDbRotatedDimension
1001
ACAD
1000
DSTYLE
1002
{
1070
   140
1040
2.0
1070
    40
1040
20.0
1070
   147
1040
1.0
1070
    44
1040
0.5
1070
    43
1040
5.0
1070
   178
1070
   256
1070
   177
1070
   256
1070
   176
1070
   256
1070
    41
1040
1.5
1002
}
  0
LINE
  5
B4B0
330
747D
100
AcDbEntity
  8
0
 48
25.0
100
AcDbLine
 10
2414.021533609055
 20
3224.774963604546
 30
0.0
 11
2441.101880824064
 21
3766.381907904721
 31
0.0
  0
LINE
  5
B4B1
330
747D
100
AcDbEntity
  8
0
 48
25.0
100
AcDbLine
 10
2141.101880824064
 20
3766.381907904721
 30
0.0
 11
2168.182228039073
 21
3224.774963604546
 31
0.0
  0
LINE
  5
B4B2
330
747D
100
AcDbEntity
  8
0
 48
25.0
100
AcDbLine
 10
2091.101880824064
 20
3116.381907904721
 30
0.0
 11
2091.101880824064
 21
3766.381907904721
 31
0.0
  0
LINE
  5
B4B3
330
747D
100
AcDbEntity
  8
0
 48
25.0
100
AcDbLine
 10
2491.101880824064
 20
3766.381907904721
 30
0.0
 11
2491.101880824064
 21
3116.381907904721
 31
0.0
  0
DIMENSION
  5
B4B8
330
747D
100
AcDbEntity
  8
寸法引出
 48
25.0
100
AcDbDimension
  2
*D53
 10
2768.575716326906
 20
3086.381907904721
 30
0.0
 11
2728.575716326905
 21
3126.381907904721
 31
0.0
 70
    32
 71
     5
 42
80.0
  3
SANWA
100
AcDbAlignedDimension
 13
2491.101880824064
 23
3166.381907904721
 33
0.0
 14
2461.101880824064
 24
3086.381907904721
 34
0.0
 50
90.0
100
AcDbRotatedDimension
1001
ACAD
1000
DSTYLE
1002
{
1070
    40
1040
20.0
1070
    41
1040
1.5
1070
    43
1040
5.0
1070
    44
1040
0.5
1070
    75
1070
     1
1070
   140
1040
2.0
1070
   147
1040
1.0
1070
   176
1070
   256
1070
   177
1070
   256
1070
   178
1070
   256
1070
   279
1070
     1
1002
}
  0
LINE
  5
B4BA
330
747D
100
AcDbEntity
  8
寸法引出
  6
ByBlock
 48
25.0
100
AcDbLine
 10
2121.101880824064
 20
3066.381907904721
 30
0.0
 11
2121.101880824064
 21
2963.830113828274
 31
0.0
  0
LINE
  5
B4BB
330
747D
100
AcDbEntity
  8
寸法引出
  6
ByBlock
 48
25.0
100
AcDbLine
 10
2091.101880824064
 20
3096.381907904721
 30
0.0
 11
2091.101880824064
 21
2963.830113828274
 31
0.0
  0
DIMENSION
  5
B4BC
330
747D
100
AcDbEntity
  8
寸法引出
 48
25.0
100
AcDbDimension
  2
*D55
 10
2491.101880824064
 20
2855.03214736155
 30
0.0
 11
2451.101880824064
 21
2895.03214736155
 31
0.0
 70
    32
 71
     5
 42
80.0
  3
SANWA
100
AcDbAlignedDimension
 13
2411.101880824064
 23
3086.381907904721
 33
0.0
 14
2491.101880824064
 24
3116.381907904721
 34
0.0
100
AcDbRotatedDimension
1001
ACAD
1000
DSTYLE
1002
{
1070
    40
1040
20.0
1070
    41
1040
1.5
1070
    43
1040
5.0
1070
    44
1040
0.5
1070
    75
1070
     1
1070
   140
1040
2.0
1070
   147
1040
1.0
1070
   176
1070
   256
1070
   177
1070
   256
1070
   178
1070
   256
1070
   279
1070
     1
1002
}
  0
DIMENSION
  5
B4BD
330
747D
100
AcDbEntity
  8
寸法引出
 48
25.0
100
AcDbDimension
  2
*D54
 10
2411.101880824064
 20
2855.03214736155
 30
0.0
 11
2291.101880824064
 21
2895.03214736155
 31
0.0
 70
    32
 71
     5
 42
240.0
  3
SANWA
100
AcDbAlignedDimension
 13
2171.101880824064
 23
3086.381907904721
 33
0.0
 14
2411.101880824064
 24
3086.381907904721
 34
0.0
100
AcDbRotatedDimension
1001
ACAD
1000
DSTYLE
1002
{
1070
   140
1040
2.0
1070
    40
1040
20.0
1070
   147
1040
1.0
1070
    44
1040
0.5
1070
    43
1040
5.0
1070
   178
1070
   256
1070
   177
1070
   256
1070
   176
1070
   256
1070
    41
1040
1.5
1002
}
  0
LEADER
  5
B4BE
330
747D
100
AcDbEntity
  8
寸法引出
 48
25.0
100
AcDbLeader
  3
SANWA
 73
     0
 74
     0
 75
     1
 40
39.42857142857142
 41
213.9428571428571
 76
     3
 10
2192.081921073733
 20
3096.381907904721
 30
0.0
 10
2219.802446707786
 20
2951.698952738777
 30
0.0
 10
2249.802446707786
 20
2951.698952738777
 30
0.0
340
B4BF
1001
ACAD
1000
DSTYLE
1002
{
1070
   140
1040
2.0
1070
    40
1040
20.0
1070
   147
1040
1.0
1070
    44
1040
0.5
1070
    43
1040
5.0
1070
   178
1070
   256
1070
   177
1070
   256
1070
   176
1070
   256
1070
    41
1040
1.5
1002
}
  0
MTEXT
  5
B4BF
102
{ACAD_REACTORS
330
B4BE
102
}
330
747D
100
AcDbEntity
  8
寸法引出
 48
25.0
100
AcDbMText
 10
2269.802446707787
 20
2991.413238453063
 30
0.0
 40
30.0
 41
0.0
 71
     4
 72
     1
  1
\A1;面取り C10
  7
SANWA
 73
     1
 44
1.0
  0
SOLID
  5
B4C0
330
747D
100
AcDbEntity
  8
寸法引出
  6
ByBlock
 48
25.0
100
AcDbTrace
 10
2151.101880824064
 20
2978.830113828273
 30
0.0
 11
2151.101880824064
 21
2968.830113828273
 31
0.0
 12
2121.101880824064
 22
2973.830113828273
 32
0.0
 13
2121.101880824064
 23
2973.830113828273
 33
0.0
  0
POINT
  5
B4C1
330
747D
100
AcDbEntity
  8
寸法引出
  6
ByBlock
 62
     0
 48
25.0
100
AcDbPoint
 10
2121.101880824064
 20
2973.830113828273
 30
0.0
  0
LINE
  5
B4C2
330
747D
100
AcDbEntity
  8
寸法引出
  6
ByBlock
 48
25.0
100
AcDbLine
 10
2091.101880824064
 20
2973.830113828273
 30
0.0
 11
2121.101880824064
 21
2973.830113828273
 31
0.0
  0
LINE
  5
B4C3
330
747D
100
AcDbEntity
  8
寸法引出
  6
ByBlock
 48
25.0
100
AcDbLine
 10
2151.101880824064
 20
2973.830113828273
 30
0.0
 11
2181.101880824064
 21
2973.830113828273
 31
0.0
  0
MTEXT
  5
B4C4
102
{ACAD_REACTORS
330
B4C9
102
}
330
747D
100
AcDbEntity
  8
寸法引出
 48
25.0
100
AcDbMText
 10
2292.331313188982
 20
3286.490943699415
 30
0.0
 40
40.0
 41
0.0
 71
     4
 72
     1
  1
\A1;R300
  7
SANWA
 73
     1
 44
1.0
  0
ARC
  5
B4C7
330
747D
100
AcDbEntity
  8
0
 48
25.0
100
AcDbCircle
 10
2291.101880824064
 20
3466.381907904721
 30
0.0
 40
300.0
100
AcDbArc
 50
253.0265735298842
 51
286.9734264701157
  0
LINE
  5
B4C8
330
747D
100
AcDbEntity
  8
0
 48
25.0
100
AcDbLine
 10
2461.101880824064
 20
3086.381907904721
 30
0.0
 11
2121.101880824064
 21
3086.381907904721
 31
0.0
  0
LEADER
  5
B4C9
330
747D
100
AcDbEntity
  8
寸法引出
 48
25.0
100
AcDbLeader
  3
SANWA
 73
     0
 74
     0
 75
     1
 40
40.0
 41
112.2285714285714
 76
     3
 10
2234.011372214801
 20
3171.864210937738
 30
0.0
 10
2242.331313188982
 20
3246.490943699415
 30
0.0
 10
2272.331313188983
 20
3246.490943699415
 30
0.0
340
B4C4
1001
ACAD
1000
DSTYLE
1002
{
1070
   140
1040
2.0
1070
    40
1040
20.0
1070
   147
1040
1.0
1070
    44
1040
0.5
1070
    43
1040
5.0
1070
   178
1070
   256
1070
   177
1070
   256
1070
   176
1070
   256
1070
    41
1040
1.5
1002
}
  0
LEADER
  5
B4CA
330
747D
100
AcDbEntity
  8
寸法引出
 48
25.0
100
AcDbLeader
  3
SANWA
 73
     0
 74
     0
 75
     1
 40
40.0
 41
82.97142857142857
 76
     3
 10
2173.757140929626
 20
3204.207792572767
 30
0.0
 10
2190.404699294484
 20
3334.689302856614
 30
0.0
 10
2220.404699294484
 20
3334.689302856614
 30
0.0
340
B4D4
1001
ACAD
1000
DSTYLE
1002
{
1070
   140
1040
2.0
1070
    40
1040
20.0
1070
   147
1040
1.0
1070
    44
1040
0.5
1070
    43
1040
5.0
1070
   178
1070
   256
1070
   177
1070
   256
1070
   176
1070
   256
1070
    41
1040
1.5
1002
}
  0
ARC
  5
B4CB
330
747D
100
AcDbEntity
  8
0
 48
25.0
100
AcDbCircle
 10
2291.101880824064
 20
3466.381907904721
 30
0.0
 40
320.0
100
AcDbArc
 50
253.0265735298842
 51
270.0
  0
LINE
  5
B4CC
330
747D
100
AcDbEntity
  8
0
 48
25.0
100
AcDbLine
 10
2291.101880824064
 20
3096.381907904721
 30
0.0
 11
2111.101880824062
 21
3096.381907904721
 31
0.0
  0
POINT
  5
B4CD
330
747D
100
AcDbEntity
  8
DEFPOINTS
  6
ByBlock
 62
     0
 48
25.0
100
AcDbPoint
 10
2121.101880824064
 20
3086.381907904721
 30
0.0
  0
POINT
  5
B4CE
330
747D
100
AcDbEntity
  8
DEFPOINTS
  6
ByBlock
 62
     0
 48
25.0
100
AcDbPoint
 10
2091.101880824064
 20
3116.381907904721
 30
0.0
  0
LINE
  5
B4CF
330
747D
100
AcDbEntity
  8
0
 48
25.0
100
AcDbLine
 10
2091.101880824064
 20
3116.381907904721
 30
0.0
 11
2121.101880824064
 21
3086.381907904721
 31
0.0
  0
ARC
  5
B4D0
330
747D
100
AcDbEntity
  8
0
 48
25.0
100
AcDbCircle
 10
2218.119844982964
 20
3227.27184445174
 30
0.0
 40
70.0
100
AcDbArc
 50
182.8624052260987
 51
253.0265735298842
  0
ARC
  5
B4D1
330
747D
100
AcDbEntity
  8
0
 48
25.0
100
AcDbCircle
 10
2218.119844982964
 20
3227.27184445174
 30
0.0
 40
50.0
100
AcDbArc
 50
182.8624052260987
 51
253.0265735298842
  0
LINE
  5
B4D2
330
747D
100
AcDbEntity
  8
0
  6
CENTER2
 48
5.0
100
AcDbLine
 10
2291.101880824064
 20
3056.381907904721
 30
0.0
 11
2291.101880824064
 21
3196.381907904721
 31
0.0
  0
MTEXT
  5
B4D4
102
{ACAD_REACTORS
330
B4CA
102
}
330
747D
100
AcDbEntity
  8
寸法引出
 48
25.0
100
AcDbMText
 10
2240.404699294484
 20
3374.689302856614
 30
0.0
 40
40.0
 41
0.0
 71
     4
 72
     1
  1
\A1;R50
  7
SANWA
 73
     1
 44
1.0
  0
LINE
  5
B4D7
330
747D
100
AcDbEntity
  8
0
 48
25.0
100
AcDbLine
 10
2491.101880824064
 20
3116.381907904721
 30
0.0
 11
2461.101880824064
 21
3086.381907904721
 31
0.0
  0
ARC
  5
B4D9
330
747D
100
AcDbEntity
  8
0
 48
25.0
100
AcDbCircle
 10
2364.083916665164
 20
3227.27184445174
 30
0.0
 40
50.0
100
AcDbArc
 50
286.9734264701157
 51
357.1375947739012
  0
DIMENSION
  5
B4E1
330
747D
100
AcDbEntity
  8
寸法引出
 48
25.0
100
AcDbDimension
  2
*D58
 10
2491.101880824064
 20
3957.128094517928
 30
0.0
 11
2291.101880824064
 21
3997.128094517928
 31
0.0
 70
    32
 71
     5
 42
400.0
  3
SANWA
100
AcDbAlignedDimension
 13
2091.101880824064
 23
3766.381907904721
 33
0.0
 14
2491.101880824064
 24
3766.381907904721
 34
0.0
100
AcDbRotatedDimension
1001
ACAD
1000
DSTYLE
1002
{
1070
   140
1040
2.0
1070
    40
1040
20.0
1070
   147
1040
1.0
1070
    44
1040
0.5
1070
    43
1040
5.0
1070
   178
1070
   256
1070
   177
1070
   256
1070
   176
1070
   256
1070
    41
1040
1.5
1002
}
  0
DIMENSION
  5
B4E2
330
747D
100
AcDbEntity
  8
寸法引出
 48
25.0
100
AcDbDimension
  2
*D57
 10
2491.101880824064
 20
3868.819617677609
 30
0.0
 11
2466.101880824064
 21
3908.819617677609
 31
0.0
 70
    32
 71
     5
 42
50.0
  3
SANWA
100
AcDbAlignedDimension
 13
2441.101880824064
 23
3766.381907904721
 33
0.0
 14
2491.101880824064
 24
3766.381907904721
 34
0.0
100
AcDbRotatedDimension
1001
ACAD
1000
DSTYLE
1002
{
1070
    40
1040
20.0
1070
    41
1040
1.5
1070
    43
1040
5.0
1070
    44
1040
0.5
1070
    75
1070
     1
1070
   140
1040
2.0
1070
   147
1040
1.0
1070
   176
1070
   256
1070
   177
1070
   256
1070
   178
1070
   256
1070
   279
1070
     1
1002
}
  0
DIMENSION
  5
B4E3
330
747D
100
AcDbEntity
  8
寸法引出
 48
25.0
100
AcDbDimension
  2
*D56
 10
2441.101880824064
 20
3868.819617677609
 30
0.0
 11
2291.101880824064
 21
3908.819617677609
 31
0.0
 70
    32
 71
     5
 42
300.0
  3
SANWA
100
AcDbAlignedDimension
 13
2141.101880824064
 23
3766.381907904721
 33
0.0
 14
2441.101880824064
 24
3766.381907904721
 34
0.0
100
AcDbRotatedDimension
1001
ACAD
1000
DSTYLE
1002
{
1070
   140
1040
2.0
1070
    40
1040
20.0
1070
   147
1040
1.0
1070
    44
1040
0.5
1070
    43
1040
5.0
1070
   178
1070
   256
1070
   177
1070
   256
1070
   176
1070
   256
1070
    41
1040
1.5
1002
}
  0
LINE
  5
B4E5
330
747D
100
AcDbEntity
  8
0
 48
25.0
100
AcDbLine
 10
2091.101880824064
 20
3586.88190790472
 30
0.0
 11
2094.301880824064
 21
3588.88190790472
 31
0.0
  0
LINE
  5
B4E6
330
747D
100
AcDbEntity
  8
0
 48
25.0
100
AcDbLine
 10
2094.301880824064
 20
3643.88190790472
 30
0.0
 11
2094.301880824064
 21
3588.88190790472
 31
0.0
  0
LINE
  5
B4E7
330
747D
100
AcDbEntity
  8
0
 48
25.0
100
AcDbLine
 10
2126.301880824065
 20
3626.381907904721
 30
0.0
 11
2126.301880824065
 21
3606.381907904721
 31
0.0
  0
LINE
  5
B4E8
330
747D
100
AcDbEntity
  8
0
 48
25.0
100
AcDbLine
 10
2124.301880824064
 20
3622.381907904721
 30
0.0
 11
2124.301880824064
 21
3610.38190790472
 31
0.0
  0
LINE
  5
B4E9
330
747D
100
AcDbEntity
  8
0
 48
25.0
100
AcDbLine
 10
2094.301880824064
 20
3610.38190790472
 30
0.0
 11
2124.301880824064
 21
3610.38190790472
 31
0.0
  0
LINE
  5
B4EA
330
747D
100
AcDbEntity
  8
0
 48
25.0
100
AcDbLine
 10
2094.301880824064
 20
3608.381907904721
 30
0.0
 11
2124.301880824064
 21
3608.381907904721
 31
0.0
  0
LINE
  5
B4EB
330
747D
100
AcDbEntity
  8
0
 48
25.0
100
AcDbLine
 10
2124.301880824064
 20
3608.381907904721
 30
0.0
 11
2124.301880824064
 21
3606.381907904721
 31
0.0
  0
LINE
  5
B4EC
330
747D
100
AcDbEntity
  8
0
 48
25.0
100
AcDbLine
 10
2094.301880824064
 20
3622.381907904721
 30
0.0
 11
2124.301880824064
 21
3622.381907904721
 31
0.0
  0
LINE
  5
B4ED
330
747D
100
AcDbEntity
  8
0
 48
25.0
100
AcDbLine
 10
2094.301880824064
 20
3624.38190790472
 30
0.0
 11
2124.301880824064
 21
3624.38190790472
 31
0.0
  0
LINE
  5
B4EE
330
747D
100
AcDbEntity
  8
0
 48
25.0
100
AcDbLine
 10
2091.101880824064
 20
3645.881907904721
 30
0.0
 11
2094.301880824064
 21
3643.88190790472
 31
0.0
  0
LINE
  5
B4EF
330
747D
100
AcDbEntity
  8
0
 48
25.0
100
AcDbLine
 10
2124.301880824064
 20
3626.381907904721
 30
0.0
 11
2124.301880824064
 21
3624.38190790472
 31
0.0
  0
LINE
  5
B4F0
330
747D
100
AcDbEntity
  8
0
 48
25.0
100
AcDbLine
 10
2124.301880824064
 20
3606.381907904721
 30
0.0
 11
2126.301880824065
 21
3606.381907904721
 31
0.0
  0
LINE
  5
B4F1
330
747D
100
AcDbEntity
  8
0
 48
25.0
100
AcDbLine
 10
2124.301880824064
 20
3626.381907904721
 30
0.0
 11
2126.301880824065
 21
3626.381907904721
 31
0.0
  0
LINE
  5
B4F4
330
747D
100
AcDbEntity
  8
0
 48
25.0
100
AcDbLine
 10
2091.101880824064
 20
3766.381907904721
 30
0.0
 11
2141.101880824064
 21
3766.381907904721
 31
0.0
  0
LINE
  5
B4F7
330
747D
100
AcDbEntity
  8
0
 48
25.0
100
AcDbLine
 10
2457.901880824064
 20
3626.381907904721
 30
0.0
 11
2455.901880824063
 21
3626.381907904721
 31
0.0
  0
LINE
  5
B4F8
330
747D
100
AcDbEntity
  8
0
 48
25.0
100
AcDbLine
 10
2457.901880824064
 20
3606.381907904721
 30
0.0
 11
2455.901880824063
 21
3606.381907904721
 31
0.0
  0
LINE
  5
B4F9
330
747D
100
AcDbEntity
  8
0
 48
25.0
100
AcDbLine
 10
2457.901880824064
 20
3626.381907904721
 30
0.0
 11
2457.901880824064
 21
3624.38190790472
 31
0.0
  0
LINE
  5
B4FA
330
747D
100
AcDbEntity
  8
0
 48
25.0
100
AcDbLine
 10
2491.101880824064
 20
3645.881907904721
 30
0.0
 11
2487.901880824063
 21
3643.88190790472
 31
0.0
  0
LINE
  5
B4FB
330
747D
100
AcDbEntity
  8
0
 48
25.0
100
AcDbLine
 10
2487.901880824063
 20
3624.38190790472
 30
0.0
 11
2457.901880824064
 21
3624.38190790472
 31
0.0
  0
LINE
  5
B4FC
330
747D
100
AcDbEntity
  8
0
 48
25.0
100
AcDbLine
 10
2487.901880824063
 20
3622.381907904721
 30
0.0
 11
2457.901880824064
 21
3622.381907904721
 31
0.0
  0
LINE
  5
B4FD
330
747D
100
AcDbEntity
  8
0
 48
25.0
100
AcDbLine
 10
2457.901880824064
 20
3608.381907904721
 30
0.0
 11
2457.901880824064
 21
3606.381907904721
 31
0.0
  0
LINE
  5
B4FE
330
747D
100
AcDbEntity
  8
0
 48
25.0
100
AcDbLine
 10
2487.901880824063
 20
3608.381907904721
 30
0.0
 11
2457.901880824064
 21
3608.381907904721
 31
0.0
  0
LINE
  5
B4FF
330
747D
100
AcDbEntity
  8
0
 48
25.0
100
AcDbLine
 10
2487.901880824063
 20
3610.38190790472
 30
0.0
 11
2457.901880824064
 21
3610.38190790472
 31
0.0
  0
LINE
  5
B500
330
747D
100
AcDbEntity
  8
0
 48
25.0
100
AcDbLine
 10
2457.901880824064
 20
3622.381907904721
 30
0.0
 11
2457.901880824064
 21
3610.38190790472
 31
0.0
  0
LINE
  5
B501
330
747D
100
AcDbEntity
  8
0
 48
25.0
100
AcDbLine
 10
2455.901880824063
 20
3626.381907904721
 30
0.0
 11
2455.901880824063
 21
3606.381907904721
 31
0.0
  0
LINE
  5
B502
330
747D
100
AcDbEntity
  8
0
 48
25.0
100
AcDbLine
 10
2487.901880824063
 20
3643.88190790472
 30
0.0
 11
2487.901880824063
 21
3588.88190790472
 31
0.0
  0
LINE
  5
B503
330
747D
100
AcDbEntity
  8
0
 48
25.0
100
AcDbLine
 10
2491.101880824064
 20
3586.88190790472
 30
0.0
 11
2487.901880824063
 21
3588.88190790472
 31
0.0
  0
LINE
  5
B506
330
747D
100
AcDbEntity
  8
0
 48
25.0
100
AcDbLine
 10
2441.101880824066
 20
3766.381907904721
 30
0.0
 11
2491.101880824064
 21
3766.381907904721
 31
0.0
  0
LINE
  5
B50D
330
747D
100
AcDbEntity
  8
0
 48
25.0
100
AcDbLine
 10
3922.762131327725
 20
3096.381907904721
 30
0.0
 11
3922.762131327725
 21
3766.381907904721
 31
0.0
  0
LINE
  5
B510
330
747D
100
AcDbEntity
  8
0
 48
25.0
100
AcDbLine
 10
3922.762131327725
 20
3096.381907904721
 30
0.0
 11
3932.762131327725
 21
3086.381907904721
 31
0.0
  0
DIMENSION
  5
B51A
330
747D
100
AcDbEntity
  8
寸法引出
 48
25.0
100
AcDbDimension
  2
*D59
 10
4802.762131327725
 20
3888.446434966672
 30
0.0
 11
4422.762131327725
 21
3928.446434966673
 31
0.0
 70
    32
 71
     5
 42
760.0
  3
SANWA
100
AcDbAlignedDimension
 13
4042.762131327725
 23
3766.381907904721
 33
0.0
 14
4802.762131327725
 24
3766.381907904721
 34
0.0
100
AcDbRotatedDimension
1001
ACAD
1000
DSTYLE
1002
{
1070
    40
1040
20.0
1070
    41
1040
1.5
1070
    43
1040
5.0
1070
    44
1040
0.5
1070
    75
1070
     1
1070
   140
1040
2.0
1070
   147
1040
1.0
1070
   176
1070
   256
1070
   177
1070
   256
1070
   178
1070
   256
1070
   279
1070
     1
1002
}
  0
DIMENSION
  5
B51B
330
747D
100
AcDbEntity
  8
寸法引出
 48
25.0
100
AcDbDimension
  2
*D60
 10
4042.762131327725
 20
3888.446434966672
 30
0.0
 11
3982.762131327724
 21
3928.446434966673
 31
0.0
 70
    32
 71
     5
 42
120.0
  3
SANWA
100
AcDbAlignedDimension
 13
3922.762131327725
 23
3766.381907904721
 33
0.0
 14
4042.762131327725
 24
3766.381907904721
 34
0.0
100
AcDbRotatedDimension
1001
ACAD
1000
DSTYLE
1002
{
1070
   140
1040
2.0
1070
    40
1040
20.0
1070
   147
1040
1.0
1070
    44
1040
0.5
1070
    43
1040
5.0
1070
   178
1070
   256
1070
   177
1070
   256
1070
   176
1070
   256
1070
    41
1040
1.5
1002
}
  0
LINE
  5
B51C
330
747D
100
AcDbEntity
  8
0
  6
HIDDEN2
 48
5.0
100
AcDbLine
 10
4033.762131327725
 20
3766.381907904721
 30
0.0
 11
4051.762131327726
 21
3766.381907904721
 31
0.0
  0
LINE
  5
B51D
330
747D
100
AcDbEntity
  8
0
  6
HIDDEN2
 48
5.0
100
AcDbLine
 10
4052.762131327725
 20
3729.381907904721
 30
0.0
 11
4032.762131327724
 21
3729.381907904721
 31
0.0
  0
LINE
  5
B51E
330
747D
100
AcDbEntity
  8
0
  6
HIDDEN2
 48
5.0
100
AcDbLine
 10
4052.762131327725
 20
3724.38190790472
 30
0.0
 11
4032.762131327724
 21
3724.38190790472
 31
0.0
  0
DIMENSION
  5
B51F
330
747D
100
AcDbEntity
  8
寸法引出
 48
20.0
100
AcDbDimension
  2
*D76
 10
3835.856253632302
 20
3616.381907904721
 30
0.0
 11
3795.856253632301
 21
3691.381907904721
 31
0.0
 70
    32
 71
     5
 42
150.0
  3
SANWA
100
AcDbAlignedDimension
 13
3922.762131327725
 23
3766.381907904721
 33
0.0
 14
3922.762131327725
 24
3616.381907904721
 34
0.0
 50
90.0
100
AcDbRotatedDimension
1001
ACAD
1000
DSTYLE
1002
{
1070
    40
1040
20.0
1070
    41
1040
1.5
1070
    43
1040
5.0
1070
    44
1040
0.5
1070
   140
1040
2.0
1070
   147
1040
1.0
1070
   176
1070
   256
1070
   177
1070
   256
1070
   178
1070
   256
1002
}
  0
DIMENSION
  5
B520
330
747D
100
AcDbEntity
  8
寸法引出
 48
25.0
100
AcDbDimension
  2
*D75
 10
3972.762131327725
 20
3671.440398842077
 30
0.0
 11
3947.762131327725
 21
3711.440398842077
 31
0.0
 70
    32
 71
     5
 42
50.0
  3
SANWA
100
AcDbAlignedDimension
 13
3922.762131327725
 23
3640.881907904721
 33
0.0
 14
3972.762131327725
 24
3616.381907904721
 34
0.0
100
AcDbRotatedDimension
1001
ACAD
1000
DSTYLE
1002
{
1070
    40
1040
20.0
1070
    41
1040
1.5
1070
    43
1040
5.0
1070
    44
1040
0.5
1070
   140
1040
2.0
1070
   147
1040
1.0
1070
   176
1070
   256
1070
   177
1070
   256
1070
   178
1070
   256
1002
}
  0
CIRCLE
  5
B521
330
747D
100
AcDbEntity
  8
0
 48
25.0
100
AcDbCircle
 10
3972.762131327725
 20
3616.38190790472
 30
0.0
 40
6.0
  0
LINE
  5
B522
330
747D
100
AcDbEntity
  8
0
  6
HIDDEN2
 48
5.0
100
AcDbLine
 10
4033.762131327725
 20
3729.381907904721
 30
0.0
 11
4033.762131327725
 21
3766.381907904721
 31
0.0
  0
LINE
  5
B523
330
747D
100
AcDbEntity
  8
0
  6
HIDDEN2
 48
5.0
100
AcDbLine
 10
4032.762131327724
 20
3724.38190790472
 30
0.0
 11
4032.762131327724
 21
3729.381907904721
 31
0.0
  0
LINE
  5
B524
330
747D
100
AcDbEntity
  8
0
  6
HIDDEN2
 48
5.0
100
AcDbLine
 10
4051.762131327725
 20
3766.381907904721
 30
0.0
 11
4051.762131327725
 21
3729.381907904721
 31
0.0
  0
LINE
  5
B525
330
747D
100
AcDbEntity
  8
0
  6
HIDDEN2
 48
5.0
100
AcDbLine
 10
4052.762131327725
 20
3729.381907904721
 30
0.0
 11
4052.762131327725
 21
3724.38190790472
 31
0.0
  0
LINE
  5
B526
330
747D
100
AcDbEntity
  8
0
100
AcDbLine
 10
3806.765883263771
 20
4151.062389819106
 30
0.0
 11
4106.501629187095
 21
4151.062389819106
 31
0.0
  0
TEXT
  5
B527
330
747D
100
AcDbEntity
  8
0
100
AcDbText
 10
3825.320359911247
 20
4171.483521579076
 30
0.0
 40
60.0
  1
側壁部
  7
SANWA
 72
     4
 11
3956.97750276839
 21
4201.826378721933
 31
0.0
100
AcDbText
  0
LINE
  5
B528
330
747D
100
AcDbEntity
  8
0
  6
HIDDEN2
 48
5.0
100
AcDbLine
 10
4811.762131327725
 20
3766.381907904721
 30
0.0
 11
4811.762131327725
 21
3729.381907904721
 31
0.0
  0
LINE
  5
B529
330
747D
100
AcDbEntity
  8
0
  6
HIDDEN2
 48
5.0
100
AcDbLine
 10
4793.762131327724
 20
3729.381907904721
 30
0.0
 11
4793.762131327724
 21
3766.381907904721
 31
0.0
  0
LINE
  5
B52A
330
747D
100
AcDbEntity
  8
0
  6
HIDDEN2
 48
5.0
100
AcDbLine
 10
4792.762131327725
 20
3724.38190790472
 30
0.0
 11
4792.762131327725
 21
3729.381907904721
 31
0.0
  0
LINE
  5
B52B
330
747D
100
AcDbEntity
  8
0
  6
HIDDEN2
 48
5.0
100
AcDbLine
 10
4812.762131327725
 20
3729.381907904721
 30
0.0
 11
4812.762131327725
 21
3724.38190790472
 31
0.0
  0
LINE
  5
B52C
330
747D
100
AcDbEntity
  8
0
  6
HIDDEN2
 48
5.0
100
AcDbLine
 10
4812.762131327725
 20
3729.381907904721
 30
0.0
 11
4792.762131327725
 21
3729.381907904721
 31
0.0
  0
LINE
  5
B52D
330
747D
100
AcDbEntity
  8
0
  6
HIDDEN2
 48
5.0
100
AcDbLine
 10
4812.762131327725
 20
3724.38190790472
 30
0.0
 11
4792.762131327725
 21
3724.38190790472
 31
0.0
  0
LINE
  5
B52E
330
747D
100
AcDbEntity
  8
0
  6
HIDDEN2
 48
5.0
100
AcDbLine
 10
4793.762131327724
 20
3766.381907904721
 30
0.0
 11
4811.762131327727
 21
3766.381907904721
 31
0.0
  0
LINE
  5
B537
330
747D
100
AcDbEntity
  8
枠
100
AcDbLine
 10
7175.0
 20
250.0
 30
0.0
 11
7175.0
 21
5000.0
 31
0.0
  0
LINE
  5
B552
330
747D
100
AcDbEntity
  8
0
 62
     0
100
AcDbLine
 10
5997.553191489351
 20
670.0000000000045
 30
0.0
 11
7175.0
 21
670.0000000000045
 31
0.0
  0
LINE
  5
B553
330
747D
100
AcDbEntity
  8
0
 62
     0
100
AcDbLine
 10
5997.553191489351
 20
830.0000000000064
 30
0.0
 11
7175.0
 21
830.0000000000064
 31
0.0
  0
TEXT
  5
B554
330
747D
100
AcDbEntity
  8
0
 48
2.0
100
AcDbText
 10
6015.480113215563
 20
541.5684862348943
 30
0.0
 40
27.99999999999999
  1
格
  7
SANWA
100
AcDbText
  0
TEXT
  5
B555
330
747D
100
AcDbEntity
  8
0
 48
2.0
100
AcDbText
 10
6015.480113215563
 20
601.1410255214623
 30
0.0
 40
27.99999999999999
  1
規
  7
SANWA
100
AcDbText
  0
TEXT
  5
B556
330
747D
100
AcDbEntity
  8
0
 48
2.0
100
AcDbText
 10
6014.775609774869
 20
699.8772475912237
 30
0.0
 40
27.99999999999999
  1
名
  7
SANWA
100
AcDbText
  0
TEXT
  5
B557
330
747D
100
AcDbEntity
  8
0
 48
2.0
100
AcDbText
 10
6014.208558144742
 20
739.0543600013415
 30
0.0
 40
27.99999999999999
  1
び
  7
SANWA
100
AcDbText
  0
TEXT
  5
B558
330
747D
100
AcDbEntity
  8
0
 48
2.0
100
AcDbText
 10
6014.605708847353
 20
777.3913655001133
 30
0.0
 40
27.99999999999999
  1
呼
  7
SANWA
100
AcDbText
  0
TEXT
  5
B559
330
747D
100
AcDbEntity
  8
0
 48
2.0
100
AcDbText
 10
6014.721730996167
 20
868.3271054076495
 30
0.0
 40
27.99999999999999
  1
名
  7
SANWA
100
AcDbText
  0
TEXT
  5
B55A
330
747D
100
AcDbEntity
  8
0
 48
2.0
100
AcDbText
 10
6016.238495434958
 20
933.9614944784107
 30
0.0
 40
27.99999999999999
  1
品
  7
SANWA
100
AcDbText
  0
LINE
  5
B55B
330
747D
100
AcDbEntity
  8
0
100
AcDbLine
 10
5997.553191489351
 20
990.000000000009
 30
0.0
 11
6035.462120509077
 21
990.000000000009
 31
0.0
  0
LINE
  5
B55C
330
747D
100
AcDbEntity
  8
0
100
AcDbLine
 10
5337.553191489337
 20
510.0000000000027
 30
0.0
 11
7175.0
 21
510.0000000000027
 31
0.0
  0
LINE
  5
B55D
330
747D
100
AcDbEntity
  8
0
 62
     0
100
AcDbLine
 10
5337.553191489337
 20
990.000000000009
 30
0.0
 11
7175.0
 21
990.000000000009
 31
0.0
  0
LINE
  5
B55E
330
747D
100
AcDbEntity
  8
0
100
AcDbLine
 10
5997.553191489351
 20
250.0
 30
0.0
 11
5997.553191489351
 21
990.000000000009
 31
0.0
  0
LINE
  5
B55F
330
747D
100
AcDbEntity
  8
0
100
AcDbLine
 10
5337.553191489337
 20
990.000000000009
 30
0.0
 11
5337.553191489337
 21
870.0000000000045
 31
0.0
  0
MTEXT
  5
B560
330
747D
100
AcDbEntity
  8
寸法引出
  6
ByBlock
 48
20.0
100
AcDbMText
 10
3798.871967551633
 20
733.4434625301391
 30
0.0
 40
30.0
 41
0.0
 71
     5
 72
     1
  1
接合面
  7
SANWA
 73
     1
 44
1.0
  0
TEXT
  5
B561
102
{ACAD_REACTORS
330
B564
102
}
330
747D
100
AcDbEntity
  8
0
 48
2.0
100
AcDbText
 10
5706.652705126209
 20
138.2515261873113
 30
0.0
 40
40.0
  1
大
  7
SANWA
100
AcDbText
  0
CIRCLE
  5
B562
102
{ACAD_REACTORS
330
B564
102
}
330
747D
100
AcDbEntity
  8
0
100
AcDbCircle
 10
5734.249862080838
 20
124.9150303025226
 30
0.0
 40
75.97521057257927
  0
CIRCLE
  5
B563
102
{ACAD_REACTORS
330
B564
102
}
330
747D
100
AcDbEntity
  8
0
100
AcDbCircle
 10
5734.249862080838
 20
124.9150303025226
 30
0.0
 40
79.97521057257928
  0
HATCH
  5
B564
330
747D
100
AcDbEntity
  8
0
100
AcDbHatch
 10
0.0
 20
0.0
 30
0.0
210
0.0
220
0.0
230
1.0
  2
SOLID
 70
     1
 71
     1
 91
        4
 92
        7
 72
     1
 73
     1
 93
        2
 10
5814.225072653417
 20
124.9150303025226
 42
1.0
 10
5654.274651508259
 20
124.9150303025226
 42
1.0
 97
        1
330
B563
 92
       22
 72
     1
 73
     1
 93
        2
 10
5810.225072653418
 20
124.9150303025226
 42
1.0
 10
5658.274651508259
 20
124.9150303025226
 42
1.0
 97
        1
330
B562
 92
      136
 93
        4
 72
     1
 10
5693.966990840495
 20
121.9086690444542
 11
5777.852705126209
 21
121.9086690444542
 72
     1
 10
5777.852705126209
 20
121.9086690444542
 11
5777.852705126209
 21
198.0229547587399
 72
     1
 10
5777.852705126209
 20
198.0229547587399
 11
5693.966990840495
 21
198.0229547587399
 72
     1
 10
5693.966990840495
 20
198.0229547587399
 11
5693.966990840495
 21
121.9086690444542
 97
        1
330
B561
 92
      136
 93
        4
 72
     1
 10
5692.397801807277
 20
62.37636485312112
 11
5777.540658950133
 21
62.37636485312112
 72
     1
 10
5777.540658950133
 20
62.37636485312112
 11
5777.540658950133
 21
142.2620791388354
 72
     1
 10
5777.540658950133
 20
142.2620791388354
 11
5692.397801807277
 21
142.2620791388354
 72
     1
 10
5692.397801807277
 20
142.2620791388354
 11
5692.397801807277
 21
62.37636485312112
 97
        1
330
B569
 75
     0
 76
     1
 47
0.0602706122334892
 98
        2
 10
5772.567005191331
 20
193.6637821371559
 10
5772.567005191331
 20
193.6637821371559
  0
CIRCLE
  5
B565
102
{ACAD_REACTORS
330
B568
102
}
330
747D
100
AcDbEntity
  8
0
100
AcDbCircle
 10
5532.353865006302
 20
121.52799383
 30
0.0
 40
79.97521057257928
  0
CIRCLE
  5
B566
102
{ACAD_REACTORS
330
B568
102
}
330
747D
100
AcDbEntity
  8
0
100
AcDbCircle
 10
5532.353865006302
 20
121.52799383
 30
0.0
 40
75.97521057257927
  0
TEXT
  5
B567
102
{ACAD_REACTORS
330
B568
102
}
330
747D
100
AcDbEntity
  8
0
 48
2.0
100
AcDbText
 10
5504.756708051672
 20
132.7163888296463
 30
0.0
 40
40.0
  1
蒔
  7
SANWA
100
AcDbText
  0
HATCH
  5
B568
330
747D
100
AcDbEntity
  8
0
100
AcDbHatch
 10
0.0
 20
0.0
 30
0.0
210
0.0
220
0.0
230
1.0
  2
SOLID
 70
     1
 71
     1
 91
        4
 92
        7
 72
     1
 73
     1
 93
        2
 10
5612.329075578881
 20
121.52799383
 42
1.0
 10
5452.378654433722
 20
121.52799383
 42
1.0
 97
        1
330
B565
 92
       22
 72
     1
 73
     1
 93
        2
 10
5608.329075578882
 20
121.52799383
 42
1.0
 10
5456.378654433723
 20
121.52799383
 42
1.0
 97
        1
330
B566
 92
      136
 93
        4
 72
     1
 10
5491.556708051673
 20
113.8021031153606
 11
5576.470993765958
 21
113.8021031153606
 72
     1
 10
5576.470993765958
 20
113.8021031153606
 11
5576.470993765958
 21
193.0021031153606
 72
     1
 10
5576.470993765958
 20
193.0021031153606
 11
5491.556708051673
 21
193.0021031153606
 72
     1
 10
5491.556708051673
 20
193.0021031153606
 11
5491.556708051673
 21
113.8021031153606
 97
        1
330
B567
 92
       24
 93
        4
 72
     1
 10
5491.873233304193
 20
54.37358697902178
 11
5574.273233304192
 21
54.37358697902178
 72
     1
 10
5574.273233304192
 20
54.37358697902178
 11
5574.273233304192
 21
126.0307298361646
 72
     1
 10
5574.273233304192
 20
126.0307298361646
 11
5491.873233304193
 21
126.0307298361646
 72
     1
 10
5491.873233304193
 20
126.0307298361646
 11
5491.873233304193
 21
54.37358697902178
 97
        1
330
B56A
 75
     0
 76
     1
 47
0.0602706122334892
 98
        2
 10
5570.671008116811
 20
190.2767456646333
 10
5570.671008116811
 20
190.2767456646333
  0
TEXT
  5
B569
102
{ACAD_REACTORS
330
B564
102
}
330
747D
100
AcDbEntity
  8
0
 48
2.0
100
AcDbText
 10
5705.712087521562
 20
81.63350771026399
 30
0.0
 40
40.0
  1
嶋
  7
SANWA
100
AcDbText
  0
TEXT
  5
B56A
102
{ACAD_REACTORS
330
B568
102
}
330
747D
100
AcDbEntity
  8
0
 48
2.0
100
AcDbText
 10
5503.816090447049
 20
71.8021584075932
 30
0.0
 40
40.0
  1
田
  7
SANWA
100
AcDbText
  0
TEXT
  5
B56B
330
747D
100
AcDbEntity
  8
0
 48
2.0
100
AcDbText
 10
5391.248993407271
 20
522.0856316808067
 30
0.0
 40
40.0
  1
製図
  7
SANWA
100
AcDbText
  0
LINE
  5
B56C
330
747D
100
AcDbEntity
  8
0
 62
     0
100
AcDbLine
 10
5337.553191489337
 20
450.0
 30
0.0
 11
5997.553191489351
 21
450.0
 31
0.0
  0
TEXT
  5
B56D
330
747D
100
AcDbEntity
  8
0
 48
2.0
100
AcDbText
 10
5419.657303408427
 20
298.3507386920673
 30
0.0
 40
40.0
  1
口
  7
SANWA
100
AcDbText
  0
TEXT
  5
B56E
330
747D
100
AcDbEntity
  8
0
 48
2.0
100
AcDbText
 10
5420.597921013073
 20
354.9687571691256
 30
0.0
 40
40.0
  1
河
  7
SANWA
100
AcDbText
  0
CIRCLE
  5
B56F
102
{ACAD_REACTORS
330
B571
102
}
330
747D
100
AcDbEntity
  8
0
100
AcDbCircle
 10
5448.195077967703
 20
349.6836867366137
 30
0.0
 40
79.97521057257928
  0
CIRCLE
  5
B570
102
{ACAD_REACTORS
330
B571
102
}
330
747D
100
AcDbEntity
  8
0
100
AcDbCircle
 10
5448.195077967703
 20
349.6836867366137
 30
0.0
 40
75.97521057257927
  0
HATCH
  5
B571
330
747D
100
AcDbEntity
  8
0
100
AcDbHatch
 10
0.0
 20
0.0
 30
0.0
210
0.0
220
0.0
230
1.0
  2
SOLID
 70
     1
 71
     1
 91
        2
 92
        7
 72
     1
 73
     1
 93
        2
 10
5528.170288540282
 20
349.6836867366137
 42
1.0
 10
5368.219867395123
 20
349.6836867366137
 42
1.0
 97
        1
330
B56F
 92
       22
 72
     1
 73
     1
 93
        2
 10
5524.170288540283
 20
349.6836867366137
 42
1.0
 10
5372.219867395124
 20
349.6836867366137
 42
1.0
 97
        1
330
B570
 75
     0
 76
     1
 47
0.0602706122334892
 98
        2
 10
5486.512221078197
 20
418.4324385712471
 10
5486.512221078197
 20
418.4324385712471
  0
LINE
  5
B572
330
747D
100
AcDbEntity
  8
0
 62
     0
100
AcDbLine
 10
5337.553191489337
 20
710.0000000000027
 30
0.0
 11
5997.553191489351
 21
710.0000000000027
 31
0.0
  0
LINE
  5
B573
330
747D
100
AcDbEntity
  8
0
 62
     0
100
AcDbLine
 10
5337.553191489337
 20
790.000000000009
 30
0.0
 11
5997.553191489351
 21
790.000000000009
 31
0.0
  0
LINE
  5
B574
330
747D
100
AcDbEntity
  8
0
 62
     0
100
AcDbLine
 10
5337.553191489337
 20
910.0000000000028
 30
0.0
 11
5997.553191489351
 21
910.0000000000028
 31
0.0
  0
LINE
  5
B575
330
747D
100
AcDbEntity
  8
0
 62
     0
100
AcDbLine
 10
5337.553191489337
 20
910.0000000000028
 30
0.0
 11
5997.553191489351
 21
910.0000000000028
 31
0.0
  0
TEXT
  5
B576
330
747D
100
AcDbEntity
  8
0
 48
2.0
100
AcDbText
 10
5385.360299888543
 20
459.6196585260831
 30
0.0
 40
40.0
  1
検図
  7
SANWA
100
AcDbText
  0
LINE
  5
B577
330
747D
100
AcDbEntity
  8
0
 62
     0
100
AcDbLine
 10
5337.553191489337
 20
570.0000000000045
 30
0.0
 11
5997.553191489351
 21
570.0000000000045
 31
0.0
  0
LINE
  5
B578
330
747D
100
AcDbEntity
  8
0
100
AcDbLine
 10
5337.553191489337
 20
630.0000000000063
 30
0.0
 11
5337.553191489337
 21
499.8919161829462
 31
0.0
  0
LINE
  5
B579
330
747D
100
AcDbEntity
  8
0
100
AcDbLine
 10
5337.553191489337
 20
570.0000000000045
 30
0.0
 11
5337.553191489337
 21
630.0000000000063
 31
0.0
  0
LINE
  5
B57A
330
747D
100
AcDbEntity
  8
0
 62
     0
100
AcDbLine
 10
5337.553191489337
 20
630.0000000000063
 30
0.0
 11
5337.553191489337
 21
250.0
 31
0.0
  0
LINE
  5
B57B
330
747D
100
AcDbEntity
  8
0
100
AcDbLine
 10
5337.553191489337
 20
570.0000000000045
 30
0.0
 11
5337.553191489337
 21
510.0000000000027
 31
0.0
  0
LINE
  5
B57C
330
747D
100
AcDbEntity
  8
0
100
AcDbLine
 10
5337.553191489337
 20
726.760945979834
 30
0.0
 11
5337.553191489337
 21
882.1169115701533
 31
0.0
  0
LINE
  5
B57D
330
747D
100
AcDbEntity
  8
0
 62
     0
100
AcDbLine
 10
5337.553191489337
 20
870.0000000000045
 30
0.0
 11
5337.553191489337
 21
630.0000000000063
 31
0.0
  0
LINE
  5
B57E
330
747D
100
AcDbEntity
  8
0
100
AcDbLine
 10
5337.553191489337
 20
670.0000000000045
 30
0.0
 11
5337.553191489337
 21
726.760945979834
 31
0.0
  0
TEXT
  5
B57F
330
747D
100
AcDbEntity
  8
0
 48
2.0
100
AcDbText
 10
5648.28717158232
 20
522.0856316808067
 30
0.0
 40
40.0
  1
2002. 5. 1
  7
SANWA
100
AcDbText
  0
LINE
  5
B580
330
747D
100
AcDbEntity
  8
0
100
AcDbLine
 10
5557.553191489342
 20
250.0
 30
0.0
 11
5557.553191489342
 21
570.0000000000045
 31
0.0
  0
TEXT
  5
B581
330
747D
100
AcDbEntity
  8
0
 48
2.0
100
AcDbText
 10
5615.12664304264
 20
461.8928629188303
 30
0.0
 40
40.0
  1
設計
  7
SANWA
100
AcDbText
  0
LINE
  5
B582
330
747D
100
AcDbEntity
  8
0
100
AcDbLine
 10
5777.553191489347
 20
250.0
 30
0.0
 11
5777.553191489347
 21
510.0000000000027
 31
0.0
  0
CIRCLE
  5
B583
102
{ACAD_REACTORS
330
B586
102
}
330
747D
100
AcDbEntity
  8
0
100
AcDbCircle
 10
5888.986668856129
 20
351.1956334690867
 30
0.0
 40
79.97521057257928
  0
CIRCLE
  5
B584
102
{ACAD_REACTORS
330
B586
102
}
330
747D
100
AcDbEntity
  8
0
100
AcDbCircle
 10
5888.986668856129
 20
351.1956334690867
 30
0.0
 40
75.97521057257927
  0
TEXT
  5
B585
102
{ACAD_REACTORS
330
B586
102
}
330
747D
100
AcDbEntity
  8
0
 48
2.0
100
AcDbText
 10
5861.389511901476
 20
364.5321293538754
 30
0.0
 40
40.0
  1
中
  7
SANWA
100
AcDbText
  0
HATCH
  5
B586
330
747D
100
AcDbEntity
  8
0
100
AcDbHatch
 10
0.0
 20
0.0
 30
0.0
210
0.0
220
0.0
230
1.0
  2
SOLID
 70
     1
 71
     1
 91
        4
 92
        7
 72
     1
 73
     1
 93
        2
 10
5968.961879428707
 20
351.1956334690867
 42
1.0
 10
5809.011458283549
 20
351.1956334690867
 42
1.0
 97
        1
330
B583
 92
       22
 72
     1
 73
     1
 93
        2
 10
5964.961879428708
 20
351.1956334690867
 42
1.0
 10
5813.01145828355
 20
351.1956334690867
 42
1.0
 97
        1
330
B584
 92
      136
 93
        4
 72
     1
 10
5848.075226187191
 20
344.5892722110182
 11
5933.218083330046
 21
344.5892722110182
 72
     1
 10
5933.218083330046
 20
344.5892722110182
 11
5933.218083330046
 21
424.4749864967326
 72
     1
 10
5933.218083330046
 20
424.4749864967326
 11
5848.075226187191
 21
424.4749864967326
 72
     1
 10
5848.075226187191
 20
424.4749864967326
 11
5848.075226187191
 21
344.5892722110182
 97
        1
330
B585
 92
      136
 93
        4
 72
     1
 10
5847.934608582567
 20
290.5998251625423
 11
5931.477465725424
 21
290.5998251625423
 72
     1
 10
5931.477465725424
 20
290.5998251625423
 11
5931.477465725424
 21
365.6855394482566
 72
     1
 10
5931.477465725424
 20
365.6855394482566
 11
5847.934608582567
 21
365.6855394482566
 72
     1
 10
5847.934608582567
 20
365.6855394482566
 11
5847.934608582567
 21
290.5998251625423
 97
        1
330
B587
 75
     0
 76
     1
 47
0.0602706122334892
 98
        2
 10
5927.303811966622
 20
419.94438530372
 10
5927.303811966622
 20
419.94438530372
  0
TEXT
  5
B587
102
{ACAD_REACTORS
330
B586
102
}
330
747D
100
AcDbEntity
  8
0
 48
2.0
100
AcDbText
 10
5860.448894296853
 20
307.914110876828
 30
0.0
 40
40.0
  1
川
  7
SANWA
100
AcDbText
  0
TEXT
  5
B588
330
747D
100
AcDbEntity
  8
0
 48
2.0
100
AcDbText
 10
5831.24899340728
 20
462.0856316808048
 30
0.0
 40
40.0
  1
製図
  7
SANWA
100
AcDbText
  0
TEXT
  5
B589
330
747D
100
AcDbEntity
  8
0
 48
2.0
100
AcDbText
 10
5546.38635427425
 20
621.2667703217012
 30
0.0
 40
40.0
  1
１：２５
  7
SANWA
100
AcDbText
  0
TEXT
  5
B58A
330
747D
100
AcDbEntity
  8
0
 48
2.0
100
AcDbText
 10
5551.005070745556
 20
830.9755021622549
 30
0.0
 40
40.0
  1
MS306020
  7
SANWA
100
AcDbText
  0
TEXT
  5
B58B
330
747D
100
AcDbEntity
  8
0
 48
2.0
100
AcDbText
 10
5544.098121932369
 20
723.9731911170228
 30
0.0
 40
40.0
  1
縮    尺
  7
SANWA
100
AcDbText
  0
TEXT
  5
B58C
330
747D
100
AcDbEntity
  8
0
 48
2.0
100
AcDbText
 10
5653.898808185772
 20
931.0686527376557
 30
0.0
 40
40.0
  1
番号
  7
SANWA
100
AcDbText
  0
TEXT
  5
B58D
330
747D
100
AcDbEntity
  8
0
 48
2.0
100
AcDbText
 10
5542.345604725415
 20
928.7954769413772
 30
0.0
 40
40.0
  1
図面
  7
SANWA
100
AcDbText
  0
MTEXT
  5
B591
330
747D
100
AcDbEntity
  8
寸法引出
  6
ByBlock
 48
20.0
100
AcDbMText
 10
3963.74226341347
 20
1134.629593400374
 30
0.0
 40
30.0
 41
0.0
 71
     5
 72
     1
  1
内面
  7
SANWA
 73
     1
 44
1.0
  0
LEADER
  5
B592
330
747D
100
AcDbEntity
  8
寸法引出
 48
25.0
100
AcDbLeader
  3
SANWA
 76
     3
 10
3870.334110878699
 20
1012.677873433879
 30
0.0
 10
3907.439746027602
 20
1106.928476812608
 30
0.0
 10
4023.165313513687
 20
1106.928476812608
 30
0.0
1001
ACAD
1000
DSTYLE
1002
{
1070
    77
1070
     0
1070
    40
1040
20.0
1070
    41
1040
1.5
1070
    43
1040
5.0
1070
    44
1040
0.5
1070
   140
1040
2.0
1070
   147
1040
1.0
1070
   176
1070
   256
1070
   177
1070
   256
1070
   178
1070
   256
1002
}
  0
LINE
  5
B5A8
330
747D
100
AcDbEntity
  8
0
 48
25.0
100
AcDbLine
 10
5922.762131327726
 20
2257.635917105981
 30
0.0
 11
5922.762131327726
 21
1857.635917105981
 31
0.0
  0
LINE
  5
B5B6
330
747D
100
AcDbEntity
  8
0
100
AcDbLine
 10
6077.553191489347
 20
510.0000000000027
 30
0.0
 11
6077.553191489347
 21
990.000000000009
 31
0.0
  0
LINE
  5
B5B7
330
747D
100
AcDbEntity
  8
0
100
AcDbLine
 10
7425.0
 20
0.0
 30
0.0
 11
7175.0
 21
0.0
 31
0.0
  0
TEXT
  5
B5B8
330
747D
100
AcDbEntity
  8
0
100
AcDbText
 10
6421.476595744684
 20
570.4571428571519
 30
0.0
 40
40.0
  1
300×600×2000
  7
SANWA
 72
     4
 11
6626.276595744684
 21
590.000000000009
 31
0.0
100
AcDbText
  0
TEXT
  5
B5B9
330
747D
100
AcDbEntity
  8
0
100
AcDbText
 10
6245.933738601827
 20
889.6571428571455
 30
0.0
 40
40.0
  1
マルチスリット側溝（横断）
  7
SANWA
 72
     4
 11
6626.276595744684
 21
910.0000000000028
 31
0.0
100
AcDbText
  0
TEXT
  5
B5BA
330
747D
100
AcDbEntity
  8
0
100
AcDbText
 10
6277.347189020769
 20
344.5314540177942
 30
0.0
 40
40.0
  1
三和コンクリート工業株式会社
  7
SANWA
100
AcDbText
  0
HATCH
  5
B5BB
330
747D
100
AcDbEntity
  8
0
100
AcDbHatch
 10
0.0
 20
0.0
 30
0.0
210
0.0
220
0.0
230
1.0
  2
SOLID
 70
     1
 71
     0
 91
        6
 92
        7
 72
     1
 73
     1
 93
        4
 10
6084.7722498009
 20
426.459654682927
 42
0.0
 10
6097.525524441386
 20
413.7063800424412
 42
-0.3722683533228775
 10
6169.595189997956
 20
413.706380042452
 42
0.0
 10
6182.348464638433
 20
426.4596546829425
 42
0.382497994028995
 97
        0
 92
       22
 72
     1
 73
     1
 93
        4
 10
6176.440513371818
 20
426.2085576657964
 42
0.0
 10
6169.313383794019
 20
419.0814280879958
 42
0.3367429548951122
 10
6097.807330645333
 20
419.0814280879958
 42
0.0
 10
6090.680201067534
 20
426.2085576657964
 42
-0.3477704275231142
 97
        0
 92
        7
 72
     1
 73
     1
 93
        4
 10
6175.252044247447
 20
408.0495257929615
 42
-0.6168583269100119
 10
6137.560357219673
 20
317.0537437817747
 42
0.0
 10
6137.560357219673
 20
299.0178898205322
 42
0.6292889159379468
 10
6188.005318887943
 20
420.8028004334346
 42
0.0
 97
        0
 92
       22
 72
     1
 73
     1
 93
        4
 10
6187.7542218708
 20
414.8948491668134
 42
-0.5873104908889521
 10
6141.560357219669
 20
303.3729946276362
 42
0.0
 10
6141.560357219669
 20
313.4522779373501
 42
0.5741105922167442
 10
6180.627092293005
 20
407.7677195890073
 42
0.0
 97
        0
 92
        7
 72
     1
 73
     1
 93
        4
 10
6079.115395551409
 20
420.8028004334346
 42
0.6292889159379484
 10
6129.56035721968
 20
299.0178898205313
 42
0.0
 10
6129.56035721968
 20
317.0537437817747
 42
-0.6168583269099083
 10
6091.868670191896
 20
408.0495257929497
 42
0.0
 97
        0
 92
       22
 72
     1
 73
     1
 93
        4
 10
6086.49362214635
 20
407.7677195890137
 42
0.5741105922167819
 10
6125.560357219683
 20
313.452277937351
 42
0.0
 10
6125.560357219683
 20
303.3729946276371
 42
-0.5873104908889487
 10
6079.366492568552
 20
414.8948491668134
 42
0.0
 97
        0
 75
     0
 76
     1
 47
0.0143554168026844
 98
        6
 10
6165.5808279733
 20
434.808876284188
 10
6165.5808279733
 20
434.808876284188
 10
6180.523262244778
 20
411.5531024217716
 10
6180.523262244778
 20
411.5531024217716
 10
6088.282422260045
 20
410.6917769343353
 10
6088.282422260045
 20
410.6917769343353
  0
TEXT
  5
B5BC
330
747D
100
AcDbEntity
  8
0
100
AcDbText
 10
6111.181671391546
 20
344.5314540177942
 30
0.0
 40
30.0
  1
和
  7
SANWA
100
AcDbText
  0
ARC
  5
B5BD
330
747D
100
AcDbEntity
  8
0
100
AcDbCircle
 10
6133.560357219676
 20
372.0146930146711
 30
0.0
 40
69.10631488841319
100
AcDbArc
 50
276.6476737862
 51
38.35232621378875
  0
ARC
  5
B5BE
330
747D
100
AcDbEntity
  8
0
100
AcDbCircle
 10
6133.560357219676
 20
372.0146930146711
 30
0.0
 40
73.1063148884132
100
AcDbArc
 50
273.136495447062
 51
41.86350455292095
  0
ARC
  5
B5BF
330
747D
100
AcDbEntity
  8
0
100
AcDbCircle
 10
6133.560357219676
 20
372.0146930146711
 30
0.0
 40
59.10631488841318
100
AcDbArc
 50
277.7788203119242
 51
37.22117968809675
  0
ARC
  5
B5C0
330
747D
100
AcDbEntity
  8
0
100
AcDbCircle
 10
6133.560357219676
 20
372.0146930146711
 30
0.0
 40
55.10631488841318
100
AcDbArc
 50
274.1625874111334
 51
40.8374125888692
  0
ARC
  5
B5C1
330
747D
100
AcDbEntity
  8
0
100
AcDbCircle
 10
6133.560357219676
 20
372.0146930146711
 30
0.0
 40
55.10631488841318
100
AcDbArc
 50
139.1625874111308
 51
265.8374125888665
  0
ARC
  5
B5C2
330
747D
100
AcDbEntity
  8
0
100
AcDbCircle
 10
6133.560357219676
 20
372.0146930146711
 30
0.0
 40
59.10631488841318
100
AcDbArc
 50
142.7788203119032
 51
262.2211796880757
  0
ARC
  5
B5C3
330
747D
100
AcDbEntity
  8
0
100
AcDbCircle
 10
6133.560357219676
 20
372.0146930146711
 30
0.0
 40
73.1063148884132
100
AcDbArc
 50
138.136495447079
 51
266.8635045529379
  0
ARC
  5
B5C4
330
747D
100
AcDbEntity
  8
0
100
AcDbCircle
 10
6133.560357219676
 20
372.0146930146711
 30
0.0
 40
69.10631488841319
100
AcDbArc
 50
141.6476737862112
 51
263.3523262137999
  0
LINE
  5
B5C5
330
747D
100
AcDbEntity
  8
0
100
AcDbLine
 10
6125.560357219683
 20
303.3729946276371
 30
0.0
 11
6125.560357219683
 21
313.4522779373464
 31
0.0
  0
LINE
  5
B5C6
330
747D
100
AcDbEntity
  8
0
100
AcDbLine
 10
6141.560357219669
 20
303.3729946276371
 30
0.0
 11
6141.560357219669
 21
313.4522779373464
 31
0.0
  0
LINE
  5
B5C7
330
747D
100
AcDbEntity
  8
0
100
AcDbLine
 10
6137.560357219673
 20
299.0178898205276
 30
0.0
 11
6137.560357219673
 21
317.0537437817756
 31
0.0
  0
LINE
  5
B5C8
330
747D
100
AcDbEntity
  8
0
100
AcDbLine
 10
6129.56035721968
 20
299.0178898205276
 30
0.0
 11
6129.56035721968
 21
317.0537437817756
 31
0.0
  0
LINE
  5
B5C9
330
747D
100
AcDbEntity
  8
0
100
AcDbLine
 10
6169.595189997949
 20
413.7063800424466
 30
0.0
 11
6182.348464638426
 21
426.4596546829352
 31
0.0
  0
LINE
  5
B5CA
330
747D
100
AcDbEntity
  8
0
100
AcDbLine
 10
6175.252044247441
 20
408.0495257929551
 30
0.0
 11
6188.005318887939
 21
420.8028004334328
 31
0.0
  0
ARC
  5
B5CB
330
747D
100
AcDbEntity
  8
0
100
AcDbCircle
 10
6133.560357219676
 20
372.0146930146711
 30
0.0
 40
73.1063148884132
100
AcDbArc
 50
48.13649544707906
 51
131.8635045529209
  0
ARC
  5
B5CC
330
747D
100
AcDbEntity
  8
0
100
AcDbCircle
 10
6133.560357219676
 20
372.0146930146711
 30
0.0
 40
69.10631488841319
100
AcDbArc
 50
51.64767378621125
 51
128.3523262137887
  0
ARC
  5
B5CD
330
747D
100
AcDbEntity
  8
0
100
AcDbCircle
 10
6133.560357219676
 20
372.0146930146711
 30
0.0
 40
59.10631488841318
100
AcDbArc
 50
52.77882031188749
 51
127.2211796881125
  0
ARC
  5
B5CE
330
747D
100
AcDbEntity
  8
0
100
AcDbCircle
 10
6133.560357219676
 20
372.0146930146711
 30
0.0
 40
55.10631488841318
100
AcDbArc
 50
49.16258741113348
 51
130.8374125888665
  0
LINE
  5
B5CF
330
747D
100
AcDbEntity
  8
0
100
AcDbLine
 10
6097.807330645333
 20
419.0814280879976
 30
0.0
 11
6090.680201067538
 21
426.2085576657909
 31
0.0
  0
LINE
  5
B5D0
330
747D
100
AcDbEntity
  8
0
100
AcDbLine
 10
6086.49362214635
 20
407.7677195890146
 30
0.0
 11
6079.366492568555
 21
414.8948491668079
 31
0.0
  0
LINE
  5
B5D1
330
747D
100
AcDbEntity
  8
0
100
AcDbLine
 10
6091.868670191889
 20
408.0495257929551
 30
0.0
 11
6079.03795908976
 21
420.8802368950846
 31
0.0
  0
LINE
  5
B5D2
330
747D
100
AcDbEntity
  8
0
100
AcDbLine
 10
6097.52552444138
 20
413.7063800424466
 30
0.0
 11
6084.69481333925
 21
426.5370911445761
 31
0.0
  0
TEXT
  5
B5D3
330
747D
100
AcDbEntity
  8
0
100
AcDbText
 10
6111.181671391546
 20
384.3868193377375
 30
0.0
 40
30.0
  1
三
  7
SANWA
100
AcDbText
  0
LINE
  5
B5D4
330
747D
100
AcDbEntity
  8
0
100
AcDbLine
 10
6169.313383794019
 20
419.0814280879976
 30
0.0
 11
6176.440513371813
 21
426.2085576657909
 31
0.0
  0
LINE
  5
B5D5
330
747D
100
AcDbEntity
  8
0
100
AcDbLine
 10
6180.627092293002
 20
407.7677195890037
 30
0.0
 11
6187.754221870797
 21
414.8948491668079
 31
0.0
  0
LINE
  5
B5D6
330
747D
100
AcDbEntity
  8
0
100
AcDbLine
 10
7425.0
 20
250.0
 30
0.0
 11
7425.0
 21
0.0
 31
0.0
  0
LINE
  5
B60E
330
747D
100
AcDbEntity
  8
0
 48
25.0
100
AcDbLine
 10
5922.762131327726
 20
3766.381907904721
 30
0.0
 11
5922.762131327726
 21
3096.381907904721
 31
0.0
  0
LINE
  5
B616
330
747D
100
AcDbEntity
  8
0
 48
25.0
100
AcDbLine
 10
5922.762131327726
 20
3096.381907904721
 30
0.0
 11
5912.762131327725
 21
3086.381907904721
 31
0.0
  0
DIMENSION
  5
B617
330
747D
100
AcDbEntity
  8
寸法引出
 48
25.0
100
AcDbDimension
  2
*D77
 10
5802.762131327725
 20
3888.446434966672
 30
0.0
 11
5422.762131327726
 21
3928.446434966673
 31
0.0
 70
    32
 71
     5
 42
760.0
  3
SANWA
100
AcDbAlignedDimension
 13
5042.762131327725
 23
3766.381907904721
 33
0.0
 14
5802.762131327725
 24
3766.381907904721
 34
0.0
100
AcDbRotatedDimension
1001
ACAD
1000
DSTYLE
1002
{
1070
    40
1040
20.0
1070
    41
1040
1.5
1070
    43
1040
5.0
1070
    44
1040
0.5
1070
    75
1070
     1
1070
   140
1040
2.0
1070
   147
1040
1.0
1070
   176
1070
   256
1070
   177
1070
   256
1070
   178
1070
   256
1070
   279
1070
     1
1002
}
  0
LINE
  5
B61A
330
747D
100
AcDbEntity
  8
0
  6
HIDDEN2
 48
5.0
100
AcDbLine
 10
5052.762131327725
 20
3729.381907904721
 30
0.0
 11
5032.762131327725
 21
3729.381907904721
 31
0.0
  0
LINE
  5
B61B
330
747D
100
AcDbEntity
  8
0
  6
HIDDEN2
 48
5.0
100
AcDbLine
 10
5052.762131327725
 20
3724.38190790472
 30
0.0
 11
5032.762131327725
 21
3724.38190790472
 31
0.0
  0
LINE
  5
B61C
330
747D
100
AcDbEntity
  8
0
  6
HIDDEN2
 48
5.0
100
AcDbLine
 10
5051.762131327725
 20
3766.381907904721
 30
0.0
 11
5051.762131327725
 21
3729.381907904721
 31
0.0
  0
LINE
  5
B61D
330
747D
100
AcDbEntity
  8
0
  6
HIDDEN2
 48
5.0
100
AcDbLine
 10
5033.762131327725
 20
3729.381907904721
 30
0.0
 11
5033.762131327725
 21
3766.381907904721
 31
0.0
  0
LINE
  5
B61E
330
747D
100
AcDbEntity
  8
0
  6
HIDDEN2
 48
5.0
100
AcDbLine
 10
5032.762131327725
 20
3724.38190790472
 30
0.0
 11
5032.762131327725
 21
3729.381907904721
 31
0.0
  0
LINE
  5
B61F
330
747D
100
AcDbEntity
  8
0
  6
HIDDEN2
 48
5.0
100
AcDbLine
 10
5033.762131327725
 20
3766.381907904721
 30
0.0
 11
5051.762131327727
 21
3766.381907904721
 31
0.0
  0
LINE
  5
B620
330
747D
100
AcDbEntity
  8
0
  6
HIDDEN2
 48
5.0
100
AcDbLine
 10
5052.762131327725
 20
3729.381907904721
 30
0.0
 11
5052.762131327725
 21
3724.38190790472
 31
0.0
  0
DIMENSION
  5
B626
330
747D
100
AcDbEntity
  8
寸法引出
 48
25.0
100
AcDbDimension
  2
*D78
 10
5922.762131327726
 20
3888.446434966672
 30
0.0
 11
5862.762131327725
 21
3928.446434966673
 31
0.0
 70
    32
 71
     5
 42
120.0
  3
SANWA
100
AcDbAlignedDimension
 13
5802.762131327725
 23
3766.381907904721
 33
0.0
 14
5922.762131327726
 24
3766.381907904721
 34
0.0
100
AcDbRotatedDimension
1001
ACAD
1000
DSTYLE
1002
{
1070
    40
1040
20.0
1070
    41
1040
1.5
1070
    43
1040
5.0
1070
    44
1040
0.5
1070
    75
1070
     1
1070
   140
1040
2.0
1070
   147
1040
1.0
1070
   176
1070
   256
1070
   177
1070
   256
1070
   178
1070
   256
1070
   279
1070
     1
1002
}
  0
LINE
  5
B627
330
747D
100
AcDbEntity
  8
0
 48
25.0
100
AcDbLine
 10
5922.762131327726
 20
3645.881907904721
 30
0.0
 11
5835.762131327727
 21
3645.881907904721
 31
0.0
  0
LINE
  5
B628
330
747D
100
AcDbEntity
  8
0
 48
25.0
100
AcDbLine
 10
5922.762131327726
 20
3643.88190790472
 30
0.0
 11
5837.762131327728
 21
3643.88190790472
 31
0.0
  0
LINE
  5
B629
330
747D
100
AcDbEntity
  8
0
 48
25.0
100
AcDbLine
 10
5922.762131327726
 20
3588.88190790472
 30
0.0
 11
5837.762131327727
 21
3588.88190790472
 31
0.0
  0
LINE
  5
B62A
330
747D
100
AcDbEntity
  8
0
 48
25.0
100
AcDbLine
 10
5922.762131327726
 20
3586.88190790472
 30
0.0
 11
5835.762131327729
 21
3586.88190790472
 31
0.0
  0
LINE
  5
B62B
330
747D
100
AcDbEntity
  8
0
 48
25.0
100
AcDbLine
 10
5835.762131327727
 20
3645.881907904721
 30
0.0
 11
5837.762131327728
 21
3643.88190790472
 31
0.0
  0
LINE
  5
B62C
330
747D
100
AcDbEntity
  8
0
 48
25.0
100
AcDbLine
 10
5837.762131327728
 20
3643.88190790472
 30
0.0
 11
5837.762131327727
 21
3588.88190790472
 31
0.0
  0
LINE
  5
B62D
330
747D
100
AcDbEntity
  8
0
 48
25.0
100
AcDbLine
 10
5835.762131327729
 20
3586.88190790472
 30
0.0
 11
5837.762131327727
 21
3588.88190790472
 31
0.0
  0
LINE
  5
B62E
330
747D
100
AcDbEntity
  8
0
 48
25.0
100
AcDbLine
 10
5835.762131327727
 20
3645.881907904721
 30
0.0
 11
5835.762131327729
 21
3586.88190790472
 31
0.0
  0
CIRCLE
  5
B62F
330
747D
100
AcDbEntity
  8
0
 48
25.0
100
AcDbCircle
 10
5872.762131327725
 20
3616.38190790472
 30
0.0
 40
6.0
  0
LINE
  5
B630
330
747D
100
AcDbEntity
  8
0
  6
HIDDEN2
 48
5.0
100
AcDbLine
 10
5811.762131327725
 20
3766.381907904721
 30
0.0
 11
5811.762131327725
 21
3729.381907904721
 31
0.0
  0
LINE
  5
B631
330
747D
100
AcDbEntity
  8
0
  6
HIDDEN2
 48
5.0
100
AcDbLine
 10
5793.762131327724
 20
3729.381907904721
 30
0.0
 11
5793.762131327724
 21
3766.381907904721
 31
0.0
  0
LINE
  5
B632
330
747D
100
AcDbEntity
  8
0
  6
HIDDEN2
 48
5.0
100
AcDbLine
 10
5792.762131327725
 20
3724.38190790472
 30
0.0
 11
5792.762131327725
 21
3729.381907904721
 31
0.0
  0
LINE
  5
B633
330
747D
100
AcDbEntity
  8
0
  6
HIDDEN2
 48
5.0
100
AcDbLine
 10
5812.762131327725
 20
3729.381907904721
 30
0.0
 11
5812.762131327725
 21
3724.38190790472
 31
0.0
  0
LINE
  5
B634
330
747D
100
AcDbEntity
  8
0
  6
HIDDEN2
 48
5.0
100
AcDbLine
 10
5812.762131327725
 20
3729.381907904721
 30
0.0
 11
5792.762131327725
 21
3729.381907904721
 31
0.0
  0
LINE
  5
B635
330
747D
100
AcDbEntity
  8
0
  6
HIDDEN2
 48
5.0
100
AcDbLine
 10
5812.762131327725
 20
3724.38190790472
 30
0.0
 11
5792.762131327725
 21
3724.38190790472
 31
0.0
  0
LINE
  5
B636
330
747D
100
AcDbEntity
  8
0
  6
HIDDEN2
 48
5.0
100
AcDbLine
 10
5793.762131327724
 20
3766.381907904721
 30
0.0
 11
5811.762131327727
 21
3766.381907904721
 31
0.0
  0
LINE
  5
B64D
330
747D
100
AcDbEntity
  8
0
100
AcDbLine
 10
7175.0
 20
5250.0
 30
0.0
 11
7425.0
 21
5250.0
 31
0.0
  0
LINE
  5
B64E
330
747D
100
AcDbEntity
  8
0
100
AcDbLine
 10
7425.0
 20
5250.0
 30
0.0
 11
7425.0
 21
5000.0
 31
0.0
  0
LINE
  5
BFEE
330
747D
100
AcDbEntity
  8
0
 48
25.0
100
AcDbLine
 10
3922.762131327725
 20
2207.635917105981
 30
0.0
 11
5922.762131327726
 21
2207.635917105981
 31
0.0
  0
LINE
  5
BFEF
330
747D
100
AcDbEntity
  8
0
 48
25.0
100
AcDbLine
 10
5922.762131327726
 20
1907.635917105981
 30
0.0
 11
3922.762131327725
 21
1907.635917105981
 31
0.0
  0
LINE
  5
BFF0
330
747D
100
AcDbEntity
  8
0
 48
25.0
100
AcDbLine
 10
3922.762131327725
 20
3586.88190790472
 30
0.0
 11
4009.762131327721
 21
3586.88190790472
 31
0.0
  0
LINE
  5
BFF1
330
747D
100
AcDbEntity
  8
0
 48
25.0
100
AcDbLine
 10
3922.762131327725
 20
3588.88190790472
 30
0.0
 11
4007.762131327723
 21
3588.88190790472
 31
0.0
  0
LINE
  5
BFF2
330
747D
100
AcDbEntity
  8
0
 48
25.0
100
AcDbLine
 10
3922.762131327725
 20
3643.88190790472
 30
0.0
 11
4007.762131327721
 21
3643.88190790472
 31
0.0
  0
LINE
  5
BFF3
330
747D
100
AcDbEntity
  8
0
 48
25.0
100
AcDbLine
 10
3922.762131327725
 20
3645.881907904721
 30
0.0
 11
4009.762131327723
 21
3645.881907904721
 31
0.0
  0
LINE
  5
BFF4
330
747D
100
AcDbEntity
  8
0
 48
25.0
100
AcDbLine
 10
4009.762131327723
 20
3645.881907904721
 30
0.0
 11
4009.762131327721
 21
3586.88190790472
 31
0.0
  0
LINE
  5
BFF5
330
747D
100
AcDbEntity
  8
0
 48
25.0
100
AcDbLine
 10
4009.762131327721
 20
3586.88190790472
 30
0.0
 11
4007.762131327723
 21
3588.88190790472
 31
0.0
  0
LINE
  5
BFF6
330
747D
100
AcDbEntity
  8
0
 48
25.0
100
AcDbLine
 10
4007.762131327721
 20
3643.88190790472
 30
0.0
 11
4007.762131327723
 21
3588.88190790472
 31
0.0
  0
LINE
  5
BFF7
330
747D
100
AcDbEntity
  8
0
 48
25.0
100
AcDbLine
 10
4009.762131327723
 20
3645.881907904721
 30
0.0
 11
4007.762131327721
 21
3643.88190790472
 31
0.0
  0
LINE
  5
BFF8
330
747D
100
AcDbEntity
  8
0
 48
25.0
100
AcDbLine
 10
5922.762131327726
 20
3116.381907904721
 30
0.0
 11
3922.762131327725
 21
3116.38190790472
 31
0.0
  0
LINE
  5
BFF9
330
747D
100
AcDbEntity
  8
0
  6
HIDDEN2
 48
25.0
100
AcDbLine
 10
5922.762131327726
 20
3166.381907904721
 30
0.0
 11
3922.762131327725
 21
3166.381907904721
 31
0.0
  0
LINE
  5
C0D0
330
747D
100
AcDbEntity
  8
0
 48
25.0
100
AcDbLine
 10
2291.101880824064
 20
3096.381907904721
 30
0.0
 11
2471.101880824066
 21
3096.381907904721
 31
0.0
  0
ARC
  5
C0D1
330
747D
100
AcDbEntity
  8
0
 48
25.0
100
AcDbCircle
 10
2291.101880824064
 20
3466.381907904721
 30
0.0
 40
320.0
100
AcDbArc
 50
270.0
 51
286.9734264701157
  0
ARC
  5
C0D2
330
747D
100
AcDbEntity
  8
0
 48
25.0
100
AcDbCircle
 10
2364.083916665164
 20
3227.27184445174
 30
0.0
 40
70.0
100
AcDbArc
 50
286.9734264701157
 51
357.1375947739013
  0
LINE
  5
C0D3
330
747D
100
AcDbEntity
  8
0
 48
25.0
100
AcDbLine
 10
2461.076927601621
 20
3765.383155565843
 30
0.0
 11
2433.996580386612
 21
3223.776211265668
 31
0.0
  0
TEXT
  5
C0EF
330
747D
100
AcDbEntity
  8
0
100
AcDbText
 10
5243.142459195379
 20
4530.15676200497
 30
0.0
 40
60.0
  1
W=536kg
  7
SANWA
 72
     4
 11
5396.742459195379
 21
4555.356762004969
 31
0.0
100
AcDbText
  0
VIEWPORT
  5
7540
330
747A
100
AcDbEntity
 67
     1
  8
0
100
AcDbViewport
 10
-3029.057228595033
 20
-846.1011655902643
 30
0.0
 40
7999.940198629769
 41
5796.099923525149
 68
     1
 69
     1
 12
-3029.057228595033
 22
-846.1011655902643
 13
0.0
 23
0.0
 14
10.0
 24
10.0
 15
10.0
 25
10.0
 16
0.0
 26
0.0
 36
1.0
 17
0.0
 27
0.0
 37
0.0
 42
50.0
 43
0.0
 44
0.0
 45
5796.099923525149
 50
0.0
 51
0.0
 72
   100
 90
    32800
  1

281
     0
 71
     1
 74
     0
110
0.0
120
0.0
130
0.0
111
1.0
121
0.0
131
0.0
112
0.0
122
1.0
132
0.0
 79
     0
146
0.0
  0
TEXT
  5
7737
330
747A
100
AcDbEntity
 67
     1
  8
0
 48
2.0
100
AcDbText
 10
331.8711968111849
 20
20.60428158404022
 30
0.0
 40
2.0
  1

  7
SANWA
100
AcDbText
  0
ENDSEC
  0
SECTION
  2
OBJECTS
  0
DICTIONARY
  5
7471
330
0
100
AcDbDictionary
281
     1
  3
ACAD_GROUP
350
7472
  3
ACAD_LAYOUT
350
8693
  3
ACAD_MLINESTYLE
350
7473
  3
ACAD_PLOTSETTINGS
350
8694
  3
ACAD_PLOTSTYLENAME
350
8691
  3
ACDBVARIABLEDICTIONARY
350
789B
  0
DICTIONARY
  5
7472
102
{ACAD_REACTORS
330
7471
102
}
330
0
100
AcDbDictionary
281
     1
  0
DICTIONARY
  5
8693
102
{ACAD_REACTORS
330
7471
102
}
330
7471
100
AcDbDictionary
281
     1
  3
Model
350
8695
  3
ﾚｲｱｳﾄ1
350
8696
  0
DICTIONARY
  5
7473
102
{ACAD_REACTORS
330
7471
102
}
330
0
100
AcDbDictionary
281
     1
  3
STANDARD
350
7480
  0
DICTIONARY
  5
8694
102
{ACAD_REACTORS
330
7471
102
}
330
7471
100
AcDbDictionary
281
     1
  0
ACDBDICTIONARYWDFLT
  5
8691
102
{ACAD_REACTORS
330
7471
102
}
330
7471
100
AcDbDictionary
281
     1
  3
Normal
350
8692
100
AcDbDictionaryWithDefault
340
8692
  0
DICTIONARY
  5
789B
102
{ACAD_REACTORS
330
7471
102
}
330
7471
100
AcDbDictionary
281
     1
  3
DIMASSOC
350
AA35
  3
SORTENTS
350
789C
  0
LAYOUT
  5
8695
102
{ACAD_REACTORS
330
8693
102
}
330
8693
100
AcDbPlotSettings
  1

  2
FX DocuCentre Color f360
  4
A4
  6

 40
4.857749938964843
 41
4.942390441894531
 42
4.942413330078125
 43
4.857757568359375
 44
209.9733276367187
 45
297.0106506347656
 46
5.089999999999999
 47
12.61
 48
625.0
 49
-5389.475419106975
140
7175.0
141
-639.4754191069759
142
1.0
143
25.0
 70
 11940
 72
     1
 73
     1
 74
     4
  7
sanwa3.ctb
 75
     0
147
0.04
148
-625.0
149
5389.475419106975
100
AcDbLayout
  1
Model
 70
     1
 71
     0
 10
0.0
 20
0.0
 11
12.0
 21
9.0
 12
0.0
 22
0.0
 32
0.0
 14
0.0
 24
0.0
 34
0.0
 15
0.0
 25
0.0
 35
0.0
146
0.0
 13
0.0
 23
0.0
 33
0.0
 16
1.0
 26
0.0
 36
0.0
 17
0.0
 27
1.0
 37
0.0
 76
     0
330
747D
  0
LAYOUT
  5
8696
102
{ACAD_REACTORS
330
8693
102
}
330
8693
100
AcDbPlotSettings
  1

  2
RICOH NX-510
  4
A4
  6

 40
5.873749732971191
 41
4.92125654220581
 42
7.588241577148437
 43
5.81024169921875
 44
209.9944915771484
 45
296.989501953125
 46
0.0
 47
0.0
 48
0.0
 49
0.0
140
0.0
141
0.0
142
1.0
143
26.7163999926989
 70
   688
 72
     1
 73
     1
 74
     1
  7
sanwa3.ctb
 75
     0
147
0.037430192700861
148
6841.073651210504
149
3494.324134886467
100
AcDbLayout
  1
ﾚｲｱｳﾄ1
 70
     1
 71
     1
 10
-6996.302392501092
 20
-3651.249582209533
 11
938.1879353110262
 21
1959.047251029004
 12
0.0
 22
0.0
 32
0.0
 14
1.000000000000000E+20
 24
1.000000000000000E+20
 34
1.000000000000000E+20
 15
-1.000000000000000E+20
 25
-1.000000000000000E+20
 35
-1.000000000000000E+20
146
0.0
 13
0.0
 23
0.0
 33
0.0
 16
1.0
 26
0.0
 36
0.0
 17
0.0
 27
1.0
 37
0.0
 76
     0
330
747A
331
7540
  0
MLINESTYLE
  5
7480
102
{ACAD_REACTORS
330
7473
102
}
330
0
100
AcDbMlineStyle
  2
STANDARD
 70
     0
  3

 62
     0
 51
90.0
 52
90.0
 71
     2
 49
0.5
 62
   256
  6
BYLAYER
 49
-0.5
 62
   256
  6
BYLAYER
  0
ACDBPLACEHOLDER
  5
8692
102
{ACAD_REACTORS
330
8691
102
}
330
8691
  0
DICTIONARYVAR
  5
AA35
102
{ACAD_REACTORS
330
789B
102
}
330
789B
100
DictionaryVariables
280
     0
  1
1
  0
DICTIONARYVAR
  5
789C
102
{ACAD_REACTORS
330
789B
102
}
330
789B
100
DictionaryVariables
280
     0
  1
96
  0
ENDSEC
  0
EOF
