  0
SECTION
  2
HEADER
  9
$ACADVER
  1
AC1015
  9
$ACADMAINTVER
 70
    20
  9
$DWGCODEPAGE
  3
ANSI_932
  9
$INSBASE
 10
0.0
 20
0.0
 30
0.0
  9
$EXTMIN
 10
-1.345782808180956
 20
-0.4004820885947993
 30
-0.000000000000013
  9
$EXTMAX
 10
7425.150228839114
 20
5250.000024453451
 30
0.0000000000000023
  9
$LIMMIN
 10
0.0
 20
0.0
  9
$LIMMAX
 10
420.0
 20
297.0
  9
$ORTHOMODE
 70
     1
  9
$REGENMODE
 70
     1
  9
$FILLMODE
 70
     1
  9
$QTEXTMODE
 70
     0
  9
$MIRRTEXT
 70
     1
  9
$LTSCALE
 40
0.5
  9
$ATTMODE
 70
     1
  9
$TEXTSIZE
 40
2.799999999999999
  9
$TRACEWID
 40
1.0
  9
$TEXTSTYLE
  7
SANWA
  9
$CLAYER
  8
0
  9
$CELTYPE
  6
BYLAYER
  9
$CECOLOR
 62
   256
  9
$CELTSCALE
 40
25.0
  9
$DISPSILH
 70
     0
  9
$DIMSCALE
 40
25.0
  9
$DIMASZ
 40
1.5
  9
$DIMEXO
 40
1.0
  9
$DIMDLI
 40
5.0
  9
$DIMRND
 40
0.0
  9
$DIMDLE
 40
0.0
  9
$DIMEXE
 40
0.5
  9
$DIMTP
 40
0.0
  9
$DIMTM
 40
0.0
  9
$DIMTXT
 40
2.0
  9
$DIMCEN
 40
0.0
  9
$DIMTSZ
 40
0.0
  9
$DIMTOL
 70
     0
  9
$DIMLIM
 70
     0
  9
$DIMTIH
 70
     0
  9
$DIMTOH
 70
     0
  9
$DIMSE1
 70
     0
  9
$DIMSE2
 70
     0
  9
$DIMTAD
 70
     1
  9
$DIMZIN
 70
     8
  9
$DIMBLK
  1

  9
$DIMASO
 70
     1
  9
$DIMSHO
 70
     1
  9
$DIMPOST
  1

  9
$DIMAPOST
  1

  9
$DIMALT
 70
     0
  9
$DIMALTD
 70
     2
  9
$DIMALTF
 40
0.0394
  9
$DIMLFAC
 40
1.0
  9
$DIMTOFL
 70
     1
  9
$DIMTVP
 40
0.0
  9
$DIMTIX
 70
     1
  9
$DIMSOXD
 70
     0
  9
$DIMSAH
 70
     0
  9
$DIMBLK1
  1

  9
$DIMBLK2
  1

  9
$DIMSTYLE
  2
SANWA
  9
$DIMCLRD
 70
   256
  9
$DIMCLRE
 70
   256
  9
$DIMCLRT
 70
   256
  9
$DIMTFAC
 40
1.0
  9
$DIMGAP
 40
1.0
  9
$DIMJUST
 70
     0
  9
$DIMSD1
 70
     0
  9
$DIMSD2
 70
     0
  9
$DIMTOLJ
 70
     1
  9
$DIMTZIN
 70
     0
  9
$DIMALTZ
 70
     0
  9
$DIMALTTZ
 70
     0
  9
$DIMUPT
 70
     0
  9
$DIMDEC
 70
     4
  9
$DIMTDEC
 70
     4
  9
$DIMALTU
 70
     2
  9
$DIMALTTD
 70
     2
  9
$DIMTXSTY
  7
SANWA
  9
$DIMAUNIT
 70
     0
  9
$DIMADEC
 70
     0
  9
$DIMALTRND
 40
0.0
  9
$DIMAZIN
 70
     0
  9
$DIMDSEP
 70
    46
  9
$DIMATFIT
 70
     3
  9
$DIMFRAC
 70
     0
  9
$DIMLDRBLK
  1

  9
$DIMLUNIT
 70
     2
  9
$DIMLWD
 70
    -2
  9
$DIMLWE
 70
    -2
  9
$DIMTMOVE
 70
     0
  9
$LUNITS
 70
     2
  9
$LUPREC
 70
     4
  9
$SKETCHINC
 40
1.0
  9
$FILLETRAD
 40
50.0
  9
$AUNITS
 70
     0
  9
$AUPREC
 70
     0
  9
$MENU
  1
acad
  9
$ELEVATION
 40
0.0
  9
$PELEVATION
 40
0.0
  9
$THICKNESS
 40
0.0
  9
$LIMCHECK
 70
     0
  9
$CHAMFERA
 40
0.0
  9
$CHAMFERB
 40
0.0
  9
$CHAMFERC
 40
0.0
  9
$CHAMFERD
 40
0.0
  9
$SKPOLY
 70
     1
  9
$TDCREATE
 40
2451806.361679283
  9
$TDUCREATE
 40
2451805.986679282
  9
$TDUPDATE
 40
2455383.447550359
  9
$TDUUPDATE
 40
2455383.072550359
  9
$TDINDWG
 40
0.7996892477
  9
$TDUSRTIMER
 40
0.7996892477
  9
$USRTIMER
 70
     1
  9
$ANGBASE
 50
0.0
  9
$ANGDIR
 70
     0
  9
$PDMODE
 70
     0
  9
$PDSIZE
 40
0.0
  9
$PLINEWID
 40
0.0
  9
$SPLFRAME
 70
     0
  9
$SPLINETYPE
 70
     6
  9
$SPLINESEGS
 70
     8
  9
$HANDSEED
  5
DBCF
  9
$SURFTAB1
 70
     6
  9
$SURFTAB2
 70
     6
  9
$SURFTYPE
 70
     6
  9
$SURFU
 70
     6
  9
$SURFV
 70
     6
  9
$UCSBASE
  2

  9
$UCSNAME
  2

  9
$UCSORG
 10
0.0
 20
0.0
 30
0.0
  9
$UCSXDIR
 10
1.0
 20
0.0
 30
0.0
  9
$UCSYDIR
 10
0.0
 20
1.0
 30
0.0
  9
$UCSORTHOREF
  2

  9
$UCSORTHOVIEW
 70
     0
  9
$UCSORGTOP
 10
0.0
 20
0.0
 30
0.0
  9
$UCSORGBOTTOM
 10
0.0
 20
0.0
 30
0.0
  9
$UCSORGLEFT
 10
0.0
 20
0.0
 30
0.0
  9
$UCSORGRIGHT
 10
0.0
 20
0.0
 30
0.0
  9
$UCSORGFRONT
 10
0.0
 20
0.0
 30
0.0
  9
$UCSORGBACK
 10
0.0
 20
0.0
 30
0.0
  9
$PUCSBASE
  2

  9
$PUCSNAME
  2

  9
$PUCSORG
 10
0.0
 20
0.0
 30
0.0
  9
$PUCSXDIR
 10
1.0
 20
0.0
 30
0.0
  9
$PUCSYDIR
 10
0.0
 20
1.0
 30
0.0
  9
$PUCSORTHOREF
  2

  9
$PUCSORTHOVIEW
 70
     0
  9
$PUCSORGTOP
 10
0.0
 20
0.0
 30
0.0
  9
$PUCSORGBOTTOM
 10
0.0
 20
0.0
 30
0.0
  9
$PUCSORGLEFT
 10
0.0
 20
0.0
 30
0.0
  9
$PUCSORGRIGHT
 10
0.0
 20
0.0
 30
0.0
  9
$PUCSORGFRONT
 10
0.0
 20
0.0
 30
0.0
  9
$PUCSORGBACK
 10
0.0
 20
0.0
 30
0.0
  9
$USERI1
 70
     0
  9
$USERI2
 70
     0
  9
$USERI3
 70
     0
  9
$USERI4
 70
     0
  9
$USERI5
 70
     0
  9
$USERR1
 40
0.0
  9
$USERR2
 40
0.0
  9
$USERR3
 40
0.0
  9
$USERR4
 40
0.0
  9
$USERR5
 40
0.0
  9
$WORLDVIEW
 70
     1
  9
$SHADEDGE
 70
     3
  9
$SHADEDIF
 70
    70
  9
$TILEMODE
 70
     1
  9
$MAXACTVP
 70
    48
  9
$PINSBASE
 10
0.0
 20
0.0
 30
0.0
  9
$PLIMCHECK
 70
     0
  9
$PEXTMIN
 10
1.000000000000000E+20
 20
1.000000000000000E+20
 30
1.000000000000000E+20
  9
$PEXTMAX
 10
-1.000000000000000E+20
 20
-1.000000000000000E+20
 30
-1.000000000000000E+20
  9
$PLIMMIN
 10
-117.3880621053553
 20
-1147.778930325621
  9
$PLIMMAX
 10
5873.875641303368
 20
3088.506753269061
  9
$UNITMODE
 70
     0
  9
$VISRETAIN
 70
     1
  9
$PLINEGEN
 70
     0
  9
$PSLTSCALE
 70
     1
  9
$TREEDEPTH
 70
  3020
  9
$CMLSTYLE
  2
STANDARD
  9
$CMLJUST
 70
     0
  9
$CMLSCALE
 40
1.0
  9
$PROXYGRAPHICS
 70
     1
  9
$MEASUREMENT
 70
     1
  9
$CELWEIGHT
370
    -1
  9
$ENDCAPS
280
     0
  9
$JOINSTYLE
280
     0
  9
$LWDISPLAY
290
     0
  9
$INSUNITS
 70
     0
  9
$HYPERLINKBASE
  1

  9
$STYLESHEET
  1
sanwa3.ctb
  9
$XEDIT
290
     1
  9
$CEPSNTYPE
380
     0
  9
$PSTYLEMODE
290
     1
  9
$FINGERPRINTGUID
  2
{FF69E217-7CBD-426C-8D1A-915AA093CE5F}
  9
$VERSIONGUID
  2
{D0542190-F94C-4A34-9E9B-2D48691FAE48}
  9
$EXTNAMES
290
     1
  9
$PSVPSCALE
 40
0.0
  9
$OLESTARTUP
290
     0
  0
ENDSEC
  0
SECTION
  2
CLASSES
  0
CLASS
  1
DICTIONARYVAR
  2
AcDbDictionaryVar
  3
ObjectDBX Classes
 90
        0
280
     0
281
     0
  0
CLASS
  1
ACDBDICTIONARYWDFLT
  2
AcDbDictionaryWithDefault
  3
ObjectDBX Classes
 90
        0
280
     0
281
     0
  0
CLASS
  1
ACDBPLACEHOLDER
  2
AcDbPlaceHolder
  3
ObjectDBX Classes
 90
        0
280
     0
281
     0
  0
CLASS
  1
LAYOUT
  2
AcDbLayout
  3
ObjectDBX Classes
 90
        0
280
     0
281
     0
  0
CLASS
  1
MATERIAL
  2
AcDbMaterial
  3
ObjectDBX Classes
 90
     1153
280
     0
281
     0
  0
CLASS
  1
VISUALSTYLE
  2
AcDbVisualStyle
  3
ObjectDBX Classes
 90
     4095
280
     0
281
     0
  0
CLASS
  1
TABLESTYLE
  2
AcDbTableStyle
  3
ObjectDBX Classes
 90
     4095
280
     0
281
     0
  0
CLASS
  1
SCALE
  2
AcDbScale
  3
ObjectDBX Classes
 90
     1153
280
     0
281
     0
  0
CLASS
  1
MLEADERSTYLE
  2
AcDbMLeaderStyle
  3
ACDB_MLEADERSTYLE_CLASS
 90
     4095
280
     0
281
     0
  0
CLASS
  1
CELLSTYLEMAP
  2
AcDbCellStyleMap
  3
ObjectDBX Classes
 90
     1152
280
     0
281
     0
  0
ENDSEC
  0
SECTION
  2
TABLES
  0
TABLE
  2
VPORT
  5
746D
330
0
100
AcDbSymbolTable
 70
     1
  0
VPORT
  5
DA25
330
746D
100
AcDbSymbolTableRecord
100
AcDbViewportTableRecord
  2
*Active
 70
     0
 10
0.0
 20
0.0
 11
1.0
 21
1.0
 12
3711.902215091326
 22
2624.799758248169
 13
0.0
 23
0.0
 14
10.0
 24
10.0
 15
10.0
 25
10.0
 16
0.0
 26
0.0
 36
1.0
 17
0.0
 27
0.0
 37
0.0
 40
6342.576244640679
 41
1.353070175438596
 42
50.0
 43
0.0
 44
0.0
 50
0.0
 51
0.0
 71
     0
 72
   100
 73
     1
 74
     0
 75
     0
 76
     0
 77
     0
 78
     0
281
     0
 65
     1
110
0.0
120
0.0
130
0.0
111
1.0
121
0.0
131
0.0
112
0.0
122
1.0
132
0.0
 79
     0
146
0.0
  0
ENDTAB
  0
TABLE
  2
LTYPE
  5
746A
330
0
100
AcDbSymbolTable
 70
     5
  0
LTYPE
  5
7477
330
746A
100
AcDbSymbolTableRecord
100
AcDbLinetypeTableRecord
  2
BYBLOCK
 70
     0
  3

 72
    65
 73
     0
 40
0.0
  0
LTYPE
  5
7478
330
746A
100
AcDbSymbolTableRecord
100
AcDbLinetypeTableRecord
  2
BYLAYER
 70
     0
  3

 72
    65
 73
     0
 40
0.0
  0
LTYPE
  5
7479
330
746A
100
AcDbSymbolTableRecord
100
AcDbLinetypeTableRecord
  2
CONTINUOUS
 70
     0
  3
Solid line
 72
    65
 73
     0
 40
0.0
  0
LTYPE
  5
7D54
330
746A
100
AcDbSymbolTableRecord
100
AcDbLinetypeTableRecord
  2
CENTER2
 70
     0
  3
Center (.5x) ___ _ ___ _ ___ _ ___ _ ___ _ ___
 72
    65
 73
     4
 40
28.575
 49
19.05
 74
     0
 49
-3.174999999999999
 74
     0
 49
3.174999999999999
 74
     0
 49
-3.174999999999999
 74
     0
  0
LTYPE
  5
7D55
330
746A
100
AcDbSymbolTableRecord
100
AcDbLinetypeTableRecord
  2
DOT
 70
     0
  3
Dot . . . . . . . . . . . . . . . . . . . . . .
 72
    65
 73
     2
 40
6.349999999999999
 49
0.0
 74
     0
 49
-6.349999999999999
 74
     0
  0
LTYPE
  5
7D56
330
746A
100
AcDbSymbolTableRecord
100
AcDbLinetypeTableRecord
  2
HIDDEN2
 70
     0
  3
Hidden (.5x) _ _ _ _ _ _ _ _ _ _ _ _ _ _ _ _ _
 72
    65
 73
     2
 40
4.762499999999999
 49
3.174999999999999
 74
     0
 49
-1.587499999999999
 74
     0
  0
LTYPE
  5
7D57
330
746A
100
AcDbSymbolTableRecord
100
AcDbLinetypeTableRecord
  2
PHANTOM2
 70
     0
  3
Phantom (.5x) ___ _ _ ___ _ _ ___ _ _ ___ _ _
 72
    65
 73
     6
 40
31.75
 49
15.875
 74
     0
 49
-3.174999999999999
 74
     0
 49
3.174999999999999
 74
     0
 49
-3.174999999999999
 74
     0
 49
3.174999999999999
 74
     0
 49
-3.174999999999999
 74
     0
  0
ENDTAB
  0
TABLE
  2
LAYER
  5
7467
330
0
100
AcDbSymbolTable
 70
     8
  0
LAYER
  5
7474
102
{ACAD_XDICTIONARY
360
DA80
102
}
330
7467
100
AcDbSymbolTableRecord
100
AcDbLayerTableRecord
  2
0
 70
     0
 62
     7
  6
CONTINUOUS
370
    -3
390
7F6A
  0
LAYER
  5
7485
330
7467
100
AcDbSymbolTableRecord
100
AcDbLayerTableRecord
  2
DEFPOINTS
 70
     0
 62
     7
  6
CONTINUOUS
290
     0
370
    -3
390
7F6A
  0
LAYER
  5
7486
102
{ACAD_XDICTIONARY
360
DA82
102
}
330
7467
100
AcDbSymbolTableRecord
100
AcDbLayerTableRecord
  2
OBJECT
 70
     0
 62
     7
  6
CONTINUOUS
370
    -3
390
7F6A
  0
LAYER
  5
7950
102
{ACAD_XDICTIONARY
360
DA84
102
}
330
7467
100
AcDbSymbolTableRecord
100
AcDbLayerTableRecord
  2
枠
 70
     0
 62
     3
  6
CONTINUOUS
370
    -3
390
7F6A
  0
LAYER
  5
7D58
102
{ACAD_XDICTIONARY
360
DA86
102
}
330
7467
100
AcDbSymbolTableRecord
100
AcDbLayerTableRecord
  2
寸法引出
 70
     0
 62
     2
  6
CONTINUOUS
370
    -3
390
7F6A
  0
LAYER
  5
7D59
102
{ACAD_XDICTIONARY
360
DA88
102
}
330
7467
100
AcDbSymbolTableRecord
100
AcDbLayerTableRecord
  2
鉄筋
 70
     0
 62
     4
  6
CONTINUOUS
370
    -3
390
7F6A
  0
LAYER
  5
7D5A
102
{ACAD_XDICTIONARY
360
DA8A
102
}
330
7467
100
AcDbSymbolTableRecord
100
AcDbLayerTableRecord
  2
補助線
 70
     0
 62
     6
  6
CONTINUOUS
370
    -3
390
7F6A
  0
LAYER
  5
81DF
102
{ACAD_XDICTIONARY
360
DA8C
102
}
330
7467
100
AcDbSymbolTableRecord
100
AcDbLayerTableRecord
  2
ASHADE
 70
     4
 62
     7
  6
CONTINUOUS
370
    -3
390
7F6A
  0
ENDTAB
  0
TABLE
  2
STYLE
  5
7468
330
0
100
AcDbSymbolTable
 70
     6
  0
STYLE
  5
7475
330
7468
100
AcDbSymbolTableRecord
100
AcDbTextStyleTableRecord
  2
STANDARD
 70
     0
 40
0.0
 41
1.0
 50
0.0
 71
     0
 42
3.5
  3
txt
  4

  0
STYLE
  5
7481
330
7468
100
AcDbSymbolTableRecord
100
AcDbTextStyleTableRecord
  2
ADESK1
 70
     0
 40
0.0
 41
1.0
 50
0.0
 71
     0
 42
5.0
  3
romans
  4
bigfont
  0
STYLE
  5
7731
330
7468
100
AcDbSymbolTableRecord
100
AcDbTextStyleTableRecord
  2
SANWA
 70
     0
 40
0.0
 41
1.0
 50
0.0
 71
     0
 42
2.799999999999999
  3
MS Mincho.ttf
  4

1001
ACAD
1000
MS Mincho
1071
    32785
  0
STYLE
  5
7D45
330
7468
100
AcDbSymbolTableRecord
100
AcDbTextStyleTableRecord
  2

 70
     1
 40
0.0
 41
1.0
 50
0.0
 71
     0
 42
3.5
  3
ltypeshp.shx
  4

  0
STYLE
  5
81DC
330
7468
100
AcDbSymbolTableRecord
100
AcDbTextStyleTableRecord
  2
ASHADE
 70
     0
 40
0.2
 41
1.0
 50
0.0
 71
     0
 42
2.799999999999999
  3
txt.shx
  4
bigfont.shx
  0
ENDTAB
  0
TABLE
  2
VIEW
  5
746B
330
0
100
AcDbSymbolTable
 70
     0
  0
ENDTAB
  0
TABLE
  2
UCS
  5
746C
330
0
100
AcDbSymbolTable
 70
     0
  0
ENDTAB
  0
TABLE
  2
APPID
  5
746E
330
0
100
AcDbSymbolTable
 70
     8
  0
APPID
  5
7476
330
746E
100
AcDbSymbolTableRecord
100
AcDbRegAppTableRecord
  2
ACAD
 70
     0
  0
APPID
  5
81DD
330
746E
100
AcDbSymbolTableRecord
100
AcDbRegAppTableRecord
  2
AVE_RENDER
 70
     0
  0
APPID
  5
81DE
330
746E
100
AcDbSymbolTableRecord
100
AcDbRegAppTableRecord
  2
AVE_ENTITY_MATERIAL
 70
     0
  0
APPID
  5
81EB
330
746E
100
AcDbSymbolTableRecord
100
AcDbRegAppTableRecord
  2
AVE_FINISH
 70
     0
  0
APPID
  5
81EC
330
746E
100
AcDbSymbolTableRecord
100
AcDbRegAppTableRecord
  2
AVE_MATERIAL
 70
     0
  0
APPID
  5
81ED
330
746E
100
AcDbSymbolTableRecord
100
AcDbRegAppTableRecord
  2
AVE_GLOBAL
 70
     0
  0
APPID
  5
DA78
330
746E
100
AcDbSymbolTableRecord
100
AcDbRegAppTableRecord
  2
ACAD_MLEADERVER
 70
     0
  0
APPID
  5
DAAA
330
746E
100
AcDbSymbolTableRecord
100
AcDbRegAppTableRecord
  2
ACAD_PSEXT
 70
     0
  0
ENDTAB
  0
TABLE
  2
DIMSTYLE
  5
746F
330
0
100
AcDbSymbolTable
 70
     5
100
AcDbDimStyleTable
 71
     1
340
796F
  0
DIMSTYLE
105
7484
330
746F
100
AcDbSymbolTableRecord
100
AcDbDimStyleTableRecord
  2
JIS
 70
     0
 41
2.5
 42
1.0
 43
7.0
 44
1.0
 73
     0
 74
     0
 77
     1
 78
     8
140
2.5
141
0.0
143
0.0394
147
0.0
172
     1
174
     1
176
     2
177
     2
178
     2
340
7731
  0
DIMSTYLE
105
796F
102
{ACAD_REACTORS
330
C196
330
C195
330
C1C6
330
C1C5
330
C1C7
330
C1C8
330
C1C4
330
C1E5
330
C101
330
C6BA
330
C6B9
330
C6B8
330
C6B3
330
C6B2
330
C6B1
330
C6B0
330
C83F
330
C86E
330
C87D
330
C88A
330
CA26
330
CA65
330
CA74
330
CA81
330
CAF9
330
D650
330
D84E
330
D85B
102
}
330
746F
100
AcDbSymbolTableRecord
100
AcDbDimStyleTableRecord
  2
SANWA
 70
     0
 41
2.5
 42
1.0
 43
7.0
 44
1.0
 73
     0
 74
     0
 77
     1
 78
     8
140
2.5
141
0.0
143
0.0394
147
0.0
172
     1
174
     1
176
     2
177
     2
178
     2
340
7731
  0
DIMSTYLE
105
7C9D
330
746F
100
AcDbSymbolTableRecord
100
AcDbDimStyleTableRecord
  2
SANWA$4
 70
     0
 41
2.5
 42
1.0
 43
5.0
 44
1.0
 73
     0
 74
     0
 77
     1
 78
     8
140
2.5
141
0.0
143
0.0394
147
1.0
172
     1
174
     1
176
     2
177
     2
178
     2
289
     2
340
7731
  0
DIMSTYLE
105
7CB5
330
746F
100
AcDbSymbolTableRecord
100
AcDbDimStyleTableRecord
  2
SANWA$3
 70
     0
 41
2.5
 42
1.0
 43
7.0
 44
1.0
 73
     0
 74
     0
 77
     1
 78
     8
140
2.5
141
0.0
143
0.0394
147
0.0
172
     1
174
     1
176
     2
177
     2
178
     2
289
     0
340
7731
  0
ENDTAB
  0
TABLE
  2
BLOCK_RECORD
  5
7466
330
0
100
AcDbSymbolTable
 70
    51
  0
BLOCK_RECORD
  5
747D
330
7466
100
AcDbSymbolTableRecord
100
AcDbBlockTableRecord
  2
*MODEL_SPACE
340
7F6D
  0
BLOCK_RECORD
  5
747A
330
7466
100
AcDbSymbolTableRecord
100
AcDbBlockTableRecord
  2
*PAPER_SPACE
340
7F6E
  0
BLOCK_RECORD
  5
7493
330
7466
100
AcDbSymbolTableRecord
100
AcDbBlockTableRecord
  2
TITLE_BLOCK
340
0
  0
BLOCK_RECORD
  5
81E0
330
7466
100
AcDbSymbolTableRecord
100
AcDbBlockTableRecord
  2
AVE_RENDER
340
0
102
{BLKREFS
331
81E3
331
81E4
331
81E5
331
81E6
331
81E7
331
81E8
331
81E9
331
81EA
102
}
  0
BLOCK_RECORD
  5
81EE
330
7466
100
AcDbSymbolTableRecord
100
AcDbBlockTableRecord
  2
AVE_GLOBAL
340
0
102
{BLKREFS
331
81F1
102
}
  0
BLOCK_RECORD
  5
B5E5
330
7466
100
AcDbSymbolTableRecord
100
AcDbBlockTableRecord
  2
*D3
340
0
  0
BLOCK_RECORD
  5
B5F1
330
7466
100
AcDbSymbolTableRecord
100
AcDbBlockTableRecord
  2
*D4
340
0
  0
BLOCK_RECORD
  5
B5FF
330
7466
100
AcDbSymbolTableRecord
100
AcDbBlockTableRecord
  2
*D5
340
0
  0
BLOCK_RECORD
  5
B60B
330
7466
100
AcDbSymbolTableRecord
100
AcDbBlockTableRecord
  2
*D6
340
0
  0
BLOCK_RECORD
  5
B617
330
7466
100
AcDbSymbolTableRecord
100
AcDbBlockTableRecord
  2
*D7
340
0
  0
BLOCK_RECORD
  5
B623
330
7466
100
AcDbSymbolTableRecord
100
AcDbBlockTableRecord
  2
*D8
340
0
  0
BLOCK_RECORD
  5
B62F
330
7466
100
AcDbSymbolTableRecord
100
AcDbBlockTableRecord
  2
A$C2A7F6572
340
0
  0
BLOCK_RECORD
  5
C1F4
330
7466
100
AcDbSymbolTableRecord
100
AcDbBlockTableRecord
  2
*D10
340
0
  0
BLOCK_RECORD
  5
C200
330
7466
100
AcDbSymbolTableRecord
100
AcDbBlockTableRecord
  2
*D11
340
0
  0
BLOCK_RECORD
  5
C20C
330
7466
100
AcDbSymbolTableRecord
100
AcDbBlockTableRecord
  2
*D12
340
0
  0
BLOCK_RECORD
  5
C218
330
7466
100
AcDbSymbolTableRecord
100
AcDbBlockTableRecord
  2
*D13
340
0
  0
BLOCK_RECORD
  5
C226
330
7466
100
AcDbSymbolTableRecord
100
AcDbBlockTableRecord
  2
*D14
340
0
  0
BLOCK_RECORD
  5
C234
330
7466
100
AcDbSymbolTableRecord
100
AcDbBlockTableRecord
  2
*D15
340
0
  0
BLOCK_RECORD
  5
C240
330
7466
100
AcDbSymbolTableRecord
100
AcDbBlockTableRecord
  2
*D16
340
0
  0
BLOCK_RECORD
  5
C24C
330
7466
100
AcDbSymbolTableRecord
100
AcDbBlockTableRecord
  2
*D17
340
0
  0
BLOCK_RECORD
  5
C27E
330
7466
100
AcDbSymbolTableRecord
100
AcDbBlockTableRecord
  2
*D18
340
0
  0
BLOCK_RECORD
  5
C715
330
7466
100
AcDbSymbolTableRecord
100
AcDbBlockTableRecord
  2
*D19
340
0
  0
BLOCK_RECORD
  5
C721
330
7466
100
AcDbSymbolTableRecord
100
AcDbBlockTableRecord
  2
*D20
340
0
  0
BLOCK_RECORD
  5
C72D
330
7466
100
AcDbSymbolTableRecord
100
AcDbBlockTableRecord
  2
*D21
340
0
  0
BLOCK_RECORD
  5
C73B
330
7466
100
AcDbSymbolTableRecord
100
AcDbBlockTableRecord
  2
*D22
340
0
  0
BLOCK_RECORD
  5
C749
330
7466
100
AcDbSymbolTableRecord
100
AcDbBlockTableRecord
  2
*D23
340
0
  0
BLOCK_RECORD
  5
C755
330
7466
100
AcDbSymbolTableRecord
100
AcDbBlockTableRecord
  2
*D24
340
0
  0
BLOCK_RECORD
  5
C763
330
7466
100
AcDbSymbolTableRecord
100
AcDbBlockTableRecord
  2
*D25
340
0
  0
BLOCK_RECORD
  5
C840
330
7466
100
AcDbSymbolTableRecord
100
AcDbBlockTableRecord
  2
*D26
340
0
  0
BLOCK_RECORD
  5
C86F
330
7466
100
AcDbSymbolTableRecord
100
AcDbBlockTableRecord
  2
*D27
340
0
  0
BLOCK_RECORD
  5
C87E
330
7466
100
AcDbSymbolTableRecord
100
AcDbBlockTableRecord
  2
*D28
340
0
  0
BLOCK_RECORD
  5
C88B
330
7466
100
AcDbSymbolTableRecord
100
AcDbBlockTableRecord
  2
*D29
340
0
  0
BLOCK_RECORD
  5
CA27
330
7466
100
AcDbSymbolTableRecord
100
AcDbBlockTableRecord
  2
*D30
340
0
  0
BLOCK_RECORD
  5
CA66
330
7466
100
AcDbSymbolTableRecord
100
AcDbBlockTableRecord
  2
*D31
340
0
  0
BLOCK_RECORD
  5
CA75
330
7466
100
AcDbSymbolTableRecord
100
AcDbBlockTableRecord
  2
*D32
340
0
  0
BLOCK_RECORD
  5
CA82
330
7466
100
AcDbSymbolTableRecord
100
AcDbBlockTableRecord
  2
*D33
340
0
  0
BLOCK_RECORD
  5
CAFA
330
7466
100
AcDbSymbolTableRecord
100
AcDbBlockTableRecord
  2
*D34
340
0
  0
BLOCK_RECORD
  5
D174
330
7466
100
AcDbSymbolTableRecord
100
AcDbBlockTableRecord
  2
*D35
340
0
  0
BLOCK_RECORD
  5
D181
330
7466
100
AcDbSymbolTableRecord
100
AcDbBlockTableRecord
  2
*D36
340
0
  0
BLOCK_RECORD
  5
D190
330
7466
100
AcDbSymbolTableRecord
100
AcDbBlockTableRecord
  2
*D37
340
0
  0
BLOCK_RECORD
  5
D19D
330
7466
100
AcDbSymbolTableRecord
100
AcDbBlockTableRecord
  2
*D38
340
0
  0
BLOCK_RECORD
  5
D1AC
330
7466
100
AcDbSymbolTableRecord
100
AcDbBlockTableRecord
  2
*D39
340
0
  0
BLOCK_RECORD
  5
D485
330
7466
100
AcDbSymbolTableRecord
100
AcDbBlockTableRecord
  2
*D40
340
0
  0
BLOCK_RECORD
  5
D551
330
7466
100
AcDbSymbolTableRecord
100
AcDbBlockTableRecord
  2
*D41
340
0
  0
BLOCK_RECORD
  5
D567
330
7466
100
AcDbSymbolTableRecord
100
AcDbBlockTableRecord
  2
*D42
340
0
  0
BLOCK_RECORD
  5
D574
330
7466
100
AcDbSymbolTableRecord
100
AcDbBlockTableRecord
  2
*D43
340
0
  0
BLOCK_RECORD
  5
D581
330
7466
100
AcDbSymbolTableRecord
100
AcDbBlockTableRecord
  2
*D44
340
0
  0
BLOCK_RECORD
  5
D58E
330
7466
100
AcDbSymbolTableRecord
100
AcDbBlockTableRecord
  2
*D45
340
0
  0
BLOCK_RECORD
  5
D59B
330
7466
100
AcDbSymbolTableRecord
100
AcDbBlockTableRecord
  2
*D46
340
0
  0
BLOCK_RECORD
  5
D651
330
7466
100
AcDbSymbolTableRecord
100
AcDbBlockTableRecord
  2
*D47
340
0
  0
BLOCK_RECORD
  5
D84F
330
7466
100
AcDbSymbolTableRecord
100
AcDbBlockTableRecord
  2
*D48
340
0
  0
BLOCK_RECORD
  5
D85C
330
7466
100
AcDbSymbolTableRecord
100
AcDbBlockTableRecord
  2
*D49
340
0
  0
ENDTAB
  0
ENDSEC
  0
SECTION
  2
BLOCKS
  0
BLOCK
  5
7489
330
747D
100
AcDbEntity
  8
0
100
AcDbBlockBegin
  2
*MODEL_SPACE
 70
     0
 10
0.0
 20
0.0
 30
0.0
  3
*MODEL_SPACE
  1

  0
ENDBLK
  5
748A
330
747D
100
AcDbEntity
  8
0
100
AcDbBlockEnd
  0
BLOCK
  5
7487
330
747A
100
AcDbEntity
 67
     1
  8
0
100
AcDbBlockBegin
  2
*PAPER_SPACE
 70
     2
 10
0.0
 20
0.0
 30
0.0
  3
*PAPER_SPACE
  1

  0
ENDBLK
  5
7488
330
747A
100
AcDbEntity
 67
     1
  8
0
100
AcDbBlockEnd
  0
BLOCK
  5
7494
330
7493
100
AcDbEntity
  8
0
100
AcDbBlockBegin
  2
TITLE_BLOCK
 70
     2
 10
0.0
 20
0.0
 30
0.0
  3
TITLE_BLOCK
  1

  0
LINE
  5
7495
330
7493
100
AcDbEntity
  8
0
 62
     0
100
AcDbLine
 10
402.7943262411347
 20
16.00000000000008
 30
0.0
 11
410.0
 21
16.00000000000008
 31
0.0
  0
LINE
  5
7496
330
7493
100
AcDbEntity
  8
0
 62
     0
100
AcDbLine
 10
410.0
 20
10.0
 30
0.0
 11
410.0
 21
49.00000000000036
 31
0.0
  0
LINE
  5
7497
330
7493
100
AcDbEntity
  8
0
 62
     0
100
AcDbLine
 10
410.0
 20
49.00000000000036
 30
0.0
 11
410.0
 21
10.0
 31
0.0
  0
LINE
  5
7498
330
7493
100
AcDbEntity
  8
0
 62
     0
100
AcDbLine
 10
402.7943262411347
 20
22.00000000000012
 30
0.0
 11
402.7943262411347
 21
10.0
 31
0.0
  0
LINE
  5
7499
330
7493
100
AcDbEntity
  8
0
 62
     0
100
AcDbLine
 10
336.1418439716306
 20
49.00000000000036
 30
0.0
 11
336.1418439716306
 21
22.00000000000012
 31
0.0
  0
LINE
  5
749A
330
7493
100
AcDbEntity
  8
0
 62
     0
100
AcDbLine
 10
325.3333333333326
 20
37.00000000000024
 30
0.0
 11
325.3333333333326
 21
25.00000000000012
 31
0.0
  0
LINE
  5
749B
330
7493
100
AcDbEntity
  8
0
 62
     0
100
AcDbLine
 10
318.1276595744673
 20
49.00000000000036
 30
0.0
 11
318.1276595744673
 21
25.00000000000012
 31
0.0
  0
LINE
  5
749C
330
7493
100
AcDbEntity
  8
0
 62
     0
100
AcDbLine
 10
318.1276595744673
 20
25.00000000000012
 30
0.0
 11
348.7517730496447
 21
25.00000000000012
 31
0.0
  0
LINE
  5
749D
330
7493
100
AcDbEntity
  8
0
 62
     0
100
AcDbLine
 10
280.2978723404242
 20
28.00000000000016
 30
0.0
 11
348.7517730496447
 21
28.00000000000016
 31
0.0
  0
LINE
  5
749E
330
7493
100
AcDbEntity
  8
0
 62
     0
100
AcDbLine
 10
280.2978723404242
 20
31.0000000000002
 30
0.0
 11
348.7517730496447
 21
31.0000000000002
 31
0.0
  0
LINE
  5
749F
330
7493
100
AcDbEntity
  8
0
 62
     0
100
AcDbLine
 10
280.2978723404242
 20
34.00000000000024
 30
0.0
 11
348.7517730496447
 21
34.00000000000024
 31
0.0
  0
LINE
  5
74A0
330
7493
100
AcDbEntity
  8
0
 62
     0
100
AcDbLine
 10
280.2978723404242
 20
19.00000000000008
 30
0.0
 11
318.1276595744673
 21
19.00000000000012
 31
0.0
  0
LINE
  5
74A1
330
7493
100
AcDbEntity
  8
0
 62
     0
100
AcDbLine
 10
280.2978723404242
 20
22.00000000000008
 30
0.0
 11
318.1276595744673
 21
22.00000000000012
 31
0.0
  0
LINE
  5
74A2
330
7493
100
AcDbEntity
  8
0
 62
     0
100
AcDbLine
 10
280.2978723404242
 20
25.00000000000012
 30
0.0
 11
318.1276595744673
 21
25.00000000000012
 31
0.0
  0
TEXT
  5
74A3
330
7493
100
AcDbEntity
  8
0
 62
     0
100
AcDbText
 10
342.2447163844405
 20
10.55220101068186
 30
0.0
 40
1.791674070777747
  1
照査
  7
ADESK1
 72
     1
 11
344.1558353932701
 21
10.55220101068186
 31
0.0
100
AcDbText
  0
TEXT
  5
74A4
330
7493
100
AcDbEntity
  8
0
 62
     0
100
AcDbText
 10
332.2960689314087
 20
10.48329012996929
 30
0.0
 40
1.791674070777747
  1
設計
  7
ADESK1
 72
     1
 11
334.2071879402383
 21
10.48329012996929
 31
0.0
100
AcDbText
  0
TEXT
  5
74A5
330
7493
100
AcDbEntity
  8
0
 62
     0
100
AcDbText
 10
321.7174935280942
 20
10.48329012996929
 30
0.0
 40
1.791674070777747
  1
製図
  7
ADESK1
 72
     1
 11
323.5688900678979
 21
10.48329012996929
 31
0.0
100
AcDbText
  0
LINE
  5
74A6
330
7493
100
AcDbEntity
  8
0
 62
     0
100
AcDbLine
 10
280.2978723404242
 20
10.0
 30
0.0
 11
280.2978723404242
 21
13.00000000000004
 31
0.0
  0
LINE
  5
74A7
330
7493
100
AcDbEntity
  8
0
 62
     0
100
AcDbLine
 10
280.2978723404242
 20
16.00000000000008
 30
0.0
 11
318.1276595744673
 21
16.00000000000008
 31
0.0
  0
LINE
  5
74A8
330
7493
100
AcDbEntity
  8
0
 62
     0
100
AcDbLine
 10
339.4042553191484
 20
22.00000000000008
 30
0.0
 11
339.4042553191484
 21
10.0
 31
0.0
  0
LINE
  5
74A9
330
7493
100
AcDbEntity
  8
0
 62
     0
100
AcDbLine
 10
328.7659574468078
 20
22.00000000000008
 30
0.0
 11
328.7659574468078
 21
10.0
 31
0.0
  0
LINE
  5
74AA
330
7493
100
AcDbEntity
  8
0
 62
     0
100
AcDbLine
 10
348.7517730496447
 20
49.00000000000036
 30
0.0
 11
348.7517730496447
 21
10.0
 31
0.0
  0
LINE
  5
74AB
330
7493
100
AcDbEntity
  8
0
 62
     0
100
AcDbLine
 10
280.2978723404242
 20
49.00000000000036
 30
0.0
 11
280.2978723404242
 21
10.0
 31
0.0
  0
LINE
  5
74AC
330
7493
100
AcDbEntity
  8
0
 62
     0
100
AcDbLine
 10
318.1276595744673
 20
25.00000000000012
 30
0.0
 11
318.1276595744673
 21
10.0
 31
0.0
  0
LINE
  5
74AD
330
7493
100
AcDbEntity
  8
0
 62
     0
100
AcDbLine
 10
312.7234042553184
 20
37.00000000000024
 30
0.0
 11
312.7234042553184
 21
10.0
 31
0.0
  0
LINE
  5
74AE
330
7493
100
AcDbEntity
  8
0
 62
     0
100
AcDbLine
 10
285.7021276595731
 20
37.00000000000024
 30
0.0
 11
285.7021276595731
 21
10.0
 31
0.0
  0
LINE
  5
74AF
330
7493
100
AcDbEntity
  8
0
 62
     0
100
AcDbLine
 10
303.7163120567366
 20
37.00000000000024
 30
0.0
 11
303.7163120567366
 21
10.0
 31
0.0
  0
LINE
  5
74B0
330
7493
100
AcDbEntity
  8
0
 62
     0
100
AcDbLine
 10
410.0
 20
49.00000000000036
 30
0.0
 11
280.2978723404242
 21
49.00000000000036
 31
0.0
  0
LINE
  5
74B1
330
7493
100
AcDbEntity
  8
0
 62
     0
100
AcDbLine
 10
280.2978723404242
 20
10.0
 30
0.0
 11
410.0
 21
10.0
 31
0.0
  0
LINE
  5
74B2
330
7493
100
AcDbEntity
  8
0
 62
     0
100
AcDbLine
 10
318.1276595744673
 20
22.00000000000012
 30
0.0
 11
410.0
 21
22.00000000000012
 31
0.0
  0
LINE
  5
74B3
330
7493
100
AcDbEntity
  8
0
 62
     0
100
AcDbLine
 10
280.2978723404242
 20
37.00000000000024
 30
0.0
 11
410.0
 21
37.00000000000024
 31
0.0
  0
LINE
  5
74B4
330
7493
100
AcDbEntity
  8
0
 62
     0
100
AcDbLine
 10
280.2978723404242
 20
13.00000000000004
 30
0.0
 11
410.0
 21
13.00000000000004
 31
0.0
  0
LINE
  5
74B5
330
7493
100
AcDbEntity
  8
0
 62
     0
100
AcDbLine
 10
280.2978723404242
 20
49.00000000000036
 30
0.0
 11
410.0
 21
49.00000000000036
 31
0.0
  0
TEXT
  5
74B6
330
7493
100
AcDbEntity
  8
0
100
AcDbText
 10
411.3708251683467
 20
33.08333333333334
 30
0.0
 40
3.0
  1
F
  7
ADESK1
 72
     1
 11
412.8708251683468
 21
33.08333333333334
 31
0.0
100
AcDbText
  0
TEXT
  5
74B7
330
7493
100
AcDbEntity
  8
0
100
AcDbText
 10
411.3708251683467
 20
79.25
 30
0.0
 40
3.0
  1
E
  7
ADESK1
 72
     1
 11
412.8708251683468
 21
79.25
 31
0.0
100
AcDbText
  0
TEXT
  5
74B8
330
7493
100
AcDbEntity
  8
0
100
AcDbText
 10
411.2993965969182
 20
125.4166666666666
 30
0.0
 40
3.0
  1
D
  7
ADESK1
 72
     1
 11
412.8708251683468
 21
125.4166666666666
 31
0.0
100
AcDbText
  0
TEXT
  5
74B9
330
7493
100
AcDbEntity
  8
0
100
AcDbText
 10
411.3708251683467
 20
171.5833333333333
 30
0.0
 40
3.0
  1
C
  7
ADESK1
 72
     1
 11
412.8708251683468
 21
171.5833333333333
 31
0.0
100
AcDbText
  0
TEXT
  5
74BA
330
7493
100
AcDbEntity
  8
0
100
AcDbText
 10
411.2993965969182
 20
217.75
 30
0.0
 40
3.0
  1
B
  7
ADESK1
 72
     1
 11
412.8708251683468
 21
217.75
 31
0.0
100
AcDbText
  0
TEXT
  5
74BB
330
7493
100
AcDbEntity
  8
0
100
AcDbText
 10
411.5851108826324
 20
263.9166666666666
 30
0.0
 40
3.0
  1
A
  7
ADESK1
 72
     1
 11
412.8708251683468
 21
263.9166666666666
 31
0.0
100
AcDbText
  0
TEXT
  5
74BC
330
7493
100
AcDbEntity
  8
0
100
AcDbText
 10
384.5089285714286
 20
6.019997240728748
 30
0.0
 40
3.0
  1
8
  7
ADESK1
 72
     1
 11
385.9375
 21
6.019997240728748
 31
0.0
100
AcDbText
  0
TEXT
  5
74BD
330
7493
100
AcDbEntity
  8
0
100
AcDbText
 10
336.3839285714286
 20
6.019997240728748
 30
0.0
 40
3.0
  1
7
  7
ADESK1
 72
     1
 11
337.8125
 21
6.019997240728748
 31
0.0
100
AcDbText
  0
TEXT
  5
74BE
330
7493
100
AcDbEntity
  8
0
100
AcDbText
 10
288.1875
 20
6.019997240728748
 30
0.0
 40
3.0
  1
6
  7
ADESK1
 72
     1
 11
289.6875
 21
6.019997240728748
 31
0.0
100
AcDbText
  0
TEXT
  5
74BF
330
7493
100
AcDbEntity
  8
0
100
AcDbText
 10
240.1339285714286
 20
6.019997240728748
 30
0.0
 40
3.0
  1
5
  7
ADESK1
 72
     1
 11
241.5625
 21
6.019997240728748
 31
0.0
100
AcDbText
  0
TEXT
  5
74C0
330
7493
100
AcDbEntity
  8
0
100
AcDbText
 10
191.9375
 20
6.019997240728748
 30
0.0
 40
3.0
  1
4
  7
ADESK1
 72
     1
 11
193.4375
 21
6.019997240728748
 31
0.0
100
AcDbText
  0
TEXT
  5
74C1
330
7493
100
AcDbEntity
  8
0
100
AcDbText
 10
143.8839285714285
 20
6.019997240728748
 30
0.0
 40
3.0
  1
3
  7
ADESK1
 72
     1
 11
145.3125
 21
6.019997240728748
 31
0.0
100
AcDbText
  0
TEXT
  5
74C2
330
7493
100
AcDbEntity
  8
0
100
AcDbText
 10
95.75892857142857
 20
6.019997240728748
 30
0.0
 40
3.0
  1
2
  7
ADESK1
 72
     1
 11
97.1875
 21
6.019997240728748
 31
0.0
100
AcDbText
  0
TEXT
  5
74C3
330
7493
100
AcDbEntity
  8
0
100
AcDbText
 10
47.84821428571429
 20
6.019997240728748
 30
0.0
 40
3.0
  1
1
  7
ADESK1
 72
     1
 11
49.0625
 21
6.019997240728748
 31
0.0
100
AcDbText
  0
TEXT
  5
74C4
330
7493
100
AcDbEntity
  8
0
100
AcDbText
 10
21.1071613595339
 20
33.08333333333334
 30
0.0
 40
3.0
  1
F
  7
ADESK1
 72
     1
 11
22.6071613595339
 21
33.08333333333334
 31
0.0
100
AcDbText
  0
TEXT
  5
74C5
330
7493
100
AcDbEntity
  8
0
100
AcDbText
 10
21.1071613595339
 20
79.25
 30
0.0
 40
3.0
  1
E
  7
ADESK1
 72
     1
 11
22.6071613595339
 21
79.25
 31
0.0
100
AcDbText
  0
TEXT
  5
74C6
330
7493
100
AcDbEntity
  8
0
100
AcDbText
 10
21.03573278810533
 20
125.4166666666666
 30
0.0
 40
3.0
  1
D
  7
ADESK1
 72
     1
 11
22.6071613595339
 21
125.4166666666666
 31
0.0
100
AcDbText
  0
TEXT
  5
74C7
330
7493
100
AcDbEntity
  8
0
100
AcDbText
 10
21.1071613595339
 20
171.5833333333333
 30
0.0
 40
3.0
  1
C
  7
ADESK1
 72
     1
 11
22.6071613595339
 21
171.5833333333333
 31
0.0
100
AcDbText
  0
TEXT
  5
74C8
330
7493
100
AcDbEntity
  8
0
100
AcDbText
 10
21.03573278810533
 20
217.75
 30
0.0
 40
3.0
  1
B
  7
ADESK1
 72
     1
 11
22.6071613595339
 21
217.75
 31
0.0
100
AcDbText
  0
TEXT
  5
74C9
330
7493
100
AcDbEntity
  8
0
100
AcDbText
 10
384.5089285714286
 20
288.0
 30
0.0
 40
3.0
  1
8
  7
ADESK1
 72
     1
 11
385.9375
 21
288.0
 31
0.0
100
AcDbText
  0
TEXT
  5
74CA
330
7493
100
AcDbEntity
  8
0
100
AcDbText
 10
336.3839285714286
 20
288.0
 30
0.0
 40
3.0
  1
7
  7
ADESK1
 72
     1
 11
337.8125
 21
288.0
 31
0.0
100
AcDbText
  0
TEXT
  5
74CB
330
7493
100
AcDbEntity
  8
0
100
AcDbText
 10
288.1875
 20
288.0
 30
0.0
 40
3.0
  1
6
  7
ADESK1
 72
     1
 11
289.6875
 21
288.0
 31
0.0
100
AcDbText
  0
TEXT
  5
74CC
330
7493
100
AcDbEntity
  8
0
100
AcDbText
 10
240.1339285714286
 20
288.0
 30
0.0
 40
3.0
  1
5
  7
ADESK1
 72
     1
 11
241.5625
 21
288.0
 31
0.0
100
AcDbText
  0
TEXT
  5
74CD
330
7493
100
AcDbEntity
  8
0
100
AcDbText
 10
191.9375
 20
288.0
 30
0.0
 40
3.0
  1
4
  7
ADESK1
 72
     1
 11
193.4375
 21
288.0
 31
0.0
100
AcDbText
  0
TEXT
  5
74CE
330
7493
100
AcDbEntity
  8
0
100
AcDbText
 10
143.8839285714285
 20
288.0
 30
0.0
 40
3.0
  1
3
  7
ADESK1
 72
     1
 11
145.3125
 21
288.0
 31
0.0
100
AcDbText
  0
TEXT
  5
74CF
330
7493
100
AcDbEntity
  8
0
100
AcDbText
 10
95.75892857142857
 20
288.0
 30
0.0
 40
3.0
  1
2
  7
ADESK1
 72
     1
 11
97.1875
 21
288.0
 31
0.0
100
AcDbText
  0
TEXT
  5
74D0
330
7493
100
AcDbEntity
  8
0
100
AcDbText
 10
21.32144707381961
 20
263.9166666666666
 30
0.0
 40
3.0
  1
A
  7
ADESK1
 72
     1
 11
22.6071613595339
 21
263.9166666666666
 31
0.0
100
AcDbText
  0
TEXT
  5
74D1
330
7493
100
AcDbEntity
  8
0
100
AcDbText
 10
47.84821428571429
 20
288.0
 30
0.0
 40
3.0
  1
1
  7
ADESK1
 72
     1
 11
49.0625
 21
288.0
 31
0.0
100
AcDbText
  0
LINE
  5
74D2
330
7493
100
AcDbEntity
  8
0
100
AcDbLine
 10
73.125
 20
287.0
 30
0.0
 11
73.125
 21
292.0
 31
0.0
  0
LINE
  5
74D3
330
7493
100
AcDbEntity
  8
0
100
AcDbLine
 10
121.25
 20
287.0
 30
0.0
 11
121.25
 21
292.0
 31
0.0
  0
LINE
  5
74D4
330
7493
100
AcDbEntity
  8
0
100
AcDbLine
 10
169.375
 20
287.0
 30
0.0
 11
169.375
 21
292.0
 31
0.0
  0
LINE
  5
74D5
330
7493
100
AcDbEntity
  8
0
100
AcDbLine
 10
217.5
 20
287.0
 30
0.0
 11
217.5
 21
292.0
 31
0.0
  0
LINE
  5
74D6
330
7493
100
AcDbEntity
  8
0
100
AcDbLine
 10
265.625
 20
287.0
 30
0.0
 11
265.625
 21
292.0
 31
0.0
  0
LINE
  5
74D7
330
7493
100
AcDbEntity
  8
0
100
AcDbLine
 10
313.75
 20
287.0
 30
0.0
 11
313.75
 21
292.0
 31
0.0
  0
LINE
  5
74D8
330
7493
100
AcDbEntity
  8
0
100
AcDbLine
 10
361.875
 20
287.0
 30
0.0
 11
361.875
 21
292.0
 31
0.0
  0
LINE
  5
74D9
330
7493
100
AcDbEntity
  8
0
100
AcDbLine
 10
361.875
 20
10.0
 30
0.0
 11
361.875
 21
5.0
 31
0.0
  0
LINE
  5
74DA
330
7493
100
AcDbEntity
  8
0
100
AcDbLine
 10
313.75
 20
10.0
 30
0.0
 11
313.75
 21
5.0
 31
0.0
  0
LINE
  5
74DB
330
7493
100
AcDbEntity
  8
0
100
AcDbLine
 10
265.625
 20
10.0
 30
0.0
 11
265.625
 21
5.0
 31
0.0
  0
LINE
  5
74DC
330
7493
100
AcDbEntity
  8
0
100
AcDbLine
 10
217.5
 20
10.0
 30
0.0
 11
217.5
 21
5.0
 31
0.0
  0
LINE
  5
74DD
330
7493
100
AcDbEntity
  8
0
100
AcDbLine
 10
169.375
 20
10.0
 30
0.0
 11
169.375
 21
5.0
 31
0.0
  0
LINE
  5
74DE
330
7493
100
AcDbEntity
  8
0
100
AcDbLine
 10
121.25
 20
10.0
 30
0.0
 11
121.25
 21
5.0
 31
0.0
  0
LINE
  5
74DF
330
7493
100
AcDbEntity
  8
0
100
AcDbLine
 10
73.125
 20
10.0
 30
0.0
 11
73.125
 21
5.0
 31
0.0
  0
LINE
  5
74E0
330
7493
100
AcDbEntity
  8
0
100
AcDbLine
 10
410.0
 20
240.8333333333334
 30
0.0
 11
415.0
 21
240.8333333333334
 31
0.0
  0
LINE
  5
74E1
330
7493
100
AcDbEntity
  8
0
100
AcDbLine
 10
410.0
 20
194.6666666666667
 30
0.0
 11
415.0
 21
194.6666666666667
 31
0.0
  0
LINE
  5
74E2
330
7493
100
AcDbEntity
  8
0
100
AcDbLine
 10
410.0
 20
148.5
 30
0.0
 11
415.0
 21
148.5
 31
0.0
  0
LINE
  5
74E3
330
7493
100
AcDbEntity
  8
0
100
AcDbLine
 10
410.0
 20
102.3333333333333
 30
0.0
 11
415.0
 21
102.3333333333333
 31
0.0
  0
LINE
  5
74E4
330
7493
100
AcDbEntity
  8
0
100
AcDbLine
 10
410.0
 20
56.16666666666668
 30
0.0
 11
415.0
 21
56.16666666666668
 31
0.0
  0
LINE
  5
74E5
330
7493
100
AcDbEntity
  8
0
100
AcDbLine
 10
25.0
 20
56.16666666666667
 30
0.0
 11
20.0
 21
56.16666666666667
 31
0.0
  0
LINE
  5
74E6
330
7493
100
AcDbEntity
  8
0
100
AcDbLine
 10
25.0
 20
102.3333333333333
 30
0.0
 11
20.0
 21
102.3333333333333
 31
0.0
  0
LINE
  5
74E7
330
7493
100
AcDbEntity
  8
0
100
AcDbLine
 10
25.0
 20
148.5
 30
0.0
 11
20.0
 21
148.5
 31
0.0
  0
LINE
  5
74E8
330
7493
100
AcDbEntity
  8
0
100
AcDbLine
 10
25.0
 20
194.6666666666666
 30
0.0
 11
20.0
 21
194.6666666666666
 31
0.0
  0
LINE
  5
74E9
330
7493
100
AcDbEntity
  8
0
100
AcDbLine
 10
25.0
 20
240.8333333333333
 30
0.0
 11
20.0
 21
240.8333333333333
 31
0.0
  0
TEXT
  5
74EA
330
7493
100
AcDbEntity
  8
0
100
AcDbText
 10
1.0
 20
1.0
 30
0.0
 40
3.0
  1
この図枠はサンプルです。社内の規格やプロッタの出力範囲に合わせて適当に変更してご利用ください。
  7
ADESK1
100
AcDbText
  0
LINE
  5
74EB
330
7493
100
AcDbEntity
  8
0
100
AcDbLine
 10
25.0
 20
148.5
 30
0.0
 11
0.0
 21
148.5
 31
0.0
  0
LINE
  5
74EC
330
7493
100
AcDbEntity
  8
0
100
AcDbLine
 10
410.0
 20
148.5
 30
0.0
 11
420.0
 21
148.5
 31
0.0
  0
LINE
  5
74ED
330
7493
100
AcDbEntity
  8
0
100
AcDbLine
 10
217.5
 20
287.0
 30
0.0
 11
217.5
 21
297.0
 31
0.0
  0
LINE
  5
74EE
330
7493
100
AcDbEntity
  8
0
100
AcDbLine
 10
217.5
 20
10.0
 30
0.0
 11
217.5
 21
0.0
 31
0.0
  0
LINE
  5
74EF
330
7493
100
AcDbEntity
  8
OBJECT
100
AcDbLine
 10
130.0
 20
40.0
 30
0.0
 11
130.0
 21
10.0
 31
0.0
  0
LINE
  5
74F0
330
7493
100
AcDbEntity
  8
OBJECT
100
AcDbLine
 10
120.0
 20
10.0
 30
0.0
 11
120.0
 21
40.0
 31
0.0
  0
LINE
  5
74F1
330
7493
100
AcDbEntity
  8
OBJECT
100
AcDbLine
 10
44.5
 20
37.0
 30
0.0
 11
45.49999999999999
 21
37.0
 31
0.0
  0
LINE
  5
74F2
330
7493
100
AcDbEntity
  8
OBJECT
100
AcDbLine
 10
44.5
 20
31.0
 30
0.0
 11
45.49999999999999
 21
31.0
 31
0.0
  0
LINE
  5
74F3
330
7493
100
AcDbEntity
  8
OBJECT
100
AcDbLine
 10
39.5
 20
37.0
 30
0.0
 11
40.49999999999999
 21
37.0
 31
0.0
  0
LINE
  5
74F4
330
7493
100
AcDbEntity
  8
OBJECT
100
AcDbLine
 10
39.5
 20
31.0
 30
0.0
 11
40.49999999999999
 21
31.0
 31
0.0
  0
LINE
  5
74F5
330
7493
100
AcDbEntity
  8
OBJECT
100
AcDbLine
 10
44.5
 20
25.0
 30
0.0
 11
45.49999999999999
 21
25.0
 31
0.0
  0
LINE
  5
74F6
330
7493
100
AcDbEntity
  8
OBJECT
100
AcDbLine
 10
39.5
 20
25.0
 30
0.0
 11
40.49999999999999
 21
25.0
 31
0.0
  0
LINE
  5
74F7
330
7493
100
AcDbEntity
  8
OBJECT
100
AcDbLine
 10
44.5
 20
19.0
 30
0.0
 11
45.49999999999999
 21
19.0
 31
0.0
  0
LINE
  5
74F8
330
7493
100
AcDbEntity
  8
OBJECT
100
AcDbLine
 10
39.5
 20
19.0
 30
0.0
 11
40.49999999999999
 21
19.0
 31
0.0
  0
LINE
  5
74F9
330
7493
100
AcDbEntity
  8
OBJECT
100
AcDbLine
 10
28.0
 20
29.53589800000001
 30
0.0
 11
30.0
 21
33.0
 31
0.0
  0
LINE
  5
74FA
330
7493
100
AcDbEntity
  8
OBJECT
100
AcDbLine
 10
28.0
 20
29.53589800000001
 30
0.0
 11
32.0
 21
29.53589800000001
 31
0.0
  0
LINE
  5
74FB
330
7493
100
AcDbEntity
  8
OBJECT
100
AcDbLine
 10
32.0
 20
29.53589800000001
 30
0.0
 11
30.0
 21
33.0
 31
0.0
  0
LINE
  5
74FC
330
7493
100
AcDbEntity
  8
OBJECT
100
AcDbLine
 10
28.0
 20
35.535898
 30
0.0
 11
32.0
 21
35.535898
 31
0.0
  0
LINE
  5
74FD
330
7493
100
AcDbEntity
  8
OBJECT
100
AcDbLine
 10
32.0
 20
35.535898
 30
0.0
 11
30.0
 21
39.0
 31
0.0
  0
LINE
  5
74FE
330
7493
100
AcDbEntity
  8
OBJECT
100
AcDbLine
 10
28.0
 20
35.535898
 30
0.0
 11
30.0
 21
39.0
 31
0.0
  0
LINE
  5
74FF
330
7493
100
AcDbEntity
  8
OBJECT
100
AcDbLine
 10
28.0
 20
23.535898
 30
0.0
 11
30.0
 21
27.0
 31
0.0
  0
LINE
  5
7500
330
7493
100
AcDbEntity
  8
OBJECT
100
AcDbLine
 10
28.0
 20
23.535898
 30
0.0
 11
32.0
 21
23.535898
 31
0.0
  0
LINE
  5
7501
330
7493
100
AcDbEntity
  8
OBJECT
100
AcDbLine
 10
32.0
 20
23.535898
 30
0.0
 11
30.0
 21
27.0
 31
0.0
  0
LINE
  5
7502
330
7493
100
AcDbEntity
  8
OBJECT
100
AcDbLine
 10
28.0
 20
17.535898
 30
0.0
 11
30.0
 21
21.0
 31
0.0
  0
LINE
  5
7503
330
7493
100
AcDbEntity
  8
OBJECT
100
AcDbLine
 10
28.0
 20
17.535898
 30
0.0
 11
32.0
 21
17.535898
 31
0.0
  0
LINE
  5
7504
330
7493
100
AcDbEntity
  8
OBJECT
100
AcDbLine
 10
32.0
 20
17.535898
 30
0.0
 11
30.0
 21
21.0
 31
0.0
  0
LINE
  5
7505
330
7493
100
AcDbEntity
  8
OBJECT
100
AcDbLine
 10
44.5
 20
13.0
 30
0.0
 11
45.49999999999999
 21
13.0
 31
0.0
  0
LINE
  5
7506
330
7493
100
AcDbEntity
  8
OBJECT
100
AcDbLine
 10
39.5
 20
13.0
 30
0.0
 11
40.49999999999999
 21
13.0
 31
0.0
  0
LINE
  5
7507
330
7493
100
AcDbEntity
  8
OBJECT
100
AcDbLine
 10
28.0
 20
11.535898
 30
0.0
 11
32.0
 21
11.535898
 31
0.0
  0
LINE
  5
7508
330
7493
100
AcDbEntity
  8
OBJECT
100
AcDbLine
 10
80.0
 20
10.0
 30
0.0
 11
80.0
 21
40.0
 31
0.0
  0
LINE
  5
7509
330
7493
100
AcDbEntity
  8
OBJECT
100
AcDbLine
 10
50.0
 20
10.0
 30
0.0
 11
50.0
 21
40.0
 31
0.0
  0
LINE
  5
750A
330
7493
100
AcDbEntity
  8
OBJECT
100
AcDbLine
 10
35.0
 20
10.0
 30
0.0
 11
35.0
 21
40.0
 31
0.0
  0
LINE
  5
750B
330
7493
100
AcDbEntity
  8
OBJECT
100
AcDbLine
 10
32.0
 20
11.535898
 30
0.0
 11
30.0
 21
15.0
 31
0.0
  0
LINE
  5
750C
330
7493
100
AcDbEntity
  8
OBJECT
100
AcDbLine
 10
28.0
 20
11.535898
 30
0.0
 11
30.0
 21
15.0
 31
0.0
  0
LINE
  5
750D
330
7493
100
AcDbEntity
  8
OBJECT
100
AcDbLine
 10
130.0
 20
40.0
 30
0.0
 11
25.0
 21
40.0
 31
0.0
  0
LINE
  5
750E
330
7493
100
AcDbEntity
  8
OBJECT
100
AcDbLine
 10
130.0
 20
34.0
 30
0.0
 11
25.0
 21
34.0
 31
0.0
  0
LINE
  5
750F
330
7493
100
AcDbEntity
  8
OBJECT
100
AcDbLine
 10
130.0
 20
28.0
 30
0.0
 11
25.0
 21
28.0
 31
0.0
  0
LINE
  5
7510
330
7493
100
AcDbEntity
  8
OBJECT
100
AcDbLine
 10
130.0
 20
22.0
 30
0.0
 11
25.0
 21
22.0
 31
0.0
  0
LINE
  5
7511
330
7493
100
AcDbEntity
  8
OBJECT
100
AcDbLine
 10
130.0
 20
16.0
 30
0.0
 11
25.0
 21
16.0
 31
0.0
  0
ATTDEF
  5
7512
330
7493
100
AcDbEntity
  8
0
 62
     0
100
AcDbText
 10
19.0
 20
118.0
 30
0.0
 40
3.0
  1

 50
90.0
  7
ADESK1
100
AcDbAttributeDefinition
  3

  2
FNAME
 70
     8
  0
ATTDEF
  5
7513
330
7493
100
AcDbEntity
  8
0
 62
     0
100
AcDbText
 10
19.0
 20
70.0
 30
0.0
 40
3.0
  1

 50
90.0
  7
ADESK1
100
AcDbAttributeDefinition
  3

  2
REVDATE
 70
     8
  0
ATTDEF
  5
7514
330
7493
100
AcDbEntity
  8
0
 62
     0
100
AcDbText
 10
19.0
 20
10.0
 30
0.0
 40
3.0
  1

 50
90.0
  7
ADESK1
100
AcDbAttributeDefinition
  3

  2
USER
 70
     8
  0
LINE
  5
7515
330
7493
100
AcDbEntity
  8
0
100
AcDbLine
 10
410.0
 20
297.0
 30
0.0
 11
420.0
 21
297.0
 31
0.0
  0
LINE
  5
7516
330
7493
100
AcDbEntity
  8
0
100
AcDbLine
 10
420.0
 20
10.0
 30
0.0
 11
420.0
 21
0.0
 31
0.0
  0
LINE
  5
7517
330
7493
100
AcDbEntity
  8
0
100
AcDbLine
 10
25.0
 20
0.0
 30
0.0
 11
0.0
 21
0.0
 31
0.0
  0
LINE
  5
7518
330
7493
100
AcDbEntity
  8
0
100
AcDbLine
 10
0.0
 20
287.0
 30
0.0
 11
0.0
 21
297.0
 31
0.0
  0
LINE
  5
7519
330
7493
100
AcDbEntity
  8
0
100
AcDbLine
 10
25.0
 20
287.0
 30
0.0
 11
410.0
 21
287.0
 31
0.0
  0
LINE
  5
751A
330
7493
100
AcDbEntity
  8
0
100
AcDbLine
 10
410.0
 20
287.0
 30
0.0
 11
410.0
 21
10.0
 31
0.0
  0
LINE
  5
751B
330
7493
100
AcDbEntity
  8
0
100
AcDbLine
 10
410.0
 20
10.0
 30
0.0
 11
25.0
 21
10.0
 31
0.0
  0
LINE
  5
751C
330
7493
100
AcDbEntity
  8
0
100
AcDbLine
 10
25.0
 20
10.0
 30
0.0
 11
25.0
 21
287.0
 31
0.0
  0
LINE
  5
751D
330
7493
100
AcDbEntity
  8
0
100
AcDbLine
 10
420.0
 20
0.0
 30
0.0
 11
410.0
 21
0.0
 31
0.0
  0
LINE
  5
751E
330
7493
100
AcDbEntity
  8
0
100
AcDbLine
 10
420.0
 20
297.0
 30
0.0
 11
420.0
 21
287.0
 31
0.0
  0
LINE
  5
751F
330
7493
100
AcDbEntity
  8
0
100
AcDbLine
 10
0.0
 20
297.0
 30
0.0
 11
25.0
 21
297.0
 31
0.0
  0
LINE
  5
7520
330
7493
100
AcDbEntity
  8
0
100
AcDbLine
 10
0.0
 20
0.0
 30
0.0
 11
0.0
 21
10.0
 31
0.0
  0
ENDBLK
  5
7521
330
7493
100
AcDbEntity
  8
0
100
AcDbBlockEnd
  0
BLOCK
  5
81E1
330
81E0
100
AcDbEntity
  8
ASHADE
 48
15.0
100
AcDbBlockBegin
  2
AVE_RENDER
 70
     0
 10
0.0
 20
0.0
 30
0.0
  3
AVE_RENDER
  1
AVE_RENDER
  0
ENDBLK
  5
81E2
330
81E0
100
AcDbEntity
  8
0
 48
15.0
100
AcDbBlockEnd
  0
BLOCK
  5
81EF
330
81EE
100
AcDbEntity
  8
ASHADE
 48
15.0
100
AcDbBlockBegin
  2
AVE_GLOBAL
 70
     0
 10
0.0
 20
0.0
 30
0.0
  3
AVE_GLOBAL
  1
AVE_GLOBAL
  0
ENDBLK
  5
81F0
330
81EE
100
AcDbEntity
  8
0
 48
15.0
100
AcDbBlockEnd
  0
BLOCK
  5
B5EF
330
B5E5
100
AcDbEntity
  8
0
 48
15.0
100
AcDbBlockBegin
  2
*D3
 70
     1
 10
0.0
 20
0.0
 30
0.0
  3
*D3
  1

  0
LINE
  5
B5E6
330
B5E5
100
AcDbEntity
  8
寸法引出
 48
15.0
370
    -2
100
AcDbLine
 10
6973.274595131051
 20
7531.629990087882
 30
0.0
 11
7004.415281902786
 21
7531.629990087882
 31
0.0
  0
LINE
  5
B5E7
330
B5E5
100
AcDbEntity
  8
寸法引出
 48
15.0
370
    -2
100
AcDbLine
 10
6885.712134144798
 20
8331.629990087884
 30
0.0
 11
7004.415281902786
 21
8331.629990087884
 31
0.0
  0
LINE
  5
B5E8
330
B5E5
100
AcDbEntity
  8
寸法引出
 48
15.0
370
    -2
100
AcDbLine
 10
6991.915281902786
 20
7569.129990087882
 30
0.0
 11
6991.915281902786
 21
8294.129990087885
 31
0.0
  0
SOLID
  5
B5E9
330
B5E5
100
AcDbEntity
  8
寸法引出
 48
15.0
100
AcDbTrace
 10
6985.665281902786
 20
7569.129990087882
 30
0.0
 11
6998.165281902785
 21
7569.129990087882
 31
0.0
 12
6991.915281902786
 22
7531.629990087882
 32
0.0
 13
6991.915281902786
 23
7531.629990087882
 33
0.0
  0
SOLID
  5
B5EA
330
B5E5
100
AcDbEntity
  8
寸法引出
 48
15.0
100
AcDbTrace
 10
6985.665281902786
 20
8294.129990087885
 30
0.0
 11
6998.165281902785
 21
8294.129990087885
 31
0.0
 12
6991.915281902786
 22
8331.629990087884
 32
0.0
 13
6991.915281902786
 23
8331.629990087884
 33
0.0
  0
MTEXT
  5
B5EB
330
B5E5
100
AcDbEntity
  8
寸法引出
 48
15.0
100
AcDbMText
 10
6941.915281902784
 20
7931.629990087884
 30
0.0
 40
50.0
 41
0.0
 71
     5
 72
     1
  1
\A1;800
  7
SANWA
 11
0.0000000000000001
 21
1.0
 31
0.0
 73
     1
 44
1.0
1001
ACAD
1000
MTEXTBEGIN
1070
    73
1070
     1
1070
    44
1040
1.0
1070
    74
1070
     0
1000
MTEXTEND
  0
POINT
  5
B5EC
330
B5E5
100
AcDbEntity
  8
DEFPOINTS
 62
     0
 48
15.0
100
AcDbPoint
 10
6948.27459513105
 20
7531.629990087882
 30
0.0
  0
POINT
  5
B5ED
330
B5E5
100
AcDbEntity
  8
DEFPOINTS
 62
     0
 48
15.0
100
AcDbPoint
 10
6860.712134144797
 20
8331.629990087884
 30
0.0
  0
POINT
  5
B5EE
330
B5E5
100
AcDbEntity
  8
DEFPOINTS
 62
     0
 48
15.0
100
AcDbPoint
 10
6991.915281902786
 20
8331.629990087884
 30
0.0
  0
ENDBLK
  5
B5F0
330
B5E5
100
AcDbEntity
  8
0
 48
15.0
100
AcDbBlockEnd
  0
BLOCK
  5
B5FD
330
B5F1
100
AcDbEntity
  8
0
 48
15.0
100
AcDbBlockBegin
  2
*D4
 70
     1
 10
0.0
 20
0.0
 30
0.0
  3
*D4
  1

  0
LINE
  5
B5F2
330
B5F1
100
AcDbEntity
  8
寸法引出
 48
15.0
370
    -2
100
AcDbLine
 10
6885.712134144798
 20
8331.629990087884
 30
0.0
 11
7004.415281902786
 21
8331.629990087884
 31
0.0
  0
LINE
  5
B5F3
330
B5F1
100
AcDbEntity
  8
寸法引出
 48
15.0
370
    -2
100
AcDbLine
 10
6885.712134144798
 20
8431.629990087884
 30
0.0
 11
7004.415281902786
 21
8431.629990087884
 31
0.0
  0
LINE
  5
B5F4
330
B5F1
100
AcDbEntity
  8
寸法引出
 48
15.0
370
    -2
100
AcDbLine
 10
6991.915281902786
 20
8294.129990087885
 30
0.0
 11
6991.915281902786
 21
8256.629990087885
 31
0.0
  0
LINE
  5
B5F5
330
B5F1
100
AcDbEntity
  8
寸法引出
 48
15.0
370
    -2
100
AcDbLine
 10
6991.915281902786
 20
8469.129990087884
 30
0.0
 11
6991.915281902786
 21
8506.629990087885
 31
0.0
  0
LINE
  5
B5F6
330
B5F1
100
AcDbEntity
  8
寸法引出
 48
15.0
370
    -2
100
AcDbLine
 10
6991.915281902786
 20
8331.629990087884
 30
0.0
 11
6991.915281902786
 21
8431.629990087884
 31
0.0
  0
SOLID
  5
B5F7
330
B5F1
100
AcDbEntity
  8
寸法引出
 48
15.0
100
AcDbTrace
 10
6985.665281902786
 20
8294.129990087885
 30
0.0
 11
6998.165281902785
 21
8294.129990087885
 31
0.0
 12
6991.915281902786
 22
8331.629990087884
 32
0.0
 13
6991.915281902786
 23
8331.629990087884
 33
0.0
  0
SOLID
  5
B5F8
330
B5F1
100
AcDbEntity
  8
寸法引出
 48
15.0
100
AcDbTrace
 10
6985.665281902786
 20
8469.129990087884
 30
0.0
 11
6998.165281902785
 21
8469.129990087884
 31
0.0
 12
6991.915281902786
 22
8431.629990087884
 32
0.0
 13
6991.915281902786
 23
8431.629990087884
 33
0.0
  0
MTEXT
  5
B5F9
330
B5F1
100
AcDbEntity
  8
寸法引出
 48
15.0
100
AcDbMText
 10
6941.915281902784
 20
8381.629990087885
 30
0.0
 40
50.0
 41
0.0
 71
     5
 72
     1
  1
\A1;100
  7
SANWA
 11
0.0000000000000001
 21
1.0
 31
0.0
 73
     1
 44
1.0
1001
ACAD
1000
MTEXTBEGIN
1070
    73
1070
     1
1070
    44
1040
1.0
1070
    74
1070
     0
1000
MTEXTEND
  0
POINT
  5
B5FA
330
B5F1
100
AcDbEntity
  8
DEFPOINTS
 62
     0
 48
15.0
100
AcDbPoint
 10
6860.712134144797
 20
8331.629990087884
 30
0.0
  0
POINT
  5
B5FB
330
B5F1
100
AcDbEntity
  8
DEFPOINTS
 62
     0
 48
15.0
100
AcDbPoint
 10
6860.712134144797
 20
8431.629990087884
 30
0.0
  0
POINT
  5
B5FC
330
B5F1
100
AcDbEntity
  8
DEFPOINTS
 62
     0
 48
15.0
100
AcDbPoint
 10
6991.915281902786
 20
8431.629990087884
 30
0.0
  0
ENDBLK
  5
B5FE
330
B5F1
100
AcDbEntity
  8
0
 48
15.0
100
AcDbBlockEnd
  0
BLOCK
  5
B609
330
B5FF
100
AcDbEntity
  8
0
 48
15.0
100
AcDbBlockBegin
  2
*D5
 70
     1
 10
0.0
 20
0.0
 30
0.0
  3
*D5
  1

  0
LINE
  5
B600
330
B5FF
100
AcDbEntity
  8
寸法引出
 48
15.0
370
    -2
100
AcDbLine
 10
6973.274595131049
 20
7531.629990087882
 30
0.0
 11
7081.18475167752
 21
7531.629990087882
 31
0.0
  0
LINE
  5
B601
330
B5FF
100
AcDbEntity
  8
寸法引出
 48
15.0
370
    -2
100
AcDbLine
 10
6885.712134144798
 20
8431.629990087884
 30
0.0
 11
7081.18475167752
 21
8431.629990087884
 31
0.0
  0
LINE
  5
B602
330
B5FF
100
AcDbEntity
  8
寸法引出
 48
15.0
370
    -2
100
AcDbLine
 10
7068.68475167752
 20
7569.129990087882
 30
0.0
 11
7068.68475167752
 21
8394.129990087884
 31
0.0
  0
SOLID
  5
B603
330
B5FF
100
AcDbEntity
  8
寸法引出
 48
15.0
100
AcDbTrace
 10
7062.43475167752
 20
7569.129990087882
 30
0.0
 11
7074.93475167752
 21
7569.129990087882
 31
0.0
 12
7068.68475167752
 22
7531.629990087882
 32
0.0
 13
7068.68475167752
 23
7531.629990087882
 33
0.0
  0
SOLID
  5
B604
330
B5FF
100
AcDbEntity
  8
寸法引出
 48
15.0
100
AcDbTrace
 10
7062.43475167752
 20
8394.129990087884
 30
0.0
 11
7074.93475167752
 21
8394.129990087884
 31
0.0
 12
7068.68475167752
 22
8431.629990087884
 32
0.0
 13
7068.68475167752
 23
8431.629990087884
 33
0.0
  0
MTEXT
  5
B605
330
B5FF
100
AcDbEntity
  8
寸法引出
 48
15.0
100
AcDbMText
 10
7018.68475167752
 20
7981.629990087885
 30
0.0
 40
50.0
 41
0.0
 71
     5
 72
     1
  1
\A1;900
  7
SANWA
 11
0.0000000000000001
 21
1.0
 31
0.0
 73
     1
 44
1.0
1001
ACAD
1000
MTEXTBEGIN
1070
    73
1070
     1
1070
    44
1040
1.0
1070
    74
1070
     0
1000
MTEXTEND
  0
POINT
  5
B606
330
B5FF
100
AcDbEntity
  8
DEFPOINTS
 62
     0
 48
15.0
100
AcDbPoint
 10
6948.274595131049
 20
7531.629990087882
 30
0.0
  0
POINT
  5
B607
330
B5FF
100
AcDbEntity
  8
DEFPOINTS
 62
     0
 48
15.0
100
AcDbPoint
 10
6860.712134144797
 20
8431.629990087884
 30
0.0
  0
POINT
  5
B608
330
B5FF
100
AcDbEntity
  8
DEFPOINTS
 62
     0
 48
15.0
100
AcDbPoint
 10
7068.68475167752
 20
8431.629990087884
 30
0.0
  0
ENDBLK
  5
B60A
330
B5FF
100
AcDbEntity
  8
0
 48
15.0
100
AcDbBlockEnd
  0
BLOCK
  5
B615
330
B60B
100
AcDbEntity
  8
0
 48
15.0
100
AcDbBlockBegin
  2
*D6
 70
     1
 10
0.0
 20
0.0
 30
0.0
  3
*D6
  1

  0
LINE
  5
B60C
330
B60B
100
AcDbEntity
  8
寸法引出
 48
15.0
370
    -2
100
AcDbLine
 10
6860.712134144797
 20
8456.629990087884
 30
0.0
 11
6860.712134144797
 21
8536.895361818416
 31
0.0
  0
LINE
  5
B60D
330
B60B
100
AcDbEntity
  8
寸法引出
 48
15.0
370
    -2
100
AcDbLine
 10
7160.712134144798
 20
8456.629990087884
 30
0.0
 11
7160.712134144798
 21
8536.895361818416
 31
0.0
  0
LINE
  5
B60E
330
B60B
100
AcDbEntity
  8
寸法引出
 48
15.0
370
    -2
100
AcDbLine
 10
6898.212134144798
 20
8524.395361818417
 30
0.0
 11
7123.212134144798
 21
8524.395361818417
 31
0.0
  0
SOLID
  5
B60F
330
B60B
100
AcDbEntity
  8
寸法引出
 48
15.0
100
AcDbTrace
 10
6898.212134144798
 20
8530.645361818416
 30
0.0
 11
6898.212134144798
 21
8518.145361818417
 31
0.0
 12
6860.712134144797
 22
8524.395361818417
 32
0.0
 13
6860.712134144797
 23
8524.395361818417
 33
0.0
  0
SOLID
  5
B610
330
B60B
100
AcDbEntity
  8
寸法引出
 48
15.0
100
AcDbTrace
 10
7123.212134144798
 20
8530.645361818416
 30
0.0
 11
7123.212134144798
 21
8518.145361818417
 31
0.0
 12
7160.712134144798
 22
8524.395361818417
 32
0.0
 13
7160.712134144798
 23
8524.395361818417
 33
0.0
  0
MTEXT
  5
B611
330
B60B
100
AcDbEntity
  8
寸法引出
 48
15.0
100
AcDbMText
 10
7010.712134144798
 20
8574.395361818416
 30
0.0
 40
50.0
 41
0.0
 71
     5
 72
     1
  1
\A1;300
  7
SANWA
 73
     1
 44
1.0
1001
ACAD
1000
MTEXTBEGIN
1070
    73
1070
     1
1070
    44
1040
1.0
1070
    74
1070
     0
1000
MTEXTEND
  0
POINT
  5
B612
330
B60B
100
AcDbEntity
  8
DEFPOINTS
 62
     0
 48
15.0
100
AcDbPoint
 10
6860.712134144797
 20
8431.629990087884
 30
0.0
  0
POINT
  5
B613
330
B60B
100
AcDbEntity
  8
DEFPOINTS
 62
     0
 48
15.0
100
AcDbPoint
 10
7160.712134144798
 20
8431.629990087884
 30
0.0
  0
POINT
  5
B614
330
B60B
100
AcDbEntity
  8
DEFPOINTS
 62
     0
 48
15.0
100
AcDbPoint
 10
7160.712134144798
 20
8524.395361818417
 30
0.0
  0
ENDBLK
  5
B616
330
B60B
100
AcDbEntity
  8
0
 48
15.0
100
AcDbBlockEnd
  0
BLOCK
  5
B621
330
B617
100
AcDbEntity
  8
0
 48
15.0
100
AcDbBlockBegin
  2
*D7
 70
     1
 10
0.0
 20
0.0
 30
0.0
  3
*D7
  1

  0
LINE
  5
B618
330
B617
100
AcDbEntity
  8
寸法引出
 48
15.0
370
    -2
100
AcDbLine
 10
6810.712134144798
 20
8456.629990087884
 30
0.0
 11
6810.712134144798
 21
8647.401181367939
 31
0.0
  0
LINE
  5
B619
330
B617
100
AcDbEntity
  8
寸法引出
 48
15.0
370
    -2
100
AcDbLine
 10
7210.712134144798
 20
8456.629990087884
 30
0.0
 11
7210.712134144798
 21
8647.401181367939
 31
0.0
  0
LINE
  5
B61A
330
B617
100
AcDbEntity
  8
寸法引出
 48
15.0
370
    -2
100
AcDbLine
 10
6848.212134144798
 20
8634.90118136794
 30
0.0
 11
7173.212134144797
 21
8634.90118136794
 31
0.0
  0
SOLID
  5
B61B
330
B617
100
AcDbEntity
  8
寸法引出
 48
15.0
100
AcDbTrace
 10
6848.212134144798
 20
8641.15118136794
 30
0.0
 11
6848.212134144798
 21
8628.65118136794
 31
0.0
 12
6810.712134144798
 22
8634.90118136794
 32
0.0
 13
6810.712134144798
 23
8634.90118136794
 33
0.0
  0
SOLID
  5
B61C
330
B617
100
AcDbEntity
  8
寸法引出
 48
15.0
100
AcDbTrace
 10
7173.212134144797
 20
8641.15118136794
 30
0.0
 11
7173.212134144797
 21
8628.65118136794
 31
0.0
 12
7210.712134144798
 22
8634.90118136794
 32
0.0
 13
7210.712134144798
 23
8634.90118136794
 33
0.0
  0
MTEXT
  5
B61D
330
B617
100
AcDbEntity
  8
寸法引出
 48
15.0
100
AcDbMText
 10
7010.712134144798
 20
8684.901181367939
 30
0.0
 40
50.0
 41
0.0
 71
     5
 72
     1
  1
\A1;400
  7
SANWA
 73
     1
 44
1.0
1001
ACAD
1000
MTEXTBEGIN
1070
    73
1070
     1
1070
    44
1040
1.0
1070
    74
1070
     0
1000
MTEXTEND
  0
POINT
  5
B61E
330
B617
100
AcDbEntity
  8
DEFPOINTS
 62
     0
 48
15.0
100
AcDbPoint
 10
6810.712134144798
 20
8431.629990087884
 30
0.0
  0
POINT
  5
B61F
330
B617
100
AcDbEntity
  8
DEFPOINTS
 62
     0
 48
15.0
100
AcDbPoint
 10
7210.712134144798
 20
8431.629990087884
 30
0.0
  0
POINT
  5
B620
330
B617
100
AcDbEntity
  8
DEFPOINTS
 62
     0
 48
15.0
100
AcDbPoint
 10
7210.712134144798
 20
8634.90118136794
 30
0.0
  0
ENDBLK
  5
B622
330
B617
100
AcDbEntity
  8
0
 48
15.0
100
AcDbBlockEnd
  0
BLOCK
  5
B62D
330
B623
100
AcDbEntity
  8
0
 48
15.0
100
AcDbBlockBegin
  2
*D8
 70
     1
 10
0.0
 20
0.0
 30
0.0
  3
*D8
  1

  0
LINE
  5
B624
330
B623
100
AcDbEntity
  8
寸法引出
 48
15.0
370
    -2
100
AcDbLine
 10
7185.712134144798
 20
7381.629990087882
 30
0.0
 11
7371.715787046937
 21
7381.629990087882
 31
0.0
  0
LINE
  5
B625
330
B623
100
AcDbEntity
  8
寸法引出
 48
15.0
370
    -2
100
AcDbLine
 10
7235.712134144797
 20
8431.629990087884
 30
0.0
 11
7371.715787046937
 21
8431.629990087884
 31
0.0
  0
LINE
  5
B626
330
B623
100
AcDbEntity
  8
寸法引出
 48
15.0
370
    -2
100
AcDbLine
 10
7359.215787046938
 20
7419.129990087881
 30
0.0
 11
7359.215787046938
 21
8394.129990087884
 31
0.0
  0
SOLID
  5
B627
330
B623
100
AcDbEntity
  8
寸法引出
 48
15.0
100
AcDbTrace
 10
7352.965787046938
 20
7419.129990087881
 30
0.0
 11
7365.465787046938
 21
7419.129990087881
 31
0.0
 12
7359.215787046938
 22
7381.629990087882
 32
0.0
 13
7359.215787046938
 23
7381.629990087882
 33
0.0
  0
SOLID
  5
B628
330
B623
100
AcDbEntity
  8
寸法引出
 48
15.0
100
AcDbTrace
 10
7352.965787046938
 20
8394.129990087884
 30
0.0
 11
7365.465787046938
 21
8394.129990087884
 31
0.0
 12
7359.215787046938
 22
8431.629990087884
 32
0.0
 13
7359.215787046938
 23
8431.629990087884
 33
0.0
  0
MTEXT
  5
B629
330
B623
100
AcDbEntity
  8
寸法引出
 48
15.0
100
AcDbMText
 10
7309.215787046937
 20
7906.629990087885
 30
0.0
 40
50.0
 41
0.0
 71
     5
 72
     1
  1
\A1;1050
  7
SANWA
 11
0.0000000000000001
 21
1.0
 31
0.0
 73
     1
 44
1.0
1001
ACAD
1000
MTEXTBEGIN
1070
    73
1070
     1
1070
    44
1040
1.0
1070
    74
1070
     0
1000
MTEXTEND
  0
POINT
  5
B62A
330
B623
100
AcDbEntity
  8
DEFPOINTS
 62
     0
 48
15.0
100
AcDbPoint
 10
7160.712134144798
 20
7381.629990087882
 30
0.0
  0
POINT
  5
B62B
330
B623
100
AcDbEntity
  8
DEFPOINTS
 62
     0
 48
15.0
100
AcDbPoint
 10
7210.712134144798
 20
8431.629990087884
 30
0.0
  0
POINT
  5
B62C
330
B623
100
AcDbEntity
  8
DEFPOINTS
 62
     0
 48
15.0
100
AcDbPoint
 10
7359.215787046938
 20
8431.629990087884
 30
0.0
  0
ENDBLK
  5
B62E
330
B623
100
AcDbEntity
  8
0
 48
15.0
100
AcDbBlockEnd
  0
BLOCK
  5
B645
330
B62F
100
AcDbEntity
  8
0
 48
25.0
100
AcDbBlockBegin
  2
A$C2A7F6572
 70
     0
 10
0.0
 20
0.0
 30
0.0
  3
A$C2A7F6572
  1

  0
DIMENSION
  5
B630
330
B62F
100
AcDbEntity
  8
寸法引出
 48
15.0
100
AcDbDimension
  2
*D7
 10
532.7046336285029
 20
1633.758539850671
 30
0.0
 11
332.704633628503
 21
1683.758539850671
 31
0.0
 12
-6678.007500516294
 22
-7001.142641517268
 32
0.0
 71
     5
 42
400.0
  3
SANWA
100
AcDbAlignedDimension
 13
132.7046336285029
 23
1430.487348570616
 33
0.0
 14
532.7046336285029
 24
1430.487348570616
 34
0.0
100
AcDbRotatedDimension
1001
ACAD
1000
DSTYLE
1002
{
1070
    40
1040
25.0
1070
    41
1040
1.5
1070
    43
1040
5.0
1070
    44
1040
0.5
1070
   140
1040
2.0
1070
   147
1040
1.0
1070
   176
1070
   256
1070
   177
1070
   256
1070
   178
1070
   256
1002
}
  0
DIMENSION
  5
B631
330
B62F
100
AcDbEntity
  8
寸法引出
 48
15.0
100
AcDbDimension
  2
*D6
 10
482.7046336285029
 20
1523.252720301148
 30
0.0
 11
332.704633628503
 21
1573.252720301149
 31
0.0
 12
-6678.007500516294
 22
-7001.142641517268
 32
0.0
 71
     5
 42
300.0
  3
SANWA
100
AcDbAlignedDimension
 13
182.7046336285029
 23
1430.487348570616
 33
0.0
 14
482.7046336285029
 24
1430.487348570616
 34
0.0
100
AcDbRotatedDimension
1001
ACAD
1000
DSTYLE
1002
{
1070
    40
1040
25.0
1070
    41
1040
1.5
1070
    43
1040
5.0
1070
    44
1040
0.5
1070
   140
1040
2.0
1070
   147
1040
1.0
1070
   176
1070
   256
1070
   177
1070
   256
1070
   178
1070
   256
1002
}
  0
MTEXT
  5
B632
330
B62F
100
AcDbEntity
  8
寸法引出
 48
15.0
100
AcDbMText
 10
382.0571102726644
 20
132.8144646556593
 30
0.0
 40
200.0
 41
0.0
 71
     5
 72
     1
  1
902kg
  7
SANWA
 73
     1
 44
1.0
1001
ACAD
1000
MTEXTBEGIN
1070
    73
1070
     1
1070
    44
1040
1.0
1070
    74
1070
     0
1000
MTEXTEND
  0
DIMENSION
  5
B633
330
B62F
100
AcDbEntity
  8
寸法引出
 48
15.0
100
AcDbDimension
  2
*D5
 10
390.6772511612262
 20
1430.487348570616
 30
0.0
 11
340.6772511612253
 21
980.4873485706165
 31
0.0
 12
-6678.007500516294
 22
-7001.142641517268
 32
0.0
 71
     5
 42
900.0000000000017
  3
SANWA
100
AcDbAlignedDimension
 13
270.2670946147545
 23
530.4873485706139
 33
0.0
 14
182.7046336285029
 24
1430.487348570616
 34
0.0
 50
90.0
100
AcDbRotatedDimension
1001
ACAD
1000
DSTYLE
1002
{
1070
    40
1040
25.0
1070
    41
1040
1.5
1070
    43
1040
5.0
1070
    44
1040
0.5
1070
   140
1040
2.0
1070
   147
1040
1.0
1070
   176
1070
   256
1070
   177
1070
   256
1070
   178
1070
   256
1002
}
  0
DIMENSION
  5
B634
330
B62F
100
AcDbEntity
  8
寸法引出
 48
15.0
100
AcDbDimension
  2
*D4
 10
313.9077813864906
 20
1430.487348570616
 30
0.0
 11
263.9077813864897
 21
1380.487348570617
 31
0.0
 12
-6678.007500516294
 22
-7001.142641517268
 32
0.0
 71
     5
 42
100.0
  3
SANWA
100
AcDbAlignedDimension
 13
182.7046336285029
 23
1330.487348570615
 33
0.0
 14
182.7046336285029
 24
1430.487348570616
 34
0.0
 50
90.0
100
AcDbRotatedDimension
1001
ACAD
1000
DSTYLE
1002
{
1070
   279
1070
     1
1070
    40
1040
25.0
1070
    41
1040
1.5
1070
    43
1040
5.0
1070
    44
1040
0.5
1070
   140
1040
2.0
1070
   147
1040
1.0
1070
   176
1070
   256
1070
   177
1070
   256
1070
   178
1070
   256
1002
}
  0
DIMENSION
  5
B635
330
B62F
100
AcDbEntity
  8
寸法引出
 48
15.0
100
AcDbDimension
  2
*D3
 10
313.9077813864906
 20
1330.487348570615
 30
0.0
 11
263.9077813864897
 21
930.4873485706165
 31
0.0
 12
-6678.007500516294
 22
-7001.142641517268
 32
0.0
 71
     5
 42
800.0000000000017
  3
SANWA
100
AcDbAlignedDimension
 13
270.2670946147555
 23
530.4873485706139
 33
0.0
 14
182.7046336285029
 24
1330.487348570615
 34
0.0
 50
90.0
100
AcDbRotatedDimension
1001
ACAD
1000
DSTYLE
1002
{
1070
    40
1040
25.0
1070
    41
1040
1.5
1070
    43
1040
5.0
1070
    44
1040
0.5
1070
   140
1040
2.0
1070
   147
1040
1.0
1070
   176
1070
   256
1070
   177
1070
   256
1070
   178
1070
   256
1002
}
  0
LINE
  5
B636
330
B62F
100
AcDbEntity
  8
0
 48
15.0
100
AcDbLine
 10
182.7046336285029
 20
1330.487348570615
 30
0.0
 11
220.3294776708626
 21
577.9904677234189
 31
0.0
  0
LINE
  5
B637
330
B62F
100
AcDbEntity
  8
0
 48
15.0
100
AcDbLine
 10
182.7046336285038
 20
380.4873485706139
 30
0.0
 11
482.7046336285039
 21
380.4873485706139
 31
0.0
  0
LINE
  5
B638
330
B62F
100
AcDbEntity
  8
0
 48
15.0
100
AcDbLine
 10
132.7046336285029
 20
1430.487348570616
 30
0.0
 11
132.7046336285029
 21
430.4873485706139
 31
0.0
  0
LINE
  5
B639
330
B62F
100
AcDbEntity
  8
0
 48
15.0
100
AcDbLine
 10
182.7046336285029
 20
380.4873485706139
 30
0.0
 11
132.7046336285029
 21
430.4873485706139
 31
0.0
  0
LINE
  5
B63A
330
B62F
100
AcDbEntity
  8
0
 48
15.0
100
AcDbLine
 10
182.7046336285029
 20
1330.487348570615
 30
0.0
 11
182.7046336285029
 21
1430.487348570616
 31
0.0
  0
LINE
  5
B63B
330
B62F
100
AcDbEntity
  8
0
 48
15.0
100
AcDbLine
 10
132.7046336285029
 20
1430.487348570616
 30
0.0
 11
182.7046336285029
 21
1430.487348570616
 31
0.0
  0
DIMENSION
  5
B63C
330
B62F
100
AcDbEntity
  8
寸法引出
 48
15.0
100
AcDbDimension
  2
*D8
 10
681.2082865306438
 20
1430.487348570616
 30
0.0
 11
631.2082865306429
 21
905.4873485706165
 31
0.0
 12
-6678.007500516294
 22
-7001.142641517268
 32
0.0
 71
     5
 42
1050.000000000002
  3
SANWA
100
AcDbAlignedDimension
 13
482.7046336285039
 23
380.4873485706139
 33
0.0
 14
532.7046336285029
 24
1430.487348570616
 34
0.0
 50
90.0
100
AcDbRotatedDimension
1001
ACAD
1000
DSTYLE
1002
{
1070
    40
1040
25.0
1070
    41
1040
1.5
1070
    43
1040
5.0
1070
    44
1040
0.5
1070
   140
1040
2.0
1070
   147
1040
1.0
1070
   176
1070
   256
1070
   177
1070
   256
1070
   178
1070
   256
1002
}
  0
LINE
  5
B63D
330
B62F
100
AcDbEntity
  8
0
 48
15.0
100
AcDbLine
 10
445.0797895861433
 20
577.9904677234172
 30
0.0
 11
482.7046336285029
 21
1330.487348570615
 31
0.0
  0
LINE
  5
B63E
330
B62F
100
AcDbEntity
  8
0
 48
15.0
100
AcDbLine
 10
532.7046336285029
 20
1430.487348570616
 30
0.0
 11
532.7046336285029
 21
430.4873485706139
 31
0.0
  0
LINE
  5
B63F
330
B62F
100
AcDbEntity
  8
0
 48
15.0
100
AcDbLine
 10
482.7046336285029
 20
380.4873485706139
 30
0.0
 11
532.7046336285029
 21
430.4873485706139
 31
0.0
  0
ARC
  5
B640
330
B62F
100
AcDbEntity
  8
0
 48
15.0
100
AcDbCircle
 10
395.1421726422505
 20
580.4873485706139
 30
0.0
 40
50.0
100
AcDbArc
 50
270.0
 51
357.1375947739012
  0
ARC
  5
B641
330
B62F
100
AcDbEntity
  8
0
 48
15.0
100
AcDbCircle
 10
270.2670946147555
 20
580.4873485706139
 30
0.0
 40
50.0
100
AcDbArc
 50
182.8624052260987
 51
270.0
  0
LINE
  5
B642
330
B62F
100
AcDbEntity
  8
0
 48
15.0
100
AcDbLine
 10
270.2670946147555
 20
530.4873485706139
 30
0.0
 11
395.1421726422505
 21
530.4873485706139
 31
0.0
  0
LINE
  5
B643
330
B62F
100
AcDbEntity
  8
0
 48
15.0
100
AcDbLine
 10
482.7046336285029
 20
1430.487348570616
 30
0.0
 11
532.7046336285029
 21
1430.487348570616
 31
0.0
  0
LINE
  5
B644
330
B62F
100
AcDbEntity
  8
0
 48
15.0
100
AcDbLine
 10
482.7046336285029
 20
1330.487348570615
 30
0.0
 11
482.7046336285029
 21
1430.487348570616
 31
0.0
  0
ENDBLK
  5
B646
330
B62F
100
AcDbEntity
  8
0
 48
25.0
100
AcDbBlockEnd
  0
BLOCK
  5
C1FE
330
C1F4
100
AcDbEntity
  8
0
 48
25.0
100
AcDbBlockBegin
  2
*D10
 70
     1
 10
0.0
 20
0.0
 30
0.0
  3
*D10
  1

  0
LINE
  5
DABD
330
C1F4
100
AcDbEntity
  8
寸法引出
 48
25.0
370
    -2
100
AcDbLine
 10
5243.469910207107
 20
3762.250569887546
 30
0.0
 11
5243.469910207107
 21
3959.651702602744
 31
0.0
  0
LINE
  5
DABE
330
C1F4
100
AcDbEntity
  8
寸法引出
 48
25.0
370
    -2
100
AcDbLine
 10
6003.469910207106
 20
3762.250569887546
 30
0.0
 11
6003.469910207106
 21
3959.651702602744
 31
0.0
  0
LINE
  5
DABF
330
C1F4
100
AcDbEntity
  8
寸法引出
 48
25.0
370
    -2
100
AcDbLine
 10
5280.969910207106
 20
3947.151702602744
 30
0.0
 11
5965.969910207107
 21
3947.151702602744
 31
0.0
  0
SOLID
  5
DAC0
330
C1F4
100
AcDbEntity
  8
寸法引出
 48
25.0
100
AcDbTrace
 10
5280.969910207106
 20
3953.401702602744
 30
0.0
 11
5280.969910207106
 21
3940.901702602744
 31
0.0
 12
5243.469910207107
 22
3947.151702602744
 32
0.0
 13
5243.469910207107
 23
3947.151702602744
 33
0.0
  0
SOLID
  5
DAC1
330
C1F4
100
AcDbEntity
  8
寸法引出
 48
25.0
100
AcDbTrace
 10
5965.969910207107
 20
3953.401702602744
 30
0.0
 11
5965.969910207107
 21
3940.901702602744
 31
0.0
 12
6003.469910207106
 22
3947.151702602744
 32
0.0
 13
6003.469910207106
 23
3947.151702602744
 33
0.0
  0
MTEXT
  5
DAC2
330
C1F4
100
AcDbEntity
  8
寸法引出
 48
25.0
100
AcDbMText
 10
5623.469910207106
 20
3997.151702602744
 30
0.0
 40
50.0
 41
0.0
 71
     5
 72
     1
  1
\A1;760
  7
SANWA
 73
     1
 44
1.0
1001
ACAD
1000
MTEXTBEGIN
1070
    73
1070
     1
1070
    44
1040
1.0
1070
    74
1070
     0
1000
MTEXTEND
  0
POINT
  5
DAC3
330
C1F4
100
AcDbEntity
  8
DEFPOINTS
 62
     0
 48
25.0
100
AcDbPoint
 10
5243.469910207107
 20
3737.250569887546
 30
0.0
  0
POINT
  5
DAC4
330
C1F4
100
AcDbEntity
  8
DEFPOINTS
 62
     0
 48
25.0
100
AcDbPoint
 10
6003.469910207106
 20
3737.250569887546
 30
0.0
  0
POINT
  5
DAC5
330
C1F4
100
AcDbEntity
  8
DEFPOINTS
 62
     0
 48
25.0
100
AcDbPoint
 10
6003.469910207106
 20
3947.151702602744
 30
0.0
  0
ENDBLK
  5
C1FF
330
C1F4
100
AcDbEntity
  8
0
 48
25.0
100
AcDbBlockEnd
  0
BLOCK
  5
C20A
330
C200
100
AcDbEntity
  8
0
 48
25.0
100
AcDbBlockBegin
  2
*D11
 70
     1
 10
0.0
 20
0.0
 30
0.0
  3
*D11
  1

  0
LINE
  5
DAB4
330
C200
100
AcDbEntity
  8
寸法引出
 48
25.0
370
    -2
100
AcDbLine
 10
4123.469910207106
 20
3762.250569887546
 30
0.0
 11
4123.469910207106
 21
4082.779774099495
 31
0.0
  0
LINE
  5
DAB5
330
C200
100
AcDbEntity
  8
寸法引出
 48
25.0
370
    -2
100
AcDbLine
 10
6123.469910207106
 20
3762.250569887546
 30
0.0
 11
6123.469910207106
 21
4082.779774099495
 31
0.0
  0
LINE
  5
DAB6
330
C200
100
AcDbEntity
  8
寸法引出
 48
25.0
370
    -2
100
AcDbLine
 10
4160.969910207106
 20
4070.279774099494
 30
0.0
 11
6085.969910207106
 21
4070.279774099494
 31
0.0
  0
SOLID
  5
DAB7
330
C200
100
AcDbEntity
  8
寸法引出
 48
25.0
100
AcDbTrace
 10
4160.969910207106
 20
4076.529774099494
 30
0.0
 11
4160.969910207106
 21
4064.029774099494
 31
0.0
 12
4123.469910207106
 22
4070.279774099494
 32
0.0
 13
4123.469910207106
 23
4070.279774099494
 33
0.0
  0
SOLID
  5
DAB8
330
C200
100
AcDbEntity
  8
寸法引出
 48
25.0
100
AcDbTrace
 10
6085.969910207106
 20
4076.529774099494
 30
0.0
 11
6085.969910207106
 21
4064.029774099494
 31
0.0
 12
6123.469910207106
 22
4070.279774099494
 32
0.0
 13
6123.469910207106
 23
4070.279774099494
 33
0.0
  0
MTEXT
  5
DAB9
330
C200
100
AcDbEntity
  8
寸法引出
 48
25.0
100
AcDbMText
 10
5123.469910207106
 20
4120.279774099494
 30
0.0
 40
50.0
 41
0.0
 71
     5
 72
     1
  1
\A1;2000
  7
SANWA
 73
     1
 44
1.0
1001
ACAD
1000
MTEXTBEGIN
1070
    73
1070
     1
1070
    44
1040
1.0
1070
    74
1070
     0
1000
MTEXTEND
  0
POINT
  5
DABA
330
C200
100
AcDbEntity
  8
DEFPOINTS
 62
     0
 48
25.0
100
AcDbPoint
 10
4123.469910207106
 20
3737.250569887546
 30
0.0
  0
POINT
  5
DABB
330
C200
100
AcDbEntity
  8
DEFPOINTS
 62
     0
 48
25.0
100
AcDbPoint
 10
6123.469910207106
 20
3737.250569887546
 30
0.0
  0
POINT
  5
DABC
330
C200
100
AcDbEntity
  8
DEFPOINTS
 62
     0
 48
25.0
100
AcDbPoint
 10
6123.469910207106
 20
4070.279774099494
 30
0.0
  0
ENDBLK
  5
C20B
330
C200
100
AcDbEntity
  8
0
 48
25.0
100
AcDbBlockEnd
  0
BLOCK
  5
C216
330
C20C
100
AcDbEntity
  8
0
 48
25.0
100
AcDbBlockBegin
  2
*D12
 70
     1
 10
0.0
 20
0.0
 30
0.0
  3
*D12
  1

  0
LINE
  5
DADA
330
C20C
100
AcDbEntity
  8
寸法引出
 48
25.0
370
    -2
100
AcDbLine
 10
4243.469910207106
 20
3762.250569887546
 30
0.0
 11
4243.469910207106
 21
3959.651702602744
 31
0.0
  0
LINE
  5
DADB
330
C20C
100
AcDbEntity
  8
寸法引出
 48
25.0
370
    -2
100
AcDbLine
 10
5003.469910207106
 20
3762.250569887546
 30
0.0
 11
5003.469910207106
 21
3959.651702602744
 31
0.0
  0
LINE
  5
DADC
330
C20C
100
AcDbEntity
  8
寸法引出
 48
25.0
370
    -2
100
AcDbLine
 10
4280.969910207106
 20
3947.151702602744
 30
0.0
 11
4965.969910207107
 21
3947.151702602744
 31
0.0
  0
SOLID
  5
DADD
330
C20C
100
AcDbEntity
  8
寸法引出
 48
25.0
100
AcDbTrace
 10
4280.969910207106
 20
3953.401702602744
 30
0.0
 11
4280.969910207106
 21
3940.901702602744
 31
0.0
 12
4243.469910207106
 22
3947.151702602744
 32
0.0
 13
4243.469910207106
 23
3947.151702602744
 33
0.0
  0
SOLID
  5
DADE
330
C20C
100
AcDbEntity
  8
寸法引出
 48
25.0
100
AcDbTrace
 10
4965.969910207107
 20
3953.401702602744
 30
0.0
 11
4965.969910207107
 21
3940.901702602744
 31
0.0
 12
5003.469910207106
 22
3947.151702602744
 32
0.0
 13
5003.469910207106
 23
3947.151702602744
 33
0.0
  0
MTEXT
  5
DADF
330
C20C
100
AcDbEntity
  8
寸法引出
 48
25.0
100
AcDbMText
 10
4623.469910207106
 20
3997.151702602744
 30
0.0
 40
50.0
 41
0.0
 71
     5
 72
     1
  1
\A1;760
  7
SANWA
 73
     1
 44
1.0
1001
ACAD
1000
MTEXTBEGIN
1070
    73
1070
     1
1070
    44
1040
1.0
1070
    74
1070
     0
1000
MTEXTEND
  0
POINT
  5
DAE0
330
C20C
100
AcDbEntity
  8
DEFPOINTS
 62
     0
 48
25.0
100
AcDbPoint
 10
4243.469910207106
 20
3737.250569887546
 30
0.0
  0
POINT
  5
DAE1
330
C20C
100
AcDbEntity
  8
DEFPOINTS
 62
     0
 48
25.0
100
AcDbPoint
 10
5003.469910207106
 20
3737.250569887546
 30
0.0
  0
POINT
  5
DAE2
330
C20C
100
AcDbEntity
  8
DEFPOINTS
 62
     0
 48
25.0
100
AcDbPoint
 10
5003.469910207106
 20
3947.151702602744
 30
0.0
  0
ENDBLK
  5
C217
330
C20C
100
AcDbEntity
  8
0
 48
25.0
100
AcDbBlockEnd
  0
BLOCK
  5
C224
330
C218
100
AcDbEntity
  8
0
 48
25.0
100
AcDbBlockBegin
  2
*D13
 70
     1
 10
0.0
 20
0.0
 30
0.0
  3
*D13
  1

  0
LINE
  5
DACF
330
C218
100
AcDbEntity
  8
寸法引出
 48
25.0
370
    -2
100
AcDbLine
 10
4123.469910207106
 20
3762.250569887546
 30
0.0
 11
4123.469910207106
 21
3959.651702602744
 31
0.0
  0
LINE
  5
DAD0
330
C218
100
AcDbEntity
  8
寸法引出
 48
25.0
370
    -2
100
AcDbLine
 10
4243.469910207106
 20
3762.250569887546
 30
0.0
 11
4243.469910207106
 21
3959.651702602744
 31
0.0
  0
LINE
  5
DAD1
330
C218
100
AcDbEntity
  8
寸法引出
 48
25.0
370
    -2
100
AcDbLine
 10
4085.969910207106
 20
3947.151702602744
 30
0.0
 11
4048.469910207106
 21
3947.151702602744
 31
0.0
  0
LINE
  5
DAD2
330
C218
100
AcDbEntity
  8
寸法引出
 48
25.0
370
    -2
100
AcDbLine
 10
4280.969910207106
 20
3947.151702602744
 30
0.0
 11
4318.469910207106
 21
3947.151702602744
 31
0.0
  0
LINE
  5
DAD3
330
C218
100
AcDbEntity
  8
寸法引出
 48
25.0
370
    -2
100
AcDbLine
 10
4123.469910207106
 20
3947.151702602744
 30
0.0
 11
4243.469910207106
 21
3947.151702602744
 31
0.0
  0
SOLID
  5
DAD4
330
C218
100
AcDbEntity
  8
寸法引出
 48
25.0
100
AcDbTrace
 10
4085.969910207106
 20
3953.401702602744
 30
0.0
 11
4085.969910207106
 21
3940.901702602744
 31
0.0
 12
4123.469910207106
 22
3947.151702602744
 32
0.0
 13
4123.469910207106
 23
3947.151702602744
 33
0.0
  0
SOLID
  5
DAD5
330
C218
100
AcDbEntity
  8
寸法引出
 48
25.0
100
AcDbTrace
 10
4280.969910207106
 20
3953.401702602744
 30
0.0
 11
4280.969910207106
 21
3940.901702602744
 31
0.0
 12
4243.469910207106
 22
3947.151702602744
 32
0.0
 13
4243.469910207106
 23
3947.151702602744
 33
0.0
  0
MTEXT
  5
DAD6
330
C218
100
AcDbEntity
  8
寸法引出
 48
25.0
100
AcDbMText
 10
4183.469910207106
 20
3997.151702602744
 30
0.0
 40
50.0
 41
0.0
 71
     5
 72
     1
  1
\A1;120
  7
SANWA
 73
     1
 44
1.0
1001
ACAD
1000
MTEXTBEGIN
1070
    73
1070
     1
1070
    44
1040
1.0
1070
    74
1070
     0
1000
MTEXTEND
  0
POINT
  5
DAD7
330
C218
100
AcDbEntity
  8
DEFPOINTS
 62
     0
 48
25.0
100
AcDbPoint
 10
4123.469910207106
 20
3737.250569887546
 30
0.0
  0
POINT
  5
DAD8
330
C218
100
AcDbEntity
  8
DEFPOINTS
 62
     0
 48
25.0
100
AcDbPoint
 10
4243.469910207106
 20
3737.250569887546
 30
0.0
  0
POINT
  5
DAD9
330
C218
100
AcDbEntity
  8
DEFPOINTS
 62
     0
 48
25.0
100
AcDbPoint
 10
4243.469910207106
 20
3947.151702602744
 30
0.0
  0
ENDBLK
  5
C225
330
C218
100
AcDbEntity
  8
0
 48
25.0
100
AcDbBlockEnd
  0
BLOCK
  5
C232
330
C226
100
AcDbEntity
  8
0
 48
25.0
100
AcDbBlockBegin
  2
*D14
 70
     1
 10
0.0
 20
0.0
 30
0.0
  3
*D14
  1

  0
LINE
  5
DAE3
330
C226
100
AcDbEntity
  8
寸法引出
 48
25.0
370
    -2
100
AcDbLine
 10
4123.469910207106
 20
3537.750569887546
 30
0.0
 11
4123.469910207106
 21
3439.675576881783
 31
0.0
  0
LINE
  5
DAE4
330
C226
100
AcDbEntity
  8
寸法引出
 48
25.0
370
    -2
100
AcDbLine
 10
4173.469910207106
 20
3562.250569887546
 30
0.0
 11
4173.469910207106
 21
3439.675576881783
 31
0.0
  0
LINE
  5
DAE5
330
C226
100
AcDbEntity
  8
寸法引出
 48
25.0
370
    -2
100
AcDbLine
 10
4085.969910207106
 20
3452.175576881784
 30
0.0
 11
4048.469910207106
 21
3452.175576881784
 31
0.0
  0
LINE
  5
DAE6
330
C226
100
AcDbEntity
  8
寸法引出
 48
25.0
370
    -2
100
AcDbLine
 10
4210.969910207106
 20
3452.175576881784
 30
0.0
 11
4248.469910207106
 21
3452.175576881784
 31
0.0
  0
LINE
  5
DAE7
330
C226
100
AcDbEntity
  8
寸法引出
 48
25.0
370
    -2
100
AcDbLine
 10
4123.469910207106
 20
3452.175576881784
 30
0.0
 11
4173.469910207106
 21
3452.175576881784
 31
0.0
  0
SOLID
  5
DAE8
330
C226
100
AcDbEntity
  8
寸法引出
 48
25.0
100
AcDbTrace
 10
4085.969910207106
 20
3458.425576881783
 30
0.0
 11
4085.969910207106
 21
3445.925576881784
 31
0.0
 12
4123.469910207106
 22
3452.175576881784
 32
0.0
 13
4123.469910207106
 23
3452.175576881784
 33
0.0
  0
SOLID
  5
DAE9
330
C226
100
AcDbEntity
  8
寸法引出
 48
25.0
100
AcDbTrace
 10
4210.969910207106
 20
3458.425576881783
 30
0.0
 11
4210.969910207106
 21
3445.925576881784
 31
0.0
 12
4173.469910207106
 22
3452.175576881784
 32
0.0
 13
4173.469910207106
 23
3452.175576881784
 33
0.0
  0
MTEXT
  5
DAEA
330
C226
100
AcDbEntity
  8
寸法引出
 48
25.0
100
AcDbMText
 10
4148.469910207106
 20
3502.175576881783
 30
0.0
 40
50.0
 41
0.0
 71
     5
 72
     1
  1
\A1;50
  7
SANWA
 73
     1
 44
1.0
1001
ACAD
1000
MTEXTBEGIN
1070
    73
1070
     1
1070
    44
1040
1.0
1070
    74
1070
     0
1000
MTEXTEND
  0
POINT
  5
DAEB
330
C226
100
AcDbEntity
  8
DEFPOINTS
 62
     0
 48
25.0
100
AcDbPoint
 10
4123.469910207106
 20
3562.750569887546
 30
0.0
  0
POINT
  5
DAEC
330
C226
100
AcDbEntity
  8
DEFPOINTS
 62
     0
 48
25.0
100
AcDbPoint
 10
4173.469910207106
 20
3587.250569887546
 30
0.0
  0
POINT
  5
DAED
330
C226
100
AcDbEntity
  8
DEFPOINTS
 62
     0
 48
25.0
100
AcDbPoint
 10
4173.469910207106
 20
3452.175576881784
 30
0.0
  0
ENDBLK
  5
C233
330
C226
100
AcDbEntity
  8
0
 48
25.0
100
AcDbBlockEnd
  0
BLOCK
  5
C23E
330
C234
100
AcDbEntity
  8
0
 48
25.0
100
AcDbBlockBegin
  2
*D15
 70
     1
 10
0.0
 20
0.0
 30
0.0
  3
*D15
  1

  0
LINE
  5
DAEE
330
C234
100
AcDbEntity
  8
寸法引出
 48
25.0
370
    -2
100
AcDbLine
 10
4098.469910207106
 20
3587.250569887546
 30
0.0
 11
3983.737552926137
 21
3587.250569887546
 31
0.0
  0
LINE
  5
DAEF
330
C234
100
AcDbEntity
  8
寸法引出
 48
25.0
370
    -2
100
AcDbLine
 10
4098.469910207106
 20
3737.250569887546
 30
0.0
 11
3983.737552926137
 21
3737.250569887546
 31
0.0
  0
LINE
  5
DAF0
330
C234
100
AcDbEntity
  8
寸法引出
 48
25.0
370
    -2
100
AcDbLine
 10
3996.237552926137
 20
3624.750569887546
 30
0.0
 11
3996.237552926137
 21
3699.750569887546
 31
0.0
  0
SOLID
  5
DAF1
330
C234
100
AcDbEntity
  8
寸法引出
 48
25.0
100
AcDbTrace
 10
3989.987552926137
 20
3624.750569887546
 30
0.0
 11
4002.487552926137
 21
3624.750569887546
 31
0.0
 12
3996.237552926137
 22
3587.250569887546
 32
0.0
 13
3996.237552926137
 23
3587.250569887546
 33
0.0
  0
SOLID
  5
DAF2
330
C234
100
AcDbEntity
  8
寸法引出
 48
25.0
100
AcDbTrace
 10
3989.987552926137
 20
3699.750569887546
 30
0.0
 11
4002.487552926137
 21
3699.750569887546
 31
0.0
 12
3996.237552926137
 22
3737.250569887546
 32
0.0
 13
3996.237552926137
 23
3737.250569887546
 33
0.0
  0
MTEXT
  5
DAF3
330
C234
100
AcDbEntity
  8
寸法引出
 48
25.0
100
AcDbMText
 10
3946.237552926137
 20
3662.250569887547
 30
0.0
 40
50.0
 41
0.0
 71
     5
 72
     1
  1
\A1;150
  7
SANWA
 11
0.0000000000000001
 21
1.0
 31
0.0
 73
     1
 44
1.0
1001
ACAD
1000
MTEXTBEGIN
1070
    73
1070
     1
1070
    44
1040
1.0
1070
    74
1070
     0
1000
MTEXTEND
  0
POINT
  5
DAF4
330
C234
100
AcDbEntity
  8
DEFPOINTS
 62
     0
 48
25.0
100
AcDbPoint
 10
4123.469910207106
 20
3587.250569887546
 30
0.0
  0
POINT
  5
DAF5
330
C234
100
AcDbEntity
  8
DEFPOINTS
 62
     0
 48
25.0
100
AcDbPoint
 10
4123.469910207106
 20
3737.250569887546
 30
0.0
  0
POINT
  5
DAF6
330
C234
100
AcDbEntity
  8
DEFPOINTS
 62
     0
 48
25.0
100
AcDbPoint
 10
3996.237552926137
 20
3737.250569887546
 30
0.0
  0
ENDBLK
  5
C23F
330
C234
100
AcDbEntity
  8
0
 48
25.0
100
AcDbBlockEnd
  0
BLOCK
  5
C24A
330
C240
100
AcDbEntity
  8
0
 48
25.0
100
AcDbBlockBegin
  2
*D16
 70
     1
 10
0.0
 20
0.0
 30
0.0
  3
*D16
  1

  0
LINE
  5
DAC6
330
C240
100
AcDbEntity
  8
寸法引出
 48
25.0
370
    -2
100
AcDbLine
 10
5003.469910207106
 20
3762.250569887546
 30
0.0
 11
5003.469910207106
 21
3959.651702602744
 31
0.0
  0
LINE
  5
DAC7
330
C240
100
AcDbEntity
  8
寸法引出
 48
25.0
370
    -2
100
AcDbLine
 10
5243.469910207107
 20
3762.250569887546
 30
0.0
 11
5243.469910207107
 21
3959.651702602744
 31
0.0
  0
LINE
  5
DAC8
330
C240
100
AcDbEntity
  8
寸法引出
 48
25.0
370
    -2
100
AcDbLine
 10
5040.969910207106
 20
3947.151702602744
 30
0.0
 11
5205.969910207106
 21
3947.151702602744
 31
0.0
  0
SOLID
  5
DAC9
330
C240
100
AcDbEntity
  8
寸法引出
 48
25.0
100
AcDbTrace
 10
5040.969910207106
 20
3953.401702602744
 30
0.0
 11
5040.969910207106
 21
3940.901702602744
 31
0.0
 12
5003.469910207106
 22
3947.151702602744
 32
0.0
 13
5003.469910207106
 23
3947.151702602744
 33
0.0
  0
SOLID
  5
DACA
330
C240
100
AcDbEntity
  8
寸法引出
 48
25.0
100
AcDbTrace
 10
5205.969910207106
 20
3953.401702602744
 30
0.0
 11
5205.969910207106
 21
3940.901702602744
 31
0.0
 12
5243.469910207107
 22
3947.151702602744
 32
0.0
 13
5243.469910207107
 23
3947.151702602744
 33
0.0
  0
MTEXT
  5
DACB
330
C240
100
AcDbEntity
  8
寸法引出
 48
25.0
100
AcDbMText
 10
5123.469910207106
 20
3997.151702602744
 30
0.0
 40
50.0
 41
0.0
 71
     5
 72
     1
  1
\A1;240
  7
SANWA
 73
     1
 44
1.0
1001
ACAD
1000
MTEXTBEGIN
1070
    73
1070
     1
1070
    44
1040
1.0
1070
    74
1070
     0
1000
MTEXTEND
  0
POINT
  5
DACC
330
C240
100
AcDbEntity
  8
DEFPOINTS
 62
     0
 48
25.0
100
AcDbPoint
 10
5003.469910207106
 20
3737.250569887546
 30
0.0
  0
POINT
  5
DACD
330
C240
100
AcDbEntity
  8
DEFPOINTS
 62
     0
 48
25.0
100
AcDbPoint
 10
5243.469910207107
 20
3737.250569887546
 30
0.0
  0
POINT
  5
DACE
330
C240
100
AcDbEntity
  8
DEFPOINTS
 62
     0
 48
25.0
100
AcDbPoint
 10
5243.469910207107
 20
3947.151702602744
 30
0.0
  0
ENDBLK
  5
C24B
330
C240
100
AcDbEntity
  8
0
 48
25.0
100
AcDbBlockEnd
  0
BLOCK
  5
C258
330
C24C
100
AcDbEntity
  8
0
 48
25.0
100
AcDbBlockBegin
  2
*D17
 70
     1
 10
0.0
 20
0.0
 30
0.0
  3
*D17
  1

  0
LINE
  5
DAF7
330
C24C
100
AcDbEntity
  8
寸法引出
 48
25.0
370
    -2
100
AcDbLine
 10
6003.469910207106
 20
3762.250569887546
 30
0.0
 11
6003.469910207106
 21
3959.651702602744
 31
0.0
  0
LINE
  5
DAF8
330
C24C
100
AcDbEntity
  8
寸法引出
 48
25.0
370
    -2
100
AcDbLine
 10
6123.469910207106
 20
3762.250569887546
 30
0.0
 11
6123.469910207106
 21
3959.651702602744
 31
0.0
  0
LINE
  5
DAF9
330
C24C
100
AcDbEntity
  8
寸法引出
 48
25.0
370
    -2
100
AcDbLine
 10
5965.969910207107
 20
3947.151702602744
 30
0.0
 11
5928.469910207106
 21
3947.151702602744
 31
0.0
  0
LINE
  5
DAFA
330
C24C
100
AcDbEntity
  8
寸法引出
 48
25.0
370
    -2
100
AcDbLine
 10
6160.969910207106
 20
3947.151702602744
 30
0.0
 11
6198.469910207106
 21
3947.151702602744
 31
0.0
  0
LINE
  5
DAFB
330
C24C
100
AcDbEntity
  8
寸法引出
 48
25.0
370
    -2
100
AcDbLine
 10
6003.469910207106
 20
3947.151702602744
 30
0.0
 11
6123.469910207106
 21
3947.151702602744
 31
0.0
  0
SOLID
  5
DAFC
330
C24C
100
AcDbEntity
  8
寸法引出
 48
25.0
100
AcDbTrace
 10
5965.969910207107
 20
3953.401702602744
 30
0.0
 11
5965.969910207107
 21
3940.901702602744
 31
0.0
 12
6003.469910207106
 22
3947.151702602744
 32
0.0
 13
6003.469910207106
 23
3947.151702602744
 33
0.0
  0
SOLID
  5
DAFD
330
C24C
100
AcDbEntity
  8
寸法引出
 48
25.0
100
AcDbTrace
 10
6160.969910207106
 20
3953.401702602744
 30
0.0
 11
6160.969910207106
 21
3940.901702602744
 31
0.0
 12
6123.469910207106
 22
3947.151702602744
 32
0.0
 13
6123.469910207106
 23
3947.151702602744
 33
0.0
  0
MTEXT
  5
DAFE
330
C24C
100
AcDbEntity
  8
寸法引出
 48
25.0
100
AcDbMText
 10
6063.469910207107
 20
3997.151702602744
 30
0.0
 40
50.0
 41
0.0
 71
     5
 72
     1
  1
\A1;120
  7
SANWA
 73
     1
 44
1.0
1001
ACAD
1000
MTEXTBEGIN
1070
    73
1070
     1
1070
    44
1040
1.0
1070
    74
1070
     0
1000
MTEXTEND
  0
POINT
  5
DAFF
330
C24C
100
AcDbEntity
  8
DEFPOINTS
 62
     0
 48
25.0
100
AcDbPoint
 10
6003.469910207106
 20
3737.250569887546
 30
0.0
  0
POINT
  5
DB00
330
C24C
100
AcDbEntity
  8
DEFPOINTS
 62
     0
 48
25.0
100
AcDbPoint
 10
6123.469910207106
 20
3737.250569887546
 30
0.0
  0
POINT
  5
DB01
330
C24C
100
AcDbEntity
  8
DEFPOINTS
 62
     0
 48
25.0
100
AcDbPoint
 10
6123.469910207106
 20
3947.151702602744
 30
0.0
  0
ENDBLK
  5
C259
330
C24C
100
AcDbEntity
  8
0
 48
25.0
100
AcDbBlockEnd
  0
BLOCK
  5
C288
330
C27E
100
AcDbEntity
  8
0
 48
25.0
100
AcDbBlockBegin
  2
*D18
 70
     1
 10
0.0
 20
0.0
 30
0.0
  3
*D18
  1

  0
LINE
  5
DAAB
330
C27E
100
AcDbEntity
  8
寸法引出
 48
25.0
370
    -2
100
AcDbLine
 10
967.5002421973404
 20
898.9652226668013
 30
0.0
 11
967.5002421973404
 21
810.7434378874923
 31
0.0
  0
LINE
  5
DAAC
330
C27E
100
AcDbEntity
  8
寸法引出
 48
25.0
370
    -2
100
AcDbLine
 10
1117.50024219734
 20
972.4652226668013
 30
0.0
 11
1117.50024219734
 21
810.7434378874923
 31
0.0
  0
LINE
  5
DAAD
330
C27E
100
AcDbEntity
  8
寸法引出
 48
25.0
370
    -2
100
AcDbLine
 10
1005.00024219734
 20
823.2434378874923
 30
0.0
 11
1080.00024219734
 21
823.2434378874923
 31
0.0
  0
SOLID
  5
DAAE
330
C27E
100
AcDbEntity
  8
寸法引出
 48
25.0
100
AcDbTrace
 10
1005.00024219734
 20
829.4934378874923
 30
0.0
 11
1005.00024219734
 21
816.9934378874923
 31
0.0
 12
967.5002421973404
 22
823.2434378874923
 32
0.0
 13
967.5002421973404
 23
823.2434378874923
 33
0.0
  0
SOLID
  5
DAAF
330
C27E
100
AcDbEntity
  8
寸法引出
 48
25.0
100
AcDbTrace
 10
1080.00024219734
 20
829.4934378874923
 30
0.0
 11
1080.00024219734
 21
816.9934378874923
 31
0.0
 12
1117.50024219734
 22
823.2434378874923
 32
0.0
 13
1117.50024219734
 23
823.2434378874923
 33
0.0
  0
MTEXT
  5
DAB0
330
C27E
100
AcDbEntity
  8
寸法引出
 48
25.0
100
AcDbMText
 10
1042.50024219734
 20
873.2434378874923
 30
0.0
 40
50.0
 41
0.0
 71
     5
 72
     1
  1
\A1;50
  7
SANWA
 73
     1
 44
1.0
1001
ACAD
1000
MTEXTBEGIN
1070
    73
1070
     1
1070
    44
1040
1.0
1070
    74
1070
     0
1000
MTEXTEND
  0
POINT
  5
DAB1
330
C27E
100
AcDbEntity
  8
DEFPOINTS
 62
     0
 48
25.0
100
AcDbPoint
 10
967.5002421973404
 20
923.9652226668013
 30
0.0
  0
POINT
  5
DAB2
330
C27E
100
AcDbEntity
  8
DEFPOINTS
 62
     0
 48
25.0
100
AcDbPoint
 10
1117.50024219734
 20
997.4652226668013
 30
0.0
  0
POINT
  5
DAB3
330
C27E
100
AcDbEntity
  8
DEFPOINTS
 62
     0
 48
25.0
100
AcDbPoint
 10
1117.50024219734
 20
823.2434378874923
 30
0.0
  0
ENDBLK
  5
C289
330
C27E
100
AcDbEntity
  8
0
 48
25.0
100
AcDbBlockEnd
  0
BLOCK
  5
C71F
330
C715
100
AcDbEntity
  8
0
 48
25.0
100
AcDbBlockBegin
  2
*D19
 70
     1
 10
0.0
 20
0.0
 30
0.0
  3
*D19
  1

  0
LINE
  5
DB3E
330
C715
100
AcDbEntity
  8
寸法引出
 48
25.0
370
    -2
100
AcDbLine
 10
2530.124842940757
 20
3737.250569887545
 30
0.0
 11
2649.367714182896
 21
3737.250569887545
 31
0.0
  0
LINE
  5
DB3F
330
C715
100
AcDbEntity
  8
寸法引出
 48
25.0
370
    -2
100
AcDbLine
 10
2530.124842940757
 20
2237.250569887544
 30
0.0
 11
2649.367714182896
 21
2237.250569887544
 31
0.0
  0
LINE
  5
DB40
330
C715
100
AcDbEntity
  8
寸法引出
 48
25.0
370
    -2
100
AcDbLine
 10
2636.867714182896
 20
3699.750569887545
 30
0.0
 11
2636.867714182896
 21
2274.750569887544
 31
0.0
  0
SOLID
  5
DB41
330
C715
100
AcDbEntity
  8
寸法引出
 48
25.0
100
AcDbTrace
 10
2630.617714182896
 20
3699.750569887545
 30
0.0
 11
2643.117714182896
 21
3699.750569887545
 31
0.0
 12
2636.867714182896
 22
3737.250569887545
 32
0.0
 13
2636.867714182896
 23
3737.250569887545
 33
0.0
  0
SOLID
  5
DB42
330
C715
100
AcDbEntity
  8
寸法引出
 48
25.0
100
AcDbTrace
 10
2630.617714182896
 20
2274.750569887544
 30
0.0
 11
2643.117714182896
 21
2274.750569887544
 31
0.0
 12
2636.867714182896
 22
2237.250569887544
 32
0.0
 13
2636.867714182896
 23
2237.250569887544
 33
0.0
  0
MTEXT
  5
DB43
330
C715
100
AcDbEntity
  8
寸法引出
 48
25.0
100
AcDbMText
 10
2586.867714182896
 20
2987.250569887545
 30
0.0
 40
50.0
 41
0.0
 71
     5
 72
     1
  1
\A1;1500
  7
SANWA
 11
0.0000000000000001
 21
1.0
 31
0.0
 73
     1
 44
1.0
1001
ACAD
1000
MTEXTBEGIN
1070
    73
1070
     1
1070
    44
1040
1.0
1070
    74
1070
     0
1000
MTEXTEND
  0
POINT
  5
DB44
330
C715
100
AcDbEntity
  8
DEFPOINTS
 62
     0
 48
25.0
100
AcDbPoint
 10
2505.124842940757
 20
3737.250569887545
 30
0.0
  0
POINT
  5
DB45
330
C715
100
AcDbEntity
  8
DEFPOINTS
 62
     0
 48
25.0
100
AcDbPoint
 10
2505.124842940757
 20
2237.250569887544
 30
0.0
  0
POINT
  5
DB46
330
C715
100
AcDbEntity
  8
DEFPOINTS
 62
     0
 48
25.0
100
AcDbPoint
 10
2636.867714182896
 20
2237.250569887544
 30
0.0
  0
ENDBLK
  5
C720
330
C715
100
AcDbEntity
  8
0
 48
25.0
100
AcDbBlockEnd
  0
BLOCK
  5
C72B
330
C721
100
AcDbEntity
  8
0
 48
25.0
100
AcDbBlockBegin
  2
*D20
 70
     1
 10
0.0
 20
0.0
 30
0.0
  3
*D20
  1

  0
LINE
  5
DB35
330
C721
100
AcDbEntity
  8
寸法引出
 48
25.0
370
    -2
100
AcDbLine
 10
2530.124842940757
 20
3737.250569887545
 30
0.0
 11
2757.337114844748
 21
3737.250569887545
 31
0.0
  0
LINE
  5
DB36
330
C721
100
AcDbEntity
  8
寸法引出
 48
25.0
370
    -2
100
AcDbLine
 10
2500.124842940753
 20
2112.250569887544
 30
0.0
 11
2757.337114844748
 21
2112.250569887544
 31
0.0
  0
LINE
  5
DB37
330
C721
100
AcDbEntity
  8
寸法引出
 48
25.0
370
    -2
100
AcDbLine
 10
2744.837114844748
 20
3699.750569887545
 30
0.0
 11
2744.837114844748
 21
2149.750569887544
 31
0.0
  0
SOLID
  5
DB38
330
C721
100
AcDbEntity
  8
寸法引出
 48
25.0
100
AcDbTrace
 10
2738.587114844748
 20
3699.750569887545
 30
0.0
 11
2751.087114844748
 21
3699.750569887545
 31
0.0
 12
2744.837114844748
 22
3737.250569887545
 32
0.0
 13
2744.837114844748
 23
3737.250569887545
 33
0.0
  0
SOLID
  5
DB39
330
C721
100
AcDbEntity
  8
寸法引出
 48
25.0
100
AcDbTrace
 10
2738.587114844748
 20
2149.750569887544
 30
0.0
 11
2751.087114844748
 21
2149.750569887544
 31
0.0
 12
2744.837114844748
 22
2112.250569887544
 32
0.0
 13
2744.837114844748
 23
2112.250569887544
 33
0.0
  0
MTEXT
  5
DB3A
330
C721
100
AcDbEntity
  8
寸法引出
 48
25.0
100
AcDbMText
 10
2694.837114844748
 20
2924.750569887545
 30
0.0
 40
50.0
 41
0.0
 71
     5
 72
     1
  1
\A1;1625
  7
SANWA
 11
0.0000000000000001
 21
1.0
 31
0.0
 73
     1
 44
1.0
1001
ACAD
1000
MTEXTBEGIN
1070
    73
1070
     1
1070
    44
1040
1.0
1070
    74
1070
     0
1000
MTEXTEND
  0
POINT
  5
DB3B
330
C721
100
AcDbEntity
  8
DEFPOINTS
 62
     0
 48
25.0
100
AcDbPoint
 10
2505.124842940757
 20
3737.250569887545
 30
0.0
  0
POINT
  5
DB3C
330
C721
100
AcDbEntity
  8
DEFPOINTS
 62
     0
 48
25.0
100
AcDbPoint
 10
2475.124842940753
 20
2112.250569887544
 30
0.0
  0
POINT
  5
DB3D
330
C721
100
AcDbEntity
  8
DEFPOINTS
 62
     0
 48
25.0
100
AcDbPoint
 10
2744.837114844748
 20
2112.250569887544
 30
0.0
  0
ENDBLK
  5
C72C
330
C721
100
AcDbEntity
  8
0
 48
25.0
100
AcDbBlockEnd
  0
BLOCK
  5
C739
330
C72D
100
AcDbEntity
  8
0
 48
25.0
100
AcDbBlockBegin
  2
*D21
 70
     1
 10
0.0
 20
0.0
 30
0.0
  3
*D21
  1

  0
LINE
  5
DB2A
330
C72D
100
AcDbEntity
  8
寸法引出
 48
25.0
370
    -2
100
AcDbLine
 10
2530.124842940757
 20
2237.250569887544
 30
0.0
 11
2649.367714182896
 21
2237.250569887544
 31
0.0
  0
LINE
  5
DB2B
330
C72D
100
AcDbEntity
  8
寸法引出
 48
25.0
370
    -2
100
AcDbLine
 10
2500.124842940753
 20
2112.250569887544
 30
0.0
 11
2649.367714182896
 21
2112.250569887544
 31
0.0
  0
LINE
  5
DB2C
330
C72D
100
AcDbEntity
  8
寸法引出
 48
25.0
370
    -2
100
AcDbLine
 10
2636.867714182896
 20
2274.750569887544
 30
0.0
 11
2636.867714182896
 21
2312.250569887543
 31
0.0
  0
LINE
  5
DB2D
330
C72D
100
AcDbEntity
  8
寸法引出
 48
25.0
370
    -2
100
AcDbLine
 10
2636.867714182896
 20
2074.750569887544
 30
0.0
 11
2636.867714182896
 21
2037.250569887543
 31
0.0
  0
LINE
  5
DB2E
330
C72D
100
AcDbEntity
  8
寸法引出
 48
25.0
370
    -2
100
AcDbLine
 10
2636.867714182896
 20
2237.250569887544
 30
0.0
 11
2636.867714182896
 21
2112.250569887544
 31
0.0
  0
SOLID
  5
DB2F
330
C72D
100
AcDbEntity
  8
寸法引出
 48
25.0
100
AcDbTrace
 10
2630.617714182896
 20
2274.750569887544
 30
0.0
 11
2643.117714182896
 21
2274.750569887544
 31
0.0
 12
2636.867714182896
 22
2237.250569887544
 32
0.0
 13
2636.867714182896
 23
2237.250569887544
 33
0.0
  0
SOLID
  5
DB30
330
C72D
100
AcDbEntity
  8
寸法引出
 48
25.0
100
AcDbTrace
 10
2630.617714182896
 20
2074.750569887544
 30
0.0
 11
2643.117714182896
 21
2074.750569887544
 31
0.0
 12
2636.867714182896
 22
2112.250569887544
 32
0.0
 13
2636.867714182896
 23
2112.250569887544
 33
0.0
  0
MTEXT
  5
DB31
330
C72D
100
AcDbEntity
  8
寸法引出
 48
25.0
100
AcDbMText
 10
2586.867714182896
 20
2174.750569887544
 30
0.0
 40
50.0
 41
0.0
 71
     5
 72
     1
  1
\A1;125
  7
SANWA
 11
0.0000000000000001
 21
1.0
 31
0.0
 73
     1
 44
1.0
1001
ACAD
1000
MTEXTBEGIN
1070
    73
1070
     1
1070
    44
1040
1.0
1070
    74
1070
     0
1000
MTEXTEND
  0
POINT
  5
DB32
330
C72D
100
AcDbEntity
  8
DEFPOINTS
 62
     0
 48
25.0
100
AcDbPoint
 10
2505.124842940757
 20
2237.250569887544
 30
0.0
  0
POINT
  5
DB33
330
C72D
100
AcDbEntity
  8
DEFPOINTS
 62
     0
 48
25.0
100
AcDbPoint
 10
2475.124842940753
 20
2112.250569887544
 30
0.0
  0
POINT
  5
DB34
330
C72D
100
AcDbEntity
  8
DEFPOINTS
 62
     0
 48
25.0
100
AcDbPoint
 10
2636.867714182896
 20
2112.250569887544
 30
0.0
  0
ENDBLK
  5
C73A
330
C72D
100
AcDbEntity
  8
0
 48
25.0
100
AcDbBlockEnd
  0
BLOCK
  5
C747
330
C73B
100
AcDbEntity
  8
0
 48
25.0
100
AcDbBlockBegin
  2
*D22
 70
     1
 10
0.0
 20
0.0
 30
0.0
  3
*D22
  1

  0
LINE
  5
DB1F
330
C73B
100
AcDbEntity
  8
寸法引出
 48
25.0
370
    -2
100
AcDbLine
 10
2105.124842940757
 20
3762.250569887545
 30
0.0
 11
2105.124842940757
 21
3900.936045495898
 31
0.0
  0
LINE
  5
DB20
330
C73B
100
AcDbEntity
  8
寸法引出
 48
25.0
370
    -2
100
AcDbLine
 10
2155.124842940757
 20
3762.250569887545
 30
0.0
 11
2155.124842940757
 21
3900.936045495898
 31
0.0
  0
LINE
  5
DB21
330
C73B
100
AcDbEntity
  8
寸法引出
 48
25.0
370
    -2
100
AcDbLine
 10
2067.624842940757
 20
3888.436045495898
 30
0.0
 11
2030.124842940757
 21
3888.436045495898
 31
0.0
  0
LINE
  5
DB22
330
C73B
100
AcDbEntity
  8
寸法引出
 48
25.0
370
    -2
100
AcDbLine
 10
2192.624842940757
 20
3888.436045495898
 30
0.0
 11
2230.124842940757
 21
3888.436045495898
 31
0.0
  0
LINE
  5
DB23
330
C73B
100
AcDbEntity
  8
寸法引出
 48
25.0
370
    -2
100
AcDbLine
 10
2105.124842940757
 20
3888.436045495898
 30
0.0
 11
2155.124842940757
 21
3888.436045495898
 31
0.0
  0
SOLID
  5
DB24
330
C73B
100
AcDbEntity
  8
寸法引出
 48
25.0
100
AcDbTrace
 10
2067.624842940757
 20
3894.686045495898
 30
0.0
 11
2067.624842940757
 21
3882.186045495898
 31
0.0
 12
2105.124842940757
 22
3888.436045495898
 32
0.0
 13
2105.124842940757
 23
3888.436045495898
 33
0.0
  0
SOLID
  5
DB25
330
C73B
100
AcDbEntity
  8
寸法引出
 48
25.0
100
AcDbTrace
 10
2192.624842940757
 20
3894.686045495898
 30
0.0
 11
2192.624842940757
 21
3882.186045495898
 31
0.0
 12
2155.124842940757
 22
3888.436045495898
 32
0.0
 13
2155.124842940757
 23
3888.436045495898
 33
0.0
  0
MTEXT
  5
DB26
330
C73B
100
AcDbEntity
  8
寸法引出
 48
25.0
100
AcDbMText
 10
2130.124842940757
 20
3938.436045495898
 30
0.0
 40
50.0
 41
0.0
 71
     5
 72
     1
  1
\A1;50
  7
SANWA
 73
     1
 44
1.0
1001
ACAD
1000
MTEXTBEGIN
1070
    73
1070
     1
1070
    44
1040
1.0
1070
    74
1070
     0
1000
MTEXTEND
  0
POINT
  5
DB27
330
C73B
100
AcDbEntity
  8
DEFPOINTS
 62
     0
 48
25.0
100
AcDbPoint
 10
2105.124842940757
 20
3737.250569887545
 30
0.0
  0
POINT
  5
DB28
330
C73B
100
AcDbEntity
  8
DEFPOINTS
 62
     0
 48
25.0
100
AcDbPoint
 10
2155.124842940757
 20
3737.250569887545
 30
0.0
  0
POINT
  5
DB29
330
C73B
100
AcDbEntity
  8
DEFPOINTS
 62
     0
 48
25.0
100
AcDbPoint
 10
2155.124842940757
 20
3888.436045495898
 30
0.0
  0
ENDBLK
  5
C748
330
C73B
100
AcDbEntity
  8
0
 48
25.0
100
AcDbBlockEnd
  0
BLOCK
  5
C753
330
C749
100
AcDbEntity
  8
0
 48
25.0
100
AcDbBlockBegin
  2
*D23
 70
     1
 10
0.0
 20
0.0
 30
0.0
  3
*D23
  1

  0
LINE
  5
DB16
330
C749
100
AcDbEntity
  8
寸法引出
 48
25.0
370
    -2
100
AcDbLine
 10
2155.124842940757
 20
3762.250569887545
 30
0.0
 11
2155.124842940757
 21
3900.936045495898
 31
0.0
  0
LINE
  5
DB17
330
C749
100
AcDbEntity
  8
寸法引出
 48
25.0
370
    -2
100
AcDbLine
 10
2455.124842940757
 20
3762.250569887545
 30
0.0
 11
2455.124842940757
 21
3900.936045495898
 31
0.0
  0
LINE
  5
DB18
330
C749
100
AcDbEntity
  8
寸法引出
 48
25.0
370
    -2
100
AcDbLine
 10
2192.624842940757
 20
3888.436045495898
 30
0.0
 11
2417.624842940757
 21
3888.436045495898
 31
0.0
  0
SOLID
  5
DB19
330
C749
100
AcDbEntity
  8
寸法引出
 48
25.0
100
AcDbTrace
 10
2192.624842940757
 20
3894.686045495898
 30
0.0
 11
2192.624842940757
 21
3882.186045495898
 31
0.0
 12
2155.124842940757
 22
3888.436045495898
 32
0.0
 13
2155.124842940757
 23
3888.436045495898
 33
0.0
  0
SOLID
  5
DB1A
330
C749
100
AcDbEntity
  8
寸法引出
 48
25.0
100
AcDbTrace
 10
2417.624842940757
 20
3894.686045495898
 30
0.0
 11
2417.624842940757
 21
3882.186045495898
 31
0.0
 12
2455.124842940757
 22
3888.436045495898
 32
0.0
 13
2455.124842940757
 23
3888.436045495898
 33
0.0
  0
MTEXT
  5
DB1B
330
C749
100
AcDbEntity
  8
寸法引出
 48
25.0
100
AcDbMText
 10
2305.124842940757
 20
3938.436045495898
 30
0.0
 40
50.0
 41
0.0
 71
     5
 72
     1
  1
\A1;300
  7
SANWA
 73
     1
 44
1.0
1001
ACAD
1000
MTEXTBEGIN
1070
    73
1070
     1
1070
    44
1040
1.0
1070
    74
1070
     0
1000
MTEXTEND
  0
POINT
  5
DB1C
330
C749
100
AcDbEntity
  8
DEFPOINTS
 62
     0
 48
25.0
100
AcDbPoint
 10
2155.124842940757
 20
3737.250569887545
 30
0.0
  0
POINT
  5
DB1D
330
C749
100
AcDbEntity
  8
DEFPOINTS
 62
     0
 48
25.0
100
AcDbPoint
 10
2455.124842940757
 20
3737.250569887545
 30
0.0
  0
POINT
  5
DB1E
330
C749
100
AcDbEntity
  8
DEFPOINTS
 62
     0
 48
25.0
100
AcDbPoint
 10
2455.124842940757
 20
3888.436045495898
 30
0.0
  0
ENDBLK
  5
C754
330
C749
100
AcDbEntity
  8
0
 48
25.0
100
AcDbBlockEnd
  0
BLOCK
  5
C761
330
C755
100
AcDbEntity
  8
0
 48
25.0
100
AcDbBlockBegin
  2
*D24
 70
     1
 10
0.0
 20
0.0
 30
0.0
  3
*D24
  1

  0
LINE
  5
DB0B
330
C755
100
AcDbEntity
  8
寸法引出
 48
25.0
370
    -2
100
AcDbLine
 10
2455.124842940757
 20
3762.250569887545
 30
0.0
 11
2455.124842940757
 21
3900.936045495898
 31
0.0
  0
LINE
  5
DB0C
330
C755
100
AcDbEntity
  8
寸法引出
 48
25.0
370
    -2
100
AcDbLine
 10
2505.124842940757
 20
3762.250569887545
 30
0.0
 11
2505.124842940757
 21
3900.936045495898
 31
0.0
  0
LINE
  5
DB0D
330
C755
100
AcDbEntity
  8
寸法引出
 48
25.0
370
    -2
100
AcDbLine
 10
2417.624842940757
 20
3888.436045495898
 30
0.0
 11
2380.124842940757
 21
3888.436045495898
 31
0.0
  0
LINE
  5
DB0E
330
C755
100
AcDbEntity
  8
寸法引出
 48
25.0
370
    -2
100
AcDbLine
 10
2542.624842940757
 20
3888.436045495898
 30
0.0
 11
2580.124842940757
 21
3888.436045495898
 31
0.0
  0
LINE
  5
DB0F
330
C755
100
AcDbEntity
  8
寸法引出
 48
25.0
370
    -2
100
AcDbLine
 10
2455.124842940757
 20
3888.436045495898
 30
0.0
 11
2505.124842940757
 21
3888.436045495898
 31
0.0
  0
SOLID
  5
DB10
330
C755
100
AcDbEntity
  8
寸法引出
 48
25.0
100
AcDbTrace
 10
2417.624842940757
 20
3894.686045495898
 30
0.0
 11
2417.624842940757
 21
3882.186045495898
 31
0.0
 12
2455.124842940757
 22
3888.436045495898
 32
0.0
 13
2455.124842940757
 23
3888.436045495898
 33
0.0
  0
SOLID
  5
DB11
330
C755
100
AcDbEntity
  8
寸法引出
 48
25.0
100
AcDbTrace
 10
2542.624842940757
 20
3894.686045495898
 30
0.0
 11
2542.624842940757
 21
3882.186045495898
 31
0.0
 12
2505.124842940757
 22
3888.436045495898
 32
0.0
 13
2505.124842940757
 23
3888.436045495898
 33
0.0
  0
MTEXT
  5
DB12
330
C755
100
AcDbEntity
  8
寸法引出
 48
25.0
100
AcDbMText
 10
2480.124842940757
 20
3938.436045495898
 30
0.0
 40
50.0
 41
0.0
 71
     5
 72
     1
  1
\A1;50
  7
SANWA
 73
     1
 44
1.0
1001
ACAD
1000
MTEXTBEGIN
1070
    73
1070
     1
1070
    44
1040
1.0
1070
    74
1070
     0
1000
MTEXTEND
  0
POINT
  5
DB13
330
C755
100
AcDbEntity
  8
DEFPOINTS
 62
     0
 48
25.0
100
AcDbPoint
 10
2455.124842940757
 20
3737.250569887545
 30
0.0
  0
POINT
  5
DB14
330
C755
100
AcDbEntity
  8
DEFPOINTS
 62
     0
 48
25.0
100
AcDbPoint
 10
2505.124842940757
 20
3737.250569887545
 30
0.0
  0
POINT
  5
DB15
330
C755
100
AcDbEntity
  8
DEFPOINTS
 62
     0
 48
25.0
100
AcDbPoint
 10
2505.124842940757
 20
3888.436045495898
 30
0.0
  0
ENDBLK
  5
C762
330
C755
100
AcDbEntity
  8
0
 48
25.0
100
AcDbBlockEnd
  0
BLOCK
  5
C76D
330
C763
100
AcDbEntity
  8
0
 48
25.0
100
AcDbBlockBegin
  2
*D25
 70
     1
 10
0.0
 20
0.0
 30
0.0
  3
*D25
  1

  0
LINE
  5
DB02
330
C763
100
AcDbEntity
  8
寸法引出
 48
25.0
370
    -2
100
AcDbLine
 10
2105.124842940757
 20
3762.250569887545
 30
0.0
 11
2105.124842940757
 21
4031.498044293878
 31
0.0
  0
LINE
  5
DB03
330
C763
100
AcDbEntity
  8
寸法引出
 48
25.0
370
    -2
100
AcDbLine
 10
2505.124842940757
 20
3762.250569887545
 30
0.0
 11
2505.124842940757
 21
4031.498044293878
 31
0.0
  0
LINE
  5
DB04
330
C763
100
AcDbEntity
  8
寸法引出
 48
25.0
370
    -2
100
AcDbLine
 10
2142.624842940757
 20
4018.998044293879
 30
0.0
 11
2467.624842940757
 21
4018.998044293879
 31
0.0
  0
SOLID
  5
DB05
330
C763
100
AcDbEntity
  8
寸法引出
 48
25.0
100
AcDbTrace
 10
2142.624842940757
 20
4025.248044293879
 30
0.0
 11
2142.624842940757
 21
4012.748044293878
 31
0.0
 12
2105.124842940757
 22
4018.998044293879
 32
0.0
 13
2105.124842940757
 23
4018.998044293879
 33
0.0
  0
SOLID
  5
DB06
330
C763
100
AcDbEntity
  8
寸法引出
 48
25.0
100
AcDbTrace
 10
2467.624842940757
 20
4025.248044293879
 30
0.0
 11
2467.624842940757
 21
4012.748044293878
 31
0.0
 12
2505.124842940757
 22
4018.998044293879
 32
0.0
 13
2505.124842940757
 23
4018.998044293879
 33
0.0
  0
MTEXT
  5
DB07
330
C763
100
AcDbEntity
  8
寸法引出
 48
25.0
100
AcDbMText
 10
2305.124842940757
 20
4068.998044293879
 30
0.0
 40
50.0
 41
0.0
 71
     5
 72
     1
  1
\A1;400
  7
SANWA
 73
     1
 44
1.0
1001
ACAD
1000
MTEXTBEGIN
1070
    73
1070
     1
1070
    44
1040
1.0
1070
    74
1070
     0
1000
MTEXTEND
  0
POINT
  5
DB08
330
C763
100
AcDbEntity
  8
DEFPOINTS
 62
     0
 48
25.0
100
AcDbPoint
 10
2105.124842940757
 20
3737.250569887545
 30
0.0
  0
POINT
  5
DB09
330
C763
100
AcDbEntity
  8
DEFPOINTS
 62
     0
 48
25.0
100
AcDbPoint
 10
2505.124842940757
 20
3737.250569887545
 30
0.0
  0
POINT
  5
DB0A
330
C763
100
AcDbEntity
  8
DEFPOINTS
 62
     0
 48
25.0
100
AcDbPoint
 10
2505.124842940757
 20
4018.998044293879
 30
0.0
  0
ENDBLK
  5
C76E
330
C763
100
AcDbEntity
  8
0
 48
25.0
100
AcDbBlockEnd
  0
BLOCK
  5
C84A
330
C840
100
AcDbEntity
  8
0
 48
25.0
100
AcDbBlockBegin
  2
*D26
 70
     1
 10
0.0
 20
0.0
 30
0.0
  3
*D26
  1

  0
LINE
  5
DB47
330
C840
100
AcDbEntity
  8
寸法引出
 48
25.0
370
    -2
100
AcDbLine
 10
2080.124842940757
 20
3737.250569887546
 30
0.0
 11
1957.629864571674
 21
3737.250569887546
 31
0.0
  0
LINE
  5
DB48
330
C840
100
AcDbEntity
  8
寸法引出
 48
25.0
370
    -2
100
AcDbLine
 10
2080.124842940757
 20
3587.250569887546
 30
0.0
 11
1957.629864571674
 21
3587.250569887546
 31
0.0
  0
LINE
  5
DB49
330
C840
100
AcDbEntity
  8
寸法引出
 48
25.0
370
    -2
100
AcDbLine
 10
1970.129864571674
 20
3699.750569887546
 30
0.0
 11
1970.129864571674
 21
3624.750569887546
 31
0.0
  0
SOLID
  5
DB4A
330
C840
100
AcDbEntity
  8
寸法引出
 48
25.0
100
AcDbTrace
 10
1963.879864571674
 20
3699.750569887546
 30
0.0
 11
1976.379864571674
 21
3699.750569887546
 31
0.0
 12
1970.129864571674
 22
3737.250569887546
 32
0.0
 13
1970.129864571674
 23
3737.250569887546
 33
0.0
  0
SOLID
  5
DB4B
330
C840
100
AcDbEntity
  8
寸法引出
 48
25.0
100
AcDbTrace
 10
1963.879864571674
 20
3624.750569887546
 30
0.0
 11
1976.379864571674
 21
3624.750569887546
 31
0.0
 12
1970.129864571674
 22
3587.250569887546
 32
0.0
 13
1970.129864571674
 23
3587.250569887546
 33
0.0
  0
MTEXT
  5
DB4C
330
C840
100
AcDbEntity
  8
寸法引出
 48
25.0
100
AcDbMText
 10
1920.129864571674
 20
3662.250569887547
 30
0.0
 40
50.0
 41
0.0
 71
     5
 72
     1
  1
\A1;150
  7
SANWA
 11
0.0000000000000001
 21
1.0
 31
0.0
 73
     1
 44
1.0
1001
ACAD
1000
MTEXTBEGIN
1070
    73
1070
     1
1070
    44
1040
1.0
1070
    74
1070
     0
1000
MTEXTEND
  0
POINT
  5
DB4D
330
C840
100
AcDbEntity
  8
DEFPOINTS
 62
     0
 48
25.0
100
AcDbPoint
 10
2105.124842940757
 20
3737.250569887546
 30
0.0
  0
POINT
  5
DB4E
330
C840
100
AcDbEntity
  8
DEFPOINTS
 62
     0
 48
25.0
100
AcDbPoint
 10
2105.124842940757
 20
3587.250569887546
 30
0.0
  0
POINT
  5
DB4F
330
C840
100
AcDbEntity
  8
DEFPOINTS
 62
     0
 48
25.0
100
AcDbPoint
 10
1970.129864571674
 20
3587.250569887546
 30
0.0
  0
ENDBLK
  5
C84B
330
C840
100
AcDbEntity
  8
0
 48
25.0
100
AcDbBlockEnd
  0
BLOCK
  5
C87B
330
C86F
100
AcDbEntity
  8
0
 48
25.0
100
AcDbBlockBegin
  2
*D27
 70
     1
 10
0.0
 20
0.0
 30
0.0
  3
*D27
  1

  0
LINE
  5
DB50
330
C86F
100
AcDbEntity
  8
寸法引出
 48
25.0
370
    -2
100
AcDbLine
 10
2105.124842940761
 20
2117.250569887544
 30
0.0
 11
2105.124842940761
 21
1955.556525916932
 31
0.0
  0
LINE
  5
DB51
330
C86F
100
AcDbEntity
  8
寸法引出
 48
25.0
370
    -2
100
AcDbLine
 10
2230.124842940764
 20
2087.250569887544
 30
0.0
 11
2230.124842940764
 21
1955.556525916932
 31
0.0
  0
LINE
  5
DB52
330
C86F
100
AcDbEntity
  8
寸法引出
 48
25.0
370
    -2
100
AcDbLine
 10
2067.624842940761
 20
1968.056525916932
 30
0.0
 11
2030.124842940761
 21
1968.056525916932
 31
0.0
  0
LINE
  5
DB53
330
C86F
100
AcDbEntity
  8
寸法引出
 48
25.0
370
    -2
100
AcDbLine
 10
2267.624842940764
 20
1968.056525916932
 30
0.0
 11
2305.124842940764
 21
1968.056525916932
 31
0.0
  0
LINE
  5
DB54
330
C86F
100
AcDbEntity
  8
寸法引出
 48
25.0
370
    -2
100
AcDbLine
 10
2105.124842940761
 20
1968.056525916932
 30
0.0
 11
2230.124842940764
 21
1968.056525916932
 31
0.0
  0
SOLID
  5
DB55
330
C86F
100
AcDbEntity
  8
寸法引出
 48
25.0
100
AcDbTrace
 10
2067.624842940761
 20
1974.306525916931
 30
0.0
 11
2067.624842940761
 21
1961.806525916932
 31
0.0
 12
2105.124842940761
 22
1968.056525916932
 32
0.0
 13
2105.124842940761
 23
1968.056525916932
 33
0.0
  0
SOLID
  5
DB56
330
C86F
100
AcDbEntity
  8
寸法引出
 48
25.0
100
AcDbTrace
 10
2267.624842940764
 20
1974.306525916931
 30
0.0
 11
2267.624842940764
 21
1961.806525916932
 31
0.0
 12
2230.124842940764
 22
1968.056525916932
 32
0.0
 13
2230.124842940764
 23
1968.056525916932
 33
0.0
  0
MTEXT
  5
DB57
330
C86F
100
AcDbEntity
  8
寸法引出
 48
25.0
100
AcDbMText
 10
2167.624842940762
 20
2018.056525916932
 30
0.0
 40
50.0
 41
0.0
 71
     5
 72
     1
  1
\A1;125
  7
SANWA
 73
     1
 44
1.0
1001
ACAD
1000
MTEXTBEGIN
1070
    73
1070
     1
1070
    44
1040
1.0
1070
    74
1070
     0
1000
MTEXTEND
  0
POINT
  5
DB58
330
C86F
100
AcDbEntity
  8
DEFPOINTS
 62
     0
 48
25.0
100
AcDbPoint
 10
2105.124842940761
 20
2142.250569887544
 30
0.0
  0
POINT
  5
DB59
330
C86F
100
AcDbEntity
  8
DEFPOINTS
 62
     0
 48
25.0
100
AcDbPoint
 10
2230.124842940764
 20
2112.250569887544
 30
0.0
  0
POINT
  5
DB5A
330
C86F
100
AcDbEntity
  8
DEFPOINTS
 62
     0
 48
25.0
100
AcDbPoint
 10
2230.124842940764
 20
1968.056525916932
 30
0.0
  0
ENDBLK
  5
C87C
330
C86F
100
AcDbEntity
  8
0
 48
25.0
100
AcDbBlockEnd
  0
BLOCK
  5
C888
330
C87E
100
AcDbEntity
  8
0
 48
25.0
100
AcDbBlockBegin
  2
*D28
 70
     1
 10
0.0
 20
0.0
 30
0.0
  3
*D28
  1

  0
LINE
  5
DB5B
330
C87E
100
AcDbEntity
  8
寸法引出
 48
25.0
370
    -2
100
AcDbLine
 10
2230.124842940764
 20
2087.250569887544
 30
0.0
 11
2230.124842940764
 21
1955.556525916932
 31
0.0
  0
LINE
  5
DB5C
330
C87E
100
AcDbEntity
  8
寸法引出
 48
25.0
370
    -2
100
AcDbLine
 10
2380.124842940735
 20
2087.250569887544
 30
0.0
 11
2380.124842940735
 21
1955.556525916932
 31
0.0
  0
LINE
  5
DB5D
330
C87E
100
AcDbEntity
  8
寸法引出
 48
25.0
370
    -2
100
AcDbLine
 10
2267.624842940764
 20
1968.056525916932
 30
0.0
 11
2342.624842940735
 21
1968.056525916932
 31
0.0
  0
SOLID
  5
DB5E
330
C87E
100
AcDbEntity
  8
寸法引出
 48
25.0
100
AcDbTrace
 10
2267.624842940764
 20
1974.306525916931
 30
0.0
 11
2267.624842940764
 21
1961.806525916932
 31
0.0
 12
2230.124842940764
 22
1968.056525916932
 32
0.0
 13
2230.124842940764
 23
1968.056525916932
 33
0.0
  0
SOLID
  5
DB5F
330
C87E
100
AcDbEntity
  8
寸法引出
 48
25.0
100
AcDbTrace
 10
2342.624842940735
 20
1974.306525916931
 30
0.0
 11
2342.624842940735
 21
1961.806525916932
 31
0.0
 12
2380.124842940735
 22
1968.056525916932
 32
0.0
 13
2380.124842940735
 23
1968.056525916932
 33
0.0
  0
MTEXT
  5
DB60
330
C87E
100
AcDbEntity
  8
寸法引出
 48
25.0
100
AcDbMText
 10
2305.12484294075
 20
2018.056525916932
 30
0.0
 40
50.0
 41
0.0
 71
     5
 72
     1
  1
\A1;150
  7
SANWA
 73
     1
 44
1.0
1001
ACAD
1000
MTEXTBEGIN
1070
    73
1070
     1
1070
    44
1040
1.0
1070
    74
1070
     0
1000
MTEXTEND
  0
POINT
  5
DB61
330
C87E
100
AcDbEntity
  8
DEFPOINTS
 62
     0
 48
25.0
100
AcDbPoint
 10
2230.124842940764
 20
2112.250569887544
 30
0.0
  0
POINT
  5
DB62
330
C87E
100
AcDbEntity
  8
DEFPOINTS
 62
     0
 48
25.0
100
AcDbPoint
 10
2380.124842940735
 20
2112.250569887544
 30
0.0
  0
POINT
  5
DB63
330
C87E
100
AcDbEntity
  8
DEFPOINTS
 62
     0
 48
25.0
100
AcDbPoint
 10
2380.124842940735
 20
1968.056525916932
 30
0.0
  0
ENDBLK
  5
C889
330
C87E
100
AcDbEntity
  8
0
 48
25.0
100
AcDbBlockEnd
  0
BLOCK
  5
C897
330
C88B
100
AcDbEntity
  8
0
 48
25.0
100
AcDbBlockBegin
  2
*D29
 70
     1
 10
0.0
 20
0.0
 30
0.0
  3
*D29
  1

  0
LINE
  5
DB64
330
C88B
100
AcDbEntity
  8
寸法引出
 48
25.0
370
    -2
100
AcDbLine
 10
2380.124842940735
 20
2087.250569887544
 30
0.0
 11
2380.124842940735
 21
1955.556525916932
 31
0.0
  0
LINE
  5
DB65
330
C88B
100
AcDbEntity
  8
寸法引出
 48
25.0
370
    -2
100
AcDbLine
 10
2505.124842940753
 20
2117.250569887544
 30
0.0
 11
2505.124842940753
 21
1955.556525916932
 31
0.0
  0
LINE
  5
DB66
330
C88B
100
AcDbEntity
  8
寸法引出
 48
25.0
370
    -2
100
AcDbLine
 10
2342.624842940735
 20
1968.056525916932
 30
0.0
 11
2305.124842940735
 21
1968.056525916932
 31
0.0
  0
LINE
  5
DB67
330
C88B
100
AcDbEntity
  8
寸法引出
 48
25.0
370
    -2
100
AcDbLine
 10
2542.624842940754
 20
1968.056525916932
 30
0.0
 11
2580.124842940753
 21
1968.056525916932
 31
0.0
  0
LINE
  5
DB68
330
C88B
100
AcDbEntity
  8
寸法引出
 48
25.0
370
    -2
100
AcDbLine
 10
2380.124842940735
 20
1968.056525916932
 30
0.0
 11
2505.124842940753
 21
1968.056525916932
 31
0.0
  0
SOLID
  5
DB69
330
C88B
100
AcDbEntity
  8
寸法引出
 48
25.0
100
AcDbTrace
 10
2342.624842940735
 20
1974.306525916931
 30
0.0
 11
2342.624842940735
 21
1961.806525916932
 31
0.0
 12
2380.124842940735
 22
1968.056525916932
 32
0.0
 13
2380.124842940735
 23
1968.056525916932
 33
0.0
  0
SOLID
  5
DB6A
330
C88B
100
AcDbEntity
  8
寸法引出
 48
25.0
100
AcDbTrace
 10
2542.624842940754
 20
1974.306525916931
 30
0.0
 11
2542.624842940754
 21
1961.806525916932
 31
0.0
 12
2505.124842940753
 22
1968.056525916932
 32
0.0
 13
2505.124842940753
 23
1968.056525916932
 33
0.0
  0
MTEXT
  5
DB6B
330
C88B
100
AcDbEntity
  8
寸法引出
 48
25.0
100
AcDbMText
 10
2442.624842940745
 20
2018.056525916932
 30
0.0
 40
50.0
 41
0.0
 71
     5
 72
     1
  1
\A1;125
  7
SANWA
 73
     1
 44
1.0
1001
ACAD
1000
MTEXTBEGIN
1070
    73
1070
     1
1070
    44
1040
1.0
1070
    74
1070
     0
1000
MTEXTEND
  0
POINT
  5
DB6C
330
C88B
100
AcDbEntity
  8
DEFPOINTS
 62
     0
 48
25.0
100
AcDbPoint
 10
2380.124842940735
 20
2112.250569887544
 30
0.0
  0
POINT
  5
DB6D
330
C88B
100
AcDbEntity
  8
DEFPOINTS
 62
     0
 48
25.0
100
AcDbPoint
 10
2505.124842940753
 20
2142.250569887544
 30
0.0
  0
POINT
  5
DB6E
330
C88B
100
AcDbEntity
  8
DEFPOINTS
 62
     0
 48
25.0
100
AcDbPoint
 10
2505.124842940753
 20
1968.056525916932
 30
0.0
  0
ENDBLK
  5
C898
330
C88B
100
AcDbEntity
  8
0
 48
25.0
100
AcDbBlockEnd
  0
BLOCK
  5
CA33
330
CA27
100
AcDbEntity
  8
0
 48
25.0
100
AcDbBlockBegin
  2
*D30
 70
     1
 10
0.0
 20
0.0
 30
0.0
  3
*D30
  1

  0
LINE
  5
DB6F
330
CA27
100
AcDbEntity
  8
寸法引出
 48
25.0
370
    -2
100
AcDbLine
 10
3069.026838898571
 20
1114.498750889092
 30
0.0
 11
3069.026838898571
 21
888.2675487753813
 31
0.0
  0
LINE
  5
DB70
330
CA27
100
AcDbEntity
  8
寸法引出
 48
25.0
370
    -2
100
AcDbLine
 10
3149.026838898572
 20
1114.498750889092
 30
0.0
 11
3149.026838898572
 21
888.2675487753813
 31
0.0
  0
LINE
  5
DB71
330
CA27
100
AcDbEntity
  8
寸法引出
 48
25.0
370
    -2
100
AcDbLine
 10
3031.526838898571
 20
900.7675487753813
 30
0.0
 11
2994.026838898572
 21
900.7675487753813
 31
0.0
  0
LINE
  5
DB72
330
CA27
100
AcDbEntity
  8
寸法引出
 48
25.0
370
    -2
100
AcDbLine
 10
3186.526838898572
 20
900.7675487753813
 30
0.0
 11
3224.026838898571
 21
900.7675487753813
 31
0.0
  0
LINE
  5
DB73
330
CA27
100
AcDbEntity
  8
寸法引出
 48
25.0
370
    -2
100
AcDbLine
 10
3069.026838898571
 20
900.7675487753813
 30
0.0
 11
3149.026838898572
 21
900.7675487753813
 31
0.0
  0
SOLID
  5
DB74
330
CA27
100
AcDbEntity
  8
寸法引出
 48
25.0
100
AcDbTrace
 10
3031.526838898571
 20
907.0175487753813
 30
0.0
 11
3031.526838898571
 21
894.5175487753813
 31
0.0
 12
3069.026838898571
 22
900.7675487753813
 32
0.0
 13
3069.026838898571
 23
900.7675487753813
 33
0.0
  0
SOLID
  5
DB75
330
CA27
100
AcDbEntity
  8
寸法引出
 48
25.0
100
AcDbTrace
 10
3186.526838898572
 20
907.0175487753813
 30
0.0
 11
3186.526838898572
 21
894.5175487753813
 31
0.0
 12
3149.026838898572
 22
900.7675487753813
 32
0.0
 13
3149.026838898572
 23
900.7675487753813
 33
0.0
  0
MTEXT
  5
DB76
330
CA27
100
AcDbEntity
  8
寸法引出
 48
25.0
100
AcDbMText
 10
3109.026838898572
 20
950.7675487753813
 30
0.0
 40
50.0
 41
0.0
 71
     5
 72
     1
  1
\A1;8
  7
SANWA
 73
     1
 44
1.0
1001
ACAD
1000
MTEXTBEGIN
1070
    73
1070
     1
1070
    44
1040
1.0
1070
    74
1070
     0
1000
MTEXTEND
  0
POINT
  5
DB77
330
CA27
100
AcDbEntity
  8
DEFPOINTS
 62
     0
 48
25.0
100
AcDbPoint
 10
3069.026838898571
 20
1139.498750889092
 30
0.0
  0
POINT
  5
DB78
330
CA27
100
AcDbEntity
  8
DEFPOINTS
 62
     0
 48
25.0
100
AcDbPoint
 10
3149.026838898572
 20
1139.498750889092
 30
0.0
  0
POINT
  5
DB79
330
CA27
100
AcDbEntity
  8
DEFPOINTS
 62
     0
 48
25.0
100
AcDbPoint
 10
3149.026838898572
 20
900.7675487753813
 30
0.0
  0
ENDBLK
  5
CA34
330
CA27
100
AcDbEntity
  8
0
 48
25.0
100
AcDbBlockEnd
  0
BLOCK
  5
CA72
330
CA66
100
AcDbEntity
  8
0
 48
25.0
100
AcDbBlockBegin
  2
*D31
 70
     1
 10
0.0
 20
0.0
 30
0.0
  3
*D31
  1

  0
LINE
  5
DB7A
330
CA66
100
AcDbEntity
  8
寸法引出
 48
25.0
370
    -2
100
AcDbLine
 10
3049.026838898571
 20
1054.498750889092
 30
0.0
 11
3049.026838898571
 21
760.7349729018251
 31
0.0
  0
LINE
  5
DB7B
330
CA66
100
AcDbEntity
  8
寸法引出
 48
25.0
370
    -2
100
AcDbLine
 10
3169.026838898572
 20
1054.498750889092
 30
0.0
 11
3169.026838898572
 21
760.7349729018251
 31
0.0
  0
LINE
  5
DB7C
330
CA66
100
AcDbEntity
  8
寸法引出
 48
25.0
370
    -2
100
AcDbLine
 10
3011.526838898572
 20
773.2349729018251
 30
0.0
 11
2974.026838898572
 21
773.2349729018251
 31
0.0
  0
LINE
  5
DB7D
330
CA66
100
AcDbEntity
  8
寸法引出
 48
25.0
370
    -2
100
AcDbLine
 10
3206.526838898572
 20
773.2349729018251
 30
0.0
 11
3244.026838898572
 21
773.2349729018251
 31
0.0
  0
LINE
  5
DB7E
330
CA66
100
AcDbEntity
  8
寸法引出
 48
25.0
370
    -2
100
AcDbLine
 10
3049.026838898571
 20
773.2349729018251
 30
0.0
 11
3169.026838898572
 21
773.2349729018251
 31
0.0
  0
SOLID
  5
DB7F
330
CA66
100
AcDbEntity
  8
寸法引出
 48
25.0
100
AcDbTrace
 10
3011.526838898572
 20
779.4849729018251
 30
0.0
 11
3011.526838898572
 21
766.9849729018251
 31
0.0
 12
3049.026838898571
 22
773.2349729018251
 32
0.0
 13
3049.026838898571
 23
773.2349729018251
 33
0.0
  0
SOLID
  5
DB80
330
CA66
100
AcDbEntity
  8
寸法引出
 48
25.0
100
AcDbTrace
 10
3206.526838898572
 20
779.4849729018251
 30
0.0
 11
3206.526838898572
 21
766.9849729018251
 31
0.0
 12
3169.026838898572
 22
773.2349729018251
 32
0.0
 13
3169.026838898572
 23
773.2349729018251
 33
0.0
  0
MTEXT
  5
DB81
330
CA66
100
AcDbEntity
  8
寸法引出
 48
25.0
100
AcDbMText
 10
3109.026838898572
 20
823.2349729018251
 30
0.0
 40
50.0
 41
0.0
 71
     5
 72
     1
  1
\A1;12
  7
SANWA
 73
     1
 44
1.0
1001
ACAD
1000
MTEXTBEGIN
1070
    73
1070
     1
1070
    44
1040
1.0
1070
    74
1070
     0
1000
MTEXTEND
  0
POINT
  5
DB82
330
CA66
100
AcDbEntity
  8
DEFPOINTS
 62
     0
 48
25.0
100
AcDbPoint
 10
3049.026838898571
 20
1079.498750889092
 30
0.0
  0
POINT
  5
DB83
330
CA66
100
AcDbEntity
  8
DEFPOINTS
 62
     0
 48
25.0
100
AcDbPoint
 10
3169.026838898572
 20
1079.498750889092
 30
0.0
  0
POINT
  5
DB84
330
CA66
100
AcDbEntity
  8
DEFPOINTS
 62
     0
 48
25.0
100
AcDbPoint
 10
3169.026838898572
 20
773.2349729018251
 30
0.0
  0
ENDBLK
  5
CA73
330
CA66
100
AcDbEntity
  8
0
 48
25.0
100
AcDbBlockEnd
  0
BLOCK
  5
CA7F
330
CA75
100
AcDbEntity
  8
0
 48
25.0
100
AcDbBlockBegin
  2
*D32
 70
     1
 10
0.0
 20
0.0
 30
0.0
  3
*D32
  1

  0
LINE
  5
DB85
330
CA75
100
AcDbEntity
  8
寸法引出
 48
25.0
370
    -2
100
AcDbLine
 10
3169.026838898572
 20
1054.498750889092
 30
0.0
 11
3169.026838898572
 21
760.7349729018251
 31
0.0
  0
LINE
  5
DB86
330
CA75
100
AcDbEntity
  8
寸法引出
 48
25.0
370
    -2
100
AcDbLine
 10
3359.026838898572
 20
1054.498750889092
 30
0.0
 11
3359.026838898572
 21
760.7349729018251
 31
0.0
  0
LINE
  5
DB87
330
CA75
100
AcDbEntity
  8
寸法引出
 48
25.0
370
    -2
100
AcDbLine
 10
3206.526838898572
 20
773.2349729018251
 30
0.0
 11
3321.526838898571
 21
773.2349729018251
 31
0.0
  0
SOLID
  5
DB88
330
CA75
100
AcDbEntity
  8
寸法引出
 48
25.0
100
AcDbTrace
 10
3206.526838898572
 20
779.4849729018251
 30
0.0
 11
3206.526838898572
 21
766.9849729018251
 31
0.0
 12
3169.026838898572
 22
773.2349729018251
 32
0.0
 13
3169.026838898572
 23
773.2349729018251
 33
0.0
  0
SOLID
  5
DB89
330
CA75
100
AcDbEntity
  8
寸法引出
 48
25.0
100
AcDbTrace
 10
3321.526838898571
 20
779.4849729018251
 30
0.0
 11
3321.526838898571
 21
766.9849729018251
 31
0.0
 12
3359.026838898572
 22
773.2349729018251
 32
0.0
 13
3359.026838898572
 23
773.2349729018251
 33
0.0
  0
MTEXT
  5
DB8A
330
CA75
100
AcDbEntity
  8
寸法引出
 48
25.0
100
AcDbMText
 10
3264.026838898572
 20
823.2349729018251
 30
0.0
 40
50.0
 41
0.0
 71
     5
 72
     1
  1
\A1;19
  7
SANWA
 73
     1
 44
1.0
1001
ACAD
1000
MTEXTBEGIN
1070
    73
1070
     1
1070
    44
1040
1.0
1070
    74
1070
     0
1000
MTEXTEND
  0
POINT
  5
DB8B
330
CA75
100
AcDbEntity
  8
DEFPOINTS
 62
     0
 48
25.0
100
AcDbPoint
 10
3169.026838898572
 20
1079.498750889092
 30
0.0
  0
POINT
  5
DB8C
330
CA75
100
AcDbEntity
  8
DEFPOINTS
 62
     0
 48
25.0
100
AcDbPoint
 10
3359.026838898572
 20
1079.498750889092
 30
0.0
  0
POINT
  5
DB8D
330
CA75
100
AcDbEntity
  8
DEFPOINTS
 62
     0
 48
25.0
100
AcDbPoint
 10
3359.026838898572
 20
773.2349729018251
 30
0.0
  0
ENDBLK
  5
CA80
330
CA75
100
AcDbEntity
  8
0
 48
25.0
100
AcDbBlockEnd
  0
BLOCK
  5
CA8C
330
CA82
100
AcDbEntity
  8
0
 48
25.0
100
AcDbBlockBegin
  2
*D33
 70
     1
 10
0.0
 20
0.0
 30
0.0
  3
*D33
  1

  0
LINE
  5
DB8E
330
CA82
100
AcDbEntity
  8
寸法引出
 48
25.0
370
    -2
100
AcDbLine
 10
3049.026838898571
 20
1054.498750889092
 30
0.0
 11
3049.026838898571
 21
760.7349729018251
 31
0.0
  0
LINE
  5
DB8F
330
CA82
100
AcDbEntity
  8
寸法引出
 48
25.0
370
    -2
100
AcDbLine
 10
2859.026838898572
 20
1054.498750889092
 30
0.0
 11
2859.026838898572
 21
760.7349729018251
 31
0.0
  0
LINE
  5
DB90
330
CA82
100
AcDbEntity
  8
寸法引出
 48
25.0
370
    -2
100
AcDbLine
 10
3011.526838898572
 20
773.2349729018251
 30
0.0
 11
2896.526838898572
 21
773.2349729018251
 31
0.0
  0
SOLID
  5
DB91
330
CA82
100
AcDbEntity
  8
寸法引出
 48
25.0
100
AcDbTrace
 10
3011.526838898572
 20
779.4849729018251
 30
0.0
 11
3011.526838898572
 21
766.9849729018251
 31
0.0
 12
3049.026838898571
 22
773.2349729018251
 32
0.0
 13
3049.026838898571
 23
773.2349729018251
 33
0.0
  0
SOLID
  5
DB92
330
CA82
100
AcDbEntity
  8
寸法引出
 48
25.0
100
AcDbTrace
 10
2896.526838898572
 20
779.4849729018251
 30
0.0
 11
2896.526838898572
 21
766.9849729018251
 31
0.0
 12
2859.026838898572
 22
773.2349729018251
 32
0.0
 13
2859.026838898572
 23
773.2349729018251
 33
0.0
  0
MTEXT
  5
DB93
330
CA82
100
AcDbEntity
  8
寸法引出
 48
25.0
100
AcDbMText
 10
2954.026838898572
 20
823.2349729018251
 30
0.0
 40
50.0
 41
0.0
 71
     5
 72
     1
  1
\A1;19
  7
SANWA
 73
     1
 44
1.0
1001
ACAD
1000
MTEXTBEGIN
1070
    73
1070
     1
1070
    44
1040
1.0
1070
    74
1070
     0
1000
MTEXTEND
  0
POINT
  5
DB94
330
CA82
100
AcDbEntity
  8
DEFPOINTS
 62
     0
 48
25.0
100
AcDbPoint
 10
3049.026838898571
 20
1079.498750889092
 30
0.0
  0
POINT
  5
DB95
330
CA82
100
AcDbEntity
  8
DEFPOINTS
 62
     0
 48
25.0
100
AcDbPoint
 10
2859.026838898572
 20
1079.498750889092
 30
0.0
  0
POINT
  5
DB96
330
CA82
100
AcDbEntity
  8
DEFPOINTS
 62
     0
 48
25.0
100
AcDbPoint
 10
2859.026838898572
 20
773.2349729018251
 30
0.0
  0
ENDBLK
  5
CA8D
330
CA82
100
AcDbEntity
  8
0
 48
25.0
100
AcDbBlockEnd
  0
BLOCK
  5
CB06
330
CAFA
100
AcDbEntity
  8
0
 48
25.0
100
AcDbBlockBegin
  2
*D34
 70
     1
 10
0.0
 20
0.0
 30
0.0
  3
*D34
  1

  0
LINE
  5
DB97
330
CAFA
100
AcDbEntity
  8
寸法引出
 48
25.0
370
    -2
100
AcDbLine
 10
3024.026838898572
 20
1079.498750889092
 30
0.0
 11
2965.0315943725
 21
1079.498750889092
 31
0.0
  0
LINE
  5
DB98
330
CAFA
100
AcDbEntity
  8
寸法引出
 48
25.0
370
    -2
100
AcDbLine
 10
3044.026838898572
 20
1139.498750889092
 30
0.0
 11
2965.0315943725
 21
1139.498750889092
 31
0.0
  0
LINE
  5
DB99
330
CAFA
100
AcDbEntity
  8
寸法引出
 48
25.0
370
    -2
100
AcDbLine
 10
2977.5315943725
 20
1041.998750889092
 30
0.0
 11
2977.5315943725
 21
1004.498750889093
 31
0.0
  0
LINE
  5
DB9A
330
CAFA
100
AcDbEntity
  8
寸法引出
 48
25.0
370
    -2
100
AcDbLine
 10
2977.5315943725
 20
1176.998750889092
 30
0.0
 11
2977.5315943725
 21
1214.498750889092
 31
0.0
  0
LINE
  5
DB9B
330
CAFA
100
AcDbEntity
  8
寸法引出
 48
25.0
370
    -2
100
AcDbLine
 10
2977.5315943725
 20
1079.498750889092
 30
0.0
 11
2977.5315943725
 21
1139.498750889092
 31
0.0
  0
SOLID
  5
DB9C
330
CAFA
100
AcDbEntity
  8
寸法引出
 48
25.0
100
AcDbTrace
 10
2971.2815943725
 20
1041.998750889092
 30
0.0
 11
2983.7815943725
 21
1041.998750889092
 31
0.0
 12
2977.5315943725
 22
1079.498750889092
 32
0.0
 13
2977.5315943725
 23
1079.498750889092
 33
0.0
  0
SOLID
  5
DB9D
330
CAFA
100
AcDbEntity
  8
寸法引出
 48
25.0
100
AcDbTrace
 10
2971.2815943725
 20
1176.998750889092
 30
0.0
 11
2983.7815943725
 21
1176.998750889092
 31
0.0
 12
2977.5315943725
 22
1139.498750889092
 32
0.0
 13
2977.5315943725
 23
1139.498750889092
 33
0.0
  0
MTEXT
  5
DB9E
330
CAFA
100
AcDbEntity
  8
寸法引出
 48
25.0
100
AcDbMText
 10
2927.5315943725
 20
1109.498750889093
 30
0.0
 40
50.0
 41
0.0
 71
     5
 72
     1
  1
\A1;6
  7
SANWA
 11
0.0000000000000001
 21
1.0
 31
0.0
 73
     1
 44
1.0
1001
ACAD
1000
MTEXTBEGIN
1070
    73
1070
     1
1070
    44
1040
1.0
1070
    74
1070
     0
1000
MTEXTEND
  0
POINT
  5
DB9F
330
CAFA
100
AcDbEntity
  8
DEFPOINTS
 62
     0
 48
25.0
100
AcDbPoint
 10
3049.026838898571
 20
1079.498750889092
 30
0.0
  0
POINT
  5
DBA0
330
CAFA
100
AcDbEntity
  8
DEFPOINTS
 62
     0
 48
25.0
100
AcDbPoint
 10
3069.026838898571
 20
1139.498750889092
 30
0.0
  0
POINT
  5
DBA1
330
CAFA
100
AcDbEntity
  8
DEFPOINTS
 62
     0
 48
25.0
100
AcDbPoint
 10
2977.5315943725
 20
1139.498750889092
 30
0.0
  0
ENDBLK
  5
CB07
330
CAFA
100
AcDbEntity
  8
0
 48
25.0
100
AcDbBlockEnd
  0
BLOCK
  5
D17E
330
D174
100
AcDbEntity
  8
0
 48
25.0
100
AcDbBlockBegin
  2
*D35
 70
     1
 10
0.0
 20
0.0
 30
0.0
  3
*D35
  1

  0
LINE
  5
D80C
330
D174
100
AcDbEntity
  8
寸法引出
 48
25.0
370
    -2
100
AcDbLine
 10
4801.10039772563
 20
3762.25056989079
 30
0.0
 11
4801.10039772563
 21
3852.585738515504
 31
0.0
  0
LINE
  5
D80D
330
D174
100
AcDbEntity
  8
寸法引出
 48
25.0
370
    -2
100
AcDbLine
 10
4976.100397725628
 20
3762.25056989079
 30
0.0
 11
4976.100397725628
 21
3852.585738515504
 31
0.0
  0
LINE
  5
D80E
330
D174
100
AcDbEntity
  8
寸法引出
 48
25.0
370
    -2
100
AcDbLine
 10
4838.600397725629
 20
3840.085738515504
 30
0.0
 11
4938.600397725628
 21
3840.085738515504
 31
0.0
  0
SOLID
  5
D80F
330
D174
100
AcDbEntity
  8
寸法引出
 48
25.0
100
AcDbTrace
 10
4838.600397725629
 20
3846.335738515504
 30
0.0
 11
4838.600397725629
 21
3833.835738515503
 31
0.0
 12
4801.10039772563
 22
3840.085738515504
 32
0.0
 13
4801.10039772563
 23
3840.085738515504
 33
0.0
  0
SOLID
  5
D810
330
D174
100
AcDbEntity
  8
寸法引出
 48
25.0
100
AcDbTrace
 10
4938.600397725628
 20
3846.335738515504
 30
0.0
 11
4938.600397725628
 21
3833.835738515503
 31
0.0
 12
4976.100397725628
 22
3840.085738515504
 32
0.0
 13
4976.100397725628
 23
3840.085738515504
 33
0.0
  0
MTEXT
  5
D811
330
D174
100
AcDbEntity
  8
寸法引出
 48
25.0
100
AcDbMText
 10
4888.600397725628
 20
3890.085738515504
 30
0.0
 40
50.0
 41
0.0
 71
     5
 72
     1
  1
\A1;175
  7
SANWA
 73
     1
 44
1.0
1001
ACAD
1000
MTEXTBEGIN
1070
    73
1070
     1
1070
    44
1040
1.0
1070
    74
1070
     0
1000
MTEXTEND
  0
POINT
  5
D812
330
D174
100
AcDbEntity
  8
DEFPOINTS
 62
     0
 48
25.0
100
AcDbPoint
 10
4801.10039772563
 20
3737.25056989079
 30
0.0
  0
POINT
  5
D813
330
D174
100
AcDbEntity
  8
DEFPOINTS
 62
     0
 48
25.0
100
AcDbPoint
 10
4976.100397725628
 20
3737.25056989079
 30
0.0
  0
POINT
  5
D814
330
D174
100
AcDbEntity
  8
DEFPOINTS
 62
     0
 48
25.0
100
AcDbPoint
 10
4976.100397725628
 20
3840.085738515504
 30
0.0
  0
ENDBLK
  5
D17F
330
D174
100
AcDbEntity
  8
0
 48
25.0
100
AcDbBlockEnd
  0
BLOCK
  5
D18D
330
D181
100
AcDbEntity
  8
0
 48
25.0
100
AcDbBlockBegin
  2
*D36
 70
     1
 10
0.0
 20
0.0
 30
0.0
  3
*D36
  1

  0
LINE
  5
D801
330
D181
100
AcDbEntity
  8
寸法引出
 48
25.0
370
    -2
100
AcDbLine
 10
4976.100397725628
 20
3762.25056989079
 30
0.0
 11
4976.100397725628
 21
3852.585738515504
 31
0.0
  0
LINE
  5
D802
330
D181
100
AcDbEntity
  8
寸法引出
 48
25.0
370
    -2
100
AcDbLine
 10
5026.100397725627
 20
3762.25056989079
 30
0.0
 11
5026.100397725627
 21
3852.585738515504
 31
0.0
  0
LINE
  5
D803
330
D181
100
AcDbEntity
  8
寸法引出
 48
25.0
370
    -2
100
AcDbLine
 10
4938.600397725628
 20
3840.085738515504
 30
0.0
 11
4901.100397725627
 21
3840.085738515504
 31
0.0
  0
LINE
  5
D804
330
D181
100
AcDbEntity
  8
寸法引出
 48
25.0
370
    -2
100
AcDbLine
 10
5063.600397725628
 20
3840.085738515504
 30
0.0
 11
5101.100397725628
 21
3840.085738515504
 31
0.0
  0
LINE
  5
D805
330
D181
100
AcDbEntity
  8
寸法引出
 48
25.0
370
    -2
100
AcDbLine
 10
4976.100397725628
 20
3840.085738515504
 30
0.0
 11
5026.100397725627
 21
3840.085738515504
 31
0.0
  0
SOLID
  5
D806
330
D181
100
AcDbEntity
  8
寸法引出
 48
25.0
100
AcDbTrace
 10
4938.600397725628
 20
3846.335738515504
 30
0.0
 11
4938.600397725628
 21
3833.835738515503
 31
0.0
 12
4976.100397725628
 22
3840.085738515504
 32
0.0
 13
4976.100397725628
 23
3840.085738515504
 33
0.0
  0
SOLID
  5
D807
330
D181
100
AcDbEntity
  8
寸法引出
 48
25.0
100
AcDbTrace
 10
5063.600397725628
 20
3846.335738515504
 30
0.0
 11
5063.600397725628
 21
3833.835738515503
 31
0.0
 12
5026.100397725627
 22
3840.085738515504
 32
0.0
 13
5026.100397725627
 23
3840.085738515504
 33
0.0
  0
MTEXT
  5
D808
330
D181
100
AcDbEntity
  8
寸法引出
 48
25.0
100
AcDbMText
 10
5001.100397725628
 20
3890.085738515504
 30
0.0
 40
50.0
 41
0.0
 71
     5
 72
     1
  1
\A1;50
  7
SANWA
 73
     1
 44
1.0
1001
ACAD
1000
MTEXTBEGIN
1070
    73
1070
     1
1070
    44
1040
1.0
1070
    74
1070
     0
1000
MTEXTEND
  0
POINT
  5
D809
330
D181
100
AcDbEntity
  8
DEFPOINTS
 62
     0
 48
25.0
100
AcDbPoint
 10
4976.100397725628
 20
3737.25056989079
 30
0.0
  0
POINT
  5
D80A
330
D181
100
AcDbEntity
  8
DEFPOINTS
 62
     0
 48
25.0
100
AcDbPoint
 10
5026.100397725627
 20
3737.25056989079
 30
0.0
  0
POINT
  5
D80B
330
D181
100
AcDbEntity
  8
DEFPOINTS
 62
     0
 48
25.0
100
AcDbPoint
 10
5026.100397725627
 20
3840.085738515504
 30
0.0
  0
ENDBLK
  5
D18E
330
D181
100
AcDbEntity
  8
0
 48
25.0
100
AcDbBlockEnd
  0
BLOCK
  5
D19A
330
D190
100
AcDbEntity
  8
0
 48
25.0
100
AcDbBlockBegin
  2
*D37
 70
     1
 10
0.0
 20
0.0
 30
0.0
  3
*D37
  1

  0
LINE
  5
D815
330
D190
100
AcDbEntity
  8
寸法引出
 48
25.0
370
    -2
100
AcDbLine
 10
5026.100397725627
 20
3762.25056989079
 30
0.0
 11
5026.100397725627
 21
3852.585738515504
 31
0.0
  0
LINE
  5
D816
330
D190
100
AcDbEntity
  8
寸法引出
 48
25.0
370
    -2
100
AcDbLine
 10
6576.100397725628
 20
3762.25056989079
 30
0.0
 11
6576.100397725628
 21
3852.585738515504
 31
0.0
  0
LINE
  5
D817
330
D190
100
AcDbEntity
  8
寸法引出
 48
25.0
370
    -2
100
AcDbLine
 10
5063.600397725628
 20
3840.085738515504
 30
0.0
 11
6538.600397725628
 21
3840.085738515504
 31
0.0
  0
SOLID
  5
D818
330
D190
100
AcDbEntity
  8
寸法引出
 48
25.0
100
AcDbTrace
 10
5063.600397725628
 20
3846.335738515504
 30
0.0
 11
5063.600397725628
 21
3833.835738515503
 31
0.0
 12
5026.100397725627
 22
3840.085738515504
 32
0.0
 13
5026.100397725627
 23
3840.085738515504
 33
0.0
  0
SOLID
  5
D819
330
D190
100
AcDbEntity
  8
寸法引出
 48
25.0
100
AcDbTrace
 10
6538.600397725628
 20
3846.335738515504
 30
0.0
 11
6538.600397725628
 21
3833.835738515503
 31
0.0
 12
6576.100397725628
 22
3840.085738515504
 32
0.0
 13
6576.100397725628
 23
3840.085738515504
 33
0.0
  0
MTEXT
  5
D81A
330
D190
100
AcDbEntity
  8
寸法引出
 48
25.0
100
AcDbMText
 10
5801.100397725628
 20
3890.085738515504
 30
0.0
 40
50.0
 41
0.0
 71
     5
 72
     1
  1
\A1;1550
  7
SANWA
 73
     1
 44
1.0
1001
ACAD
1000
MTEXTBEGIN
1070
    73
1070
     1
1070
    44
1040
1.0
1070
    74
1070
     0
1000
MTEXTEND
  0
POINT
  5
D81B
330
D190
100
AcDbEntity
  8
DEFPOINTS
 62
     0
 48
25.0
100
AcDbPoint
 10
5026.100397725627
 20
3737.25056989079
 30
0.0
  0
POINT
  5
D81C
330
D190
100
AcDbEntity
  8
DEFPOINTS
 62
     0
 48
25.0
100
AcDbPoint
 10
6576.100397725628
 20
3737.25056989079
 30
0.0
  0
POINT
  5
D81D
330
D190
100
AcDbEntity
  8
DEFPOINTS
 62
     0
 48
25.0
100
AcDbPoint
 10
6576.100397725628
 20
3840.085738515504
 30
0.0
  0
ENDBLK
  5
D19B
330
D190
100
AcDbEntity
  8
0
 48
25.0
100
AcDbBlockEnd
  0
BLOCK
  5
D1A9
330
D19D
100
AcDbEntity
  8
0
 48
25.0
100
AcDbBlockBegin
  2
*D38
 70
     1
 10
0.0
 20
0.0
 30
0.0
  3
*D38
  1

  0
LINE
  5
D827
330
D19D
100
AcDbEntity
  8
寸法引出
 48
25.0
370
    -2
100
AcDbLine
 10
6576.100397725628
 20
3762.25056989079
 30
0.0
 11
6576.100397725628
 21
3852.585738515504
 31
0.0
  0
LINE
  5
D828
330
D19D
100
AcDbEntity
  8
寸法引出
 48
25.0
370
    -2
100
AcDbLine
 10
6626.100397725628
 20
3762.25056989079
 30
0.0
 11
6626.100397725628
 21
3852.585738515504
 31
0.0
  0
LINE
  5
D829
330
D19D
100
AcDbEntity
  8
寸法引出
 48
25.0
370
    -2
100
AcDbLine
 10
6538.600397725628
 20
3840.085738515504
 30
0.0
 11
6501.100397725628
 21
3840.085738515504
 31
0.0
  0
LINE
  5
D82A
330
D19D
100
AcDbEntity
  8
寸法引出
 48
25.0
370
    -2
100
AcDbLine
 10
6663.600397725628
 20
3840.085738515504
 30
0.0
 11
6701.100397725628
 21
3840.085738515504
 31
0.0
  0
LINE
  5
D82B
330
D19D
100
AcDbEntity
  8
寸法引出
 48
25.0
370
    -2
100
AcDbLine
 10
6576.100397725628
 20
3840.085738515504
 30
0.0
 11
6626.100397725628
 21
3840.085738515504
 31
0.0
  0
SOLID
  5
D82C
330
D19D
100
AcDbEntity
  8
寸法引出
 48
25.0
100
AcDbTrace
 10
6538.600397725628
 20
3846.335738515504
 30
0.0
 11
6538.600397725628
 21
3833.835738515503
 31
0.0
 12
6576.100397725628
 22
3840.085738515504
 32
0.0
 13
6576.100397725628
 23
3840.085738515504
 33
0.0
  0
SOLID
  5
D82D
330
D19D
100
AcDbEntity
  8
寸法引出
 48
25.0
100
AcDbTrace
 10
6663.600397725628
 20
3846.335738515504
 30
0.0
 11
6663.600397725628
 21
3833.835738515503
 31
0.0
 12
6626.100397725628
 22
3840.085738515504
 32
0.0
 13
6626.100397725628
 23
3840.085738515504
 33
0.0
  0
MTEXT
  5
D82E
330
D19D
100
AcDbEntity
  8
寸法引出
 48
25.0
100
AcDbMText
 10
6601.100397725628
 20
3890.085738515504
 30
0.0
 40
50.0
 41
0.0
 71
     5
 72
     1
  1
\A1;50
  7
SANWA
 73
     1
 44
1.0
1001
ACAD
1000
MTEXTBEGIN
1070
    73
1070
     1
1070
    44
1040
1.0
1070
    74
1070
     0
1000
MTEXTEND
  0
POINT
  5
D82F
330
D19D
100
AcDbEntity
  8
DEFPOINTS
 62
     0
 48
25.0
100
AcDbPoint
 10
6576.100397725628
 20
3737.25056989079
 30
0.0
  0
POINT
  5
D830
330
D19D
100
AcDbEntity
  8
DEFPOINTS
 62
     0
 48
25.0
100
AcDbPoint
 10
6626.100397725628
 20
3737.25056989079
 30
0.0
  0
POINT
  5
D831
330
D19D
100
AcDbEntity
  8
DEFPOINTS
 62
     0
 48
25.0
100
AcDbPoint
 10
6626.100397725628
 20
3840.085738515504
 30
0.0
  0
ENDBLK
  5
D1AA
330
D19D
100
AcDbEntity
  8
0
 48
25.0
100
AcDbBlockEnd
  0
BLOCK
  5
D1B6
330
D1AC
100
AcDbEntity
  8
0
 48
25.0
100
AcDbBlockBegin
  2
*D39
 70
     1
 10
0.0
 20
0.0
 30
0.0
  3
*D39
  1

  0
LINE
  5
D81E
330
D1AC
100
AcDbEntity
  8
寸法引出
 48
25.0
370
    -2
100
AcDbLine
 10
6626.100397725628
 20
3762.25056989079
 30
0.0
 11
6626.100397725628
 21
3852.585738515504
 31
0.0
  0
LINE
  5
D81F
330
D1AC
100
AcDbEntity
  8
寸法引出
 48
25.0
370
    -2
100
AcDbLine
 10
6801.10039772563
 20
3762.25056989079
 30
0.0
 11
6801.10039772563
 21
3852.585738515504
 31
0.0
  0
LINE
  5
D820
330
D1AC
100
AcDbEntity
  8
寸法引出
 48
25.0
370
    -2
100
AcDbLine
 10
6663.600397725628
 20
3840.085738515504
 30
0.0
 11
6763.600397725629
 21
3840.085738515504
 31
0.0
  0
SOLID
  5
D821
330
D1AC
100
AcDbEntity
  8
寸法引出
 48
25.0
100
AcDbTrace
 10
6663.600397725628
 20
3846.335738515504
 30
0.0
 11
6663.600397725628
 21
3833.835738515503
 31
0.0
 12
6626.100397725628
 22
3840.085738515504
 32
0.0
 13
6626.100397725628
 23
3840.085738515504
 33
0.0
  0
SOLID
  5
D822
330
D1AC
100
AcDbEntity
  8
寸法引出
 48
25.0
100
AcDbTrace
 10
6763.600397725629
 20
3846.335738515504
 30
0.0
 11
6763.600397725629
 21
3833.835738515503
 31
0.0
 12
6801.10039772563
 22
3840.085738515504
 32
0.0
 13
6801.10039772563
 23
3840.085738515504
 33
0.0
  0
MTEXT
  5
D823
330
D1AC
100
AcDbEntity
  8
寸法引出
 48
25.0
100
AcDbMText
 10
6713.600397725629
 20
3890.085738515504
 30
0.0
 40
50.0
 41
0.0
 71
     5
 72
     1
  1
\A1;175
  7
SANWA
 73
     1
 44
1.0
1001
ACAD
1000
MTEXTBEGIN
1070
    73
1070
     1
1070
    44
1040
1.0
1070
    74
1070
     0
1000
MTEXTEND
  0
POINT
  5
D824
330
D1AC
100
AcDbEntity
  8
DEFPOINTS
 62
     0
 48
25.0
100
AcDbPoint
 10
6626.100397725628
 20
3737.25056989079
 30
0.0
  0
POINT
  5
D825
330
D1AC
100
AcDbEntity
  8
DEFPOINTS
 62
     0
 48
25.0
100
AcDbPoint
 10
6801.10039772563
 20
3737.25056989079
 30
0.0
  0
POINT
  5
D826
330
D1AC
100
AcDbEntity
  8
DEFPOINTS
 62
     0
 48
25.0
100
AcDbPoint
 10
6801.10039772563
 20
3840.085738515504
 30
0.0
  0
ENDBLK
  5
D1B7
330
D1AC
100
AcDbEntity
  8
0
 48
25.0
100
AcDbBlockEnd
  0
BLOCK
  5
D491
330
D485
100
AcDbEntity
  8
0
 48
25.0
100
AcDbBlockBegin
  2
*D40
 70
     1
 10
0.0
 20
0.0
 30
0.0
  3
*D40
  1

  0
LINE
  5
D645
330
D485
100
AcDbEntity
  8
寸法引出
 48
25.0
370
    -2
100
AcDbLine
 10
2857.75533045928
 20
3689.25056989079
 30
0.0
 11
2963.156651812846
 21
3689.25056989079
 31
0.0
  0
LINE
  5
D646
330
D485
100
AcDbEntity
  8
寸法引出
 48
25.0
370
    -2
100
AcDbLine
 10
2857.75533045928
 20
3737.25056989079
 30
0.0
 11
2963.156651812846
 21
3737.25056989079
 31
0.0
  0
LINE
  5
D647
330
D485
100
AcDbEntity
  8
寸法引出
 48
25.0
370
    -2
100
AcDbLine
 10
2950.656651812846
 20
3651.75056989079
 30
0.0
 11
2950.656651812846
 21
3614.250569890791
 31
0.0
  0
LINE
  5
D648
330
D485
100
AcDbEntity
  8
寸法引出
 48
25.0
370
    -2
100
AcDbLine
 10
2950.656651812846
 20
3774.75056989079
 30
0.0
 11
2950.656651812846
 21
3812.25056989079
 31
0.0
  0
LINE
  5
D649
330
D485
100
AcDbEntity
  8
寸法引出
 48
25.0
370
    -2
100
AcDbLine
 10
2950.656651812846
 20
3689.25056989079
 30
0.0
 11
2950.656651812846
 21
3737.25056989079
 31
0.0
  0
SOLID
  5
D64A
330
D485
100
AcDbEntity
  8
寸法引出
 48
25.0
100
AcDbTrace
 10
2944.406651812846
 20
3651.75056989079
 30
0.0
 11
2956.906651812846
 21
3651.75056989079
 31
0.0
 12
2950.656651812846
 22
3689.25056989079
 32
0.0
 13
2950.656651812846
 23
3689.25056989079
 33
0.0
  0
SOLID
  5
D64B
330
D485
100
AcDbEntity
  8
寸法引出
 48
25.0
100
AcDbTrace
 10
2944.406651812846
 20
3774.75056989079
 30
0.0
 11
2956.906651812846
 21
3774.75056989079
 31
0.0
 12
2950.656651812846
 22
3737.25056989079
 32
0.0
 13
2950.656651812846
 23
3737.25056989079
 33
0.0
  0
MTEXT
  5
D64C
330
D485
100
AcDbEntity
  8
寸法引出
 48
25.0
100
AcDbMText
 10
2900.656651812845
 20
3713.250569890791
 30
0.0
 40
50.0
 41
0.0
 71
     5
 72
     1
  1
\A1;48
  7
SANWA
 11
0.0000000000000001
 21
1.0
 31
0.0
 73
     1
 44
1.0
1001
ACAD
1000
MTEXTBEGIN
1070
    73
1070
     1
1070
    44
1040
1.0
1070
    74
1070
     0
1000
MTEXTEND
  0
POINT
  5
D64D
330
D485
100
AcDbEntity
  8
DEFPOINTS
 62
     0
 48
25.0
100
AcDbPoint
 10
2832.75533045928
 20
3689.25056989079
 30
0.0
  0
POINT
  5
D64E
330
D485
100
AcDbEntity
  8
DEFPOINTS
 62
     0
 48
25.0
100
AcDbPoint
 10
2832.75533045928
 20
3737.25056989079
 30
0.0
  0
POINT
  5
D64F
330
D485
100
AcDbEntity
  8
DEFPOINTS
 62
     0
 48
25.0
100
AcDbPoint
 10
2950.656651812846
 20
3737.25056989079
 30
0.0
  0
ENDBLK
  5
D492
330
D485
100
AcDbEntity
  8
0
 48
25.0
100
AcDbBlockEnd
  0
BLOCK
  5
D55B
330
D551
100
AcDbEntity
  8
0
 48
25.0
100
AcDbBlockBegin
  2
*D41
 70
     1
 10
0.0
 20
0.0
 30
0.0
  3
*D41
  1

  0
LINE
  5
D55D
330
D551
100
AcDbEntity
  8
0
 48
25.0
370
    -2
100
AcDbLine
 10
17187.13490003914
 20
3737.25056989079
 30
0.0
 11
17116.61776193867
 21
3737.25056989079
 31
0.0
  0
LINE
  5
D55E
330
D551
100
AcDbEntity
  8
0
 48
25.0
370
    -2
100
AcDbLine
 10
17187.13490003914
 20
2737.250569890788
 30
0.0
 11
17116.61776193867
 21
2737.250569890788
 31
0.0
  0
LINE
  5
D55F
330
D551
100
AcDbEntity
  8
0
 48
25.0
370
    -2
100
AcDbLine
 10
17129.11776193867
 20
3699.75056989079
 30
0.0
 11
17129.11776193867
 21
2774.750569890788
 31
0.0
  0
SOLID
  5
D560
330
D551
100
AcDbEntity
  8
0
 48
25.0
100
AcDbTrace
 10
17122.86776193867
 20
3699.75056989079
 30
0.0
 11
17135.36776193867
 21
3699.75056989079
 31
0.0
 12
17129.11776193867
 22
3737.25056989079
 32
0.0
 13
17129.11776193867
 23
3737.25056989079
 33
0.0
  0
SOLID
  5
D561
330
D551
100
AcDbEntity
  8
0
 48
25.0
100
AcDbTrace
 10
17122.86776193867
 20
2774.750569890788
 30
0.0
 11
17135.36776193867
 21
2774.750569890788
 31
0.0
 12
17129.11776193867
 22
2737.250569890788
 32
0.0
 13
17129.11776193867
 23
2737.250569890788
 33
0.0
  0
MTEXT
  5
D562
330
D551
100
AcDbEntity
  8
0
 48
25.0
100
AcDbMText
 10
17079.11776193867
 20
3237.250569890792
 30
0.0
 40
50.0
 41
0.0
 71
     5
 72
     1
  1
\A1;1000
  7
SANWA
 11
0.0000000000000001
 21
1.0
 31
0.0
 73
     1
 44
1.0
1001
ACAD
1000
MTEXTBEGIN
1070
    73
1070
     1
1070
    44
1040
1.0
1070
    74
1070
     0
1000
MTEXTEND
  0
POINT
  5
D563
330
D551
100
AcDbEntity
  8
DEFPOINTS
 62
     0
 48
25.0
100
AcDbPoint
 10
17212.13490003914
 20
3737.25056989079
 30
0.0
  0
POINT
  5
D564
330
D551
100
AcDbEntity
  8
DEFPOINTS
 62
     0
 48
25.0
100
AcDbPoint
 10
17212.13490003914
 20
2737.250569890788
 30
0.0
  0
POINT
  5
D565
330
D551
100
AcDbEntity
  8
DEFPOINTS
 62
     0
 48
25.0
100
AcDbPoint
 10
17129.11776193867
 20
2737.250569890788
 30
0.0
  0
ENDBLK
  5
D55C
330
D551
100
AcDbEntity
  8
0
 48
25.0
100
AcDbBlockEnd
  0
BLOCK
  5
D571
330
D567
100
AcDbEntity
  8
0
 48
25.0
100
AcDbBlockBegin
  2
*D42
 70
     1
 10
0.0
 20
0.0
 30
0.0
  3
*D42
  1

  0
LINE
  5
D568
330
D567
100
AcDbEntity
  8
0
 48
25.0
370
    -2
100
AcDbLine
 10
17187.13490003914
 20
3737.25056989079
 30
0.0
 11
17007.30242756533
 21
3737.25056989079
 31
0.0
  0
LINE
  5
D569
330
D567
100
AcDbEntity
  8
0
 48
25.0
370
    -2
100
AcDbLine
 10
17187.13490003914
 20
2637.250569890788
 30
0.0
 11
17007.30242756533
 21
2637.250569890788
 31
0.0
  0
LINE
  5
D56A
330
D567
100
AcDbEntity
  8
0
 48
25.0
370
    -2
100
AcDbLine
 10
17019.80242756533
 20
3699.75056989079
 30
0.0
 11
17019.80242756533
 21
2674.750569890788
 31
0.0
  0
SOLID
  5
D56B
330
D567
100
AcDbEntity
  8
0
 48
25.0
100
AcDbTrace
 10
17013.55242756533
 20
3699.75056989079
 30
0.0
 11
17026.05242756533
 21
3699.75056989079
 31
0.0
 12
17019.80242756533
 22
3737.25056989079
 32
0.0
 13
17019.80242756533
 23
3737.25056989079
 33
0.0
  0
SOLID
  5
D56C
330
D567
100
AcDbEntity
  8
0
 48
25.0
100
AcDbTrace
 10
17013.55242756533
 20
2674.750569890788
 30
0.0
 11
17026.05242756533
 21
2674.750569890788
 31
0.0
 12
17019.80242756533
 22
2637.250569890788
 32
0.0
 13
17019.80242756533
 23
2637.250569890788
 33
0.0
  0
MTEXT
  5
D56D
330
D567
100
AcDbEntity
  8
0
 48
25.0
100
AcDbMText
 10
16969.80242756533
 20
3187.250569890792
 30
0.0
 40
50.0
 41
0.0
 71
     5
 72
     1
  1
\A1;1100
  7
SANWA
 11
0.0000000000000001
 21
1.0
 31
0.0
 73
     1
 44
1.0
1001
ACAD
1000
MTEXTBEGIN
1070
    73
1070
     1
1070
    44
1040
1.0
1070
    74
1070
     0
1000
MTEXTEND
  0
POINT
  5
D56E
330
D567
100
AcDbEntity
  8
DEFPOINTS
 62
     0
 48
25.0
100
AcDbPoint
 10
17212.13490003914
 20
3737.25056989079
 30
0.0
  0
POINT
  5
D56F
330
D567
100
AcDbEntity
  8
DEFPOINTS
 62
     0
 48
25.0
100
AcDbPoint
 10
17212.13490003914
 20
2637.250569890788
 30
0.0
  0
POINT
  5
D570
330
D567
100
AcDbEntity
  8
DEFPOINTS
 62
     0
 48
25.0
100
AcDbPoint
 10
17019.80242756533
 20
2637.250569890788
 30
0.0
  0
ENDBLK
  5
D572
330
D567
100
AcDbEntity
  8
0
 48
25.0
100
AcDbBlockEnd
  0
BLOCK
  5
D57E
330
D574
100
AcDbEntity
  8
0
 48
25.0
100
AcDbBlockBegin
  2
*D43
 70
     1
 10
0.0
 20
0.0
 30
0.0
  3
*D43
  1

  0
LINE
  5
D575
330
D574
100
AcDbEntity
  8
0
 48
25.0
370
    -2
100
AcDbLine
 10
17187.13490003914
 20
3737.25056989079
 30
0.0
 11
16894.46082446588
 21
3737.25056989079
 31
0.0
  0
LINE
  5
D576
330
D574
100
AcDbEntity
  8
0
 48
25.0
370
    -2
100
AcDbLine
 10
17187.13490003914
 20
2537.250569890788
 30
0.0
 11
16894.46082446588
 21
2537.250569890788
 31
0.0
  0
LINE
  5
D577
330
D574
100
AcDbEntity
  8
0
 48
25.0
370
    -2
100
AcDbLine
 10
16906.96082446588
 20
3699.75056989079
 30
0.0
 11
16906.96082446588
 21
2574.750569890788
 31
0.0
  0
SOLID
  5
D578
330
D574
100
AcDbEntity
  8
0
 48
25.0
100
AcDbTrace
 10
16900.71082446588
 20
3699.75056989079
 30
0.0
 11
16913.21082446588
 21
3699.75056989079
 31
0.0
 12
16906.96082446588
 22
3737.25056989079
 32
0.0
 13
16906.96082446588
 23
3737.25056989079
 33
0.0
  0
SOLID
  5
D579
330
D574
100
AcDbEntity
  8
0
 48
25.0
100
AcDbTrace
 10
16900.71082446588
 20
2574.750569890788
 30
0.0
 11
16913.21082446588
 21
2574.750569890788
 31
0.0
 12
16906.96082446588
 22
2537.250569890788
 32
0.0
 13
16906.96082446588
 23
2537.250569890788
 33
0.0
  0
MTEXT
  5
D57A
330
D574
100
AcDbEntity
  8
0
 48
25.0
100
AcDbMText
 10
16856.96082446588
 20
3137.250569890792
 30
0.0
 40
50.0
 41
0.0
 71
     5
 72
     1
  1
\A1;1200
  7
SANWA
 11
0.0000000000000001
 21
1.0
 31
0.0
 73
     1
 44
1.0
1001
ACAD
1000
MTEXTBEGIN
1070
    73
1070
     1
1070
    44
1040
1.0
1070
    74
1070
     0
1000
MTEXTEND
  0
POINT
  5
D57B
330
D574
100
AcDbEntity
  8
DEFPOINTS
 62
     0
 48
25.0
100
AcDbPoint
 10
17212.13490003914
 20
3737.25056989079
 30
0.0
  0
POINT
  5
D57C
330
D574
100
AcDbEntity
  8
DEFPOINTS
 62
     0
 48
25.0
100
AcDbPoint
 10
17212.13490003914
 20
2537.250569890788
 30
0.0
  0
POINT
  5
D57D
330
D574
100
AcDbEntity
  8
DEFPOINTS
 62
     0
 48
25.0
100
AcDbPoint
 10
16906.96082446588
 20
2537.250569890788
 30
0.0
  0
ENDBLK
  5
D57F
330
D574
100
AcDbEntity
  8
0
 48
25.0
100
AcDbBlockEnd
  0
BLOCK
  5
D58B
330
D581
100
AcDbEntity
  8
0
 48
25.0
100
AcDbBlockBegin
  2
*D44
 70
     1
 10
0.0
 20
0.0
 30
0.0
  3
*D44
  1

  0
LINE
  5
D582
330
D581
100
AcDbEntity
  8
0
 48
25.0
370
    -2
100
AcDbLine
 10
17187.13490003914
 20
3737.25056989079
 30
0.0
 11
16785.14549009254
 21
3737.25056989079
 31
0.0
  0
LINE
  5
D583
330
D581
100
AcDbEntity
  8
0
 48
25.0
370
    -2
100
AcDbLine
 10
17187.13490003915
 20
2437.250569890788
 30
0.0
 11
16785.14549009254
 21
2437.250569890788
 31
0.0
  0
LINE
  5
D584
330
D581
100
AcDbEntity
  8
0
 48
25.0
370
    -2
100
AcDbLine
 10
16797.64549009254
 20
3699.75056989079
 30
0.0
 11
16797.64549009254
 21
2474.750569890788
 31
0.0
  0
SOLID
  5
D585
330
D581
100
AcDbEntity
  8
0
 48
25.0
100
AcDbTrace
 10
16791.39549009254
 20
3699.75056989079
 30
0.0
 11
16803.89549009254
 21
3699.75056989079
 31
0.0
 12
16797.64549009254
 22
3737.25056989079
 32
0.0
 13
16797.64549009254
 23
3737.25056989079
 33
0.0
  0
SOLID
  5
D586
330
D581
100
AcDbEntity
  8
0
 48
25.0
100
AcDbTrace
 10
16791.39549009254
 20
2474.750569890788
 30
0.0
 11
16803.89549009254
 21
2474.750569890788
 31
0.0
 12
16797.64549009254
 22
2437.250569890788
 32
0.0
 13
16797.64549009254
 23
2437.250569890788
 33
0.0
  0
MTEXT
  5
D587
330
D581
100
AcDbEntity
  8
0
 48
25.0
100
AcDbMText
 10
16747.64549009254
 20
3087.250569890792
 30
0.0
 40
50.0
 41
0.0
 71
     5
 72
     1
  1
\A1;1300
  7
SANWA
 11
0.0000000000000001
 21
1.0
 31
0.0
 73
     1
 44
1.0
1001
ACAD
1000
MTEXTBEGIN
1070
    73
1070
     1
1070
    44
1040
1.0
1070
    74
1070
     0
1000
MTEXTEND
  0
POINT
  5
D588
330
D581
100
AcDbEntity
  8
DEFPOINTS
 62
     0
 48
25.0
100
AcDbPoint
 10
17212.13490003914
 20
3737.25056989079
 30
0.0
  0
POINT
  5
D589
330
D581
100
AcDbEntity
  8
DEFPOINTS
 62
     0
 48
25.0
100
AcDbPoint
 10
17212.13490003915
 20
2437.250569890788
 30
0.0
  0
POINT
  5
D58A
330
D581
100
AcDbEntity
  8
DEFPOINTS
 62
     0
 48
25.0
100
AcDbPoint
 10
16797.64549009254
 20
2437.250569890788
 30
0.0
  0
ENDBLK
  5
D58C
330
D581
100
AcDbEntity
  8
0
 48
25.0
100
AcDbBlockEnd
  0
BLOCK
  5
D598
330
D58E
100
AcDbEntity
  8
0
 48
25.0
100
AcDbBlockBegin
  2
*D45
 70
     1
 10
0.0
 20
0.0
 30
0.0
  3
*D45
  1

  0
LINE
  5
D58F
330
D58E
100
AcDbEntity
  8
0
 48
25.0
370
    -2
100
AcDbLine
 10
17187.13490003914
 20
3737.25056989079
 30
0.0
 11
16675.83019936546
 21
3737.25056989079
 31
0.0
  0
LINE
  5
D590
330
D58E
100
AcDbEntity
  8
0
 48
25.0
370
    -2
100
AcDbLine
 10
17187.13490003915
 20
2337.250569890788
 30
0.0
 11
16675.83019936546
 21
2337.250569890788
 31
0.0
  0
LINE
  5
D591
330
D58E
100
AcDbEntity
  8
0
 48
25.0
370
    -2
100
AcDbLine
 10
16688.33019936546
 20
3699.75056989079
 30
0.0
 11
16688.33019936546
 21
2374.750569890788
 31
0.0
  0
SOLID
  5
D592
330
D58E
100
AcDbEntity
  8
0
 48
25.0
100
AcDbTrace
 10
16682.08019936546
 20
3699.75056989079
 30
0.0
 11
16694.58019936546
 21
3699.75056989079
 31
0.0
 12
16688.33019936546
 22
3737.25056989079
 32
0.0
 13
16688.33019936546
 23
3737.25056989079
 33
0.0
  0
SOLID
  5
D593
330
D58E
100
AcDbEntity
  8
0
 48
25.0
100
AcDbTrace
 10
16682.08019936546
 20
2374.750569890788
 30
0.0
 11
16694.58019936546
 21
2374.750569890788
 31
0.0
 12
16688.33019936546
 22
2337.250569890788
 32
0.0
 13
16688.33019936546
 23
2337.250569890788
 33
0.0
  0
MTEXT
  5
D594
330
D58E
100
AcDbEntity
  8
0
 48
25.0
100
AcDbMText
 10
16638.33019936546
 20
3037.250569890792
 30
0.0
 40
50.0
 41
0.0
 71
     5
 72
     1
  1
\A1;1400
  7
SANWA
 11
0.0000000000000001
 21
1.0
 31
0.0
 73
     1
 44
1.0
1001
ACAD
1000
MTEXTBEGIN
1070
    73
1070
     1
1070
    44
1040
1.0
1070
    74
1070
     0
1000
MTEXTEND
  0
POINT
  5
D595
330
D58E
100
AcDbEntity
  8
DEFPOINTS
 62
     0
 48
25.0
100
AcDbPoint
 10
17212.13490003914
 20
3737.25056989079
 30
0.0
  0
POINT
  5
D596
330
D58E
100
AcDbEntity
  8
DEFPOINTS
 62
     0
 48
25.0
100
AcDbPoint
 10
17212.13490003915
 20
2337.250569890788
 30
0.0
  0
POINT
  5
D597
330
D58E
100
AcDbEntity
  8
DEFPOINTS
 62
     0
 48
25.0
100
AcDbPoint
 10
16688.33019936546
 20
2337.250569890788
 30
0.0
  0
ENDBLK
  5
D599
330
D58E
100
AcDbEntity
  8
0
 48
25.0
100
AcDbBlockEnd
  0
BLOCK
  5
D5A5
330
D59B
100
AcDbEntity
  8
0
 48
25.0
100
AcDbBlockBegin
  2
*D46
 70
     1
 10
0.0
 20
0.0
 30
0.0
  3
*D46
  1

  0
LINE
  5
D59C
330
D59B
100
AcDbEntity
  8
0
 48
25.0
370
    -2
100
AcDbLine
 10
17187.13490003914
 20
3737.25056989079
 30
0.0
 11
16562.98859626601
 21
3737.25056989079
 31
0.0
  0
LINE
  5
D59D
330
D59B
100
AcDbEntity
  8
0
 48
25.0
370
    -2
100
AcDbLine
 10
17187.13490003915
 20
2237.250569890788
 30
0.0
 11
16562.98859626601
 21
2237.250569890788
 31
0.0
  0
LINE
  5
D59E
330
D59B
100
AcDbEntity
  8
0
 48
25.0
370
    -2
100
AcDbLine
 10
16575.48859626601
 20
3699.75056989079
 30
0.0
 11
16575.48859626601
 21
2274.750569890788
 31
0.0
  0
SOLID
  5
D59F
330
D59B
100
AcDbEntity
  8
0
 48
25.0
100
AcDbTrace
 10
16569.23859626601
 20
3699.75056989079
 30
0.0
 11
16581.73859626601
 21
3699.75056989079
 31
0.0
 12
16575.48859626601
 22
3737.25056989079
 32
0.0
 13
16575.48859626601
 23
3737.25056989079
 33
0.0
  0
SOLID
  5
D5A0
330
D59B
100
AcDbEntity
  8
0
 48
25.0
100
AcDbTrace
 10
16569.23859626601
 20
2274.750569890788
 30
0.0
 11
16581.73859626601
 21
2274.750569890788
 31
0.0
 12
16575.48859626601
 22
2237.250569890788
 32
0.0
 13
16575.48859626601
 23
2237.250569890788
 33
0.0
  0
MTEXT
  5
D5A1
330
D59B
100
AcDbEntity
  8
0
 48
25.0
100
AcDbMText
 10
16525.48859626601
 20
2987.250569890792
 30
0.0
 40
50.0
 41
0.0
 71
     5
 72
     1
  1
\A1;1500
  7
SANWA
 11
0.0000000000000001
 21
1.0
 31
0.0
 73
     1
 44
1.0
1001
ACAD
1000
MTEXTBEGIN
1070
    73
1070
     1
1070
    44
1040
1.0
1070
    74
1070
     0
1000
MTEXTEND
  0
POINT
  5
D5A2
330
D59B
100
AcDbEntity
  8
DEFPOINTS
 62
     0
 48
25.0
100
AcDbPoint
 10
17212.13490003914
 20
3737.25056989079
 30
0.0
  0
POINT
  5
D5A3
330
D59B
100
AcDbEntity
  8
DEFPOINTS
 62
     0
 48
25.0
100
AcDbPoint
 10
17212.13490003915
 20
2237.250569890788
 30
0.0
  0
POINT
  5
D5A4
330
D59B
100
AcDbEntity
  8
DEFPOINTS
 62
     0
 48
25.0
100
AcDbPoint
 10
16575.48859626601
 20
2237.250569890788
 30
0.0
  0
ENDBLK
  5
D5A6
330
D59B
100
AcDbEntity
  8
0
 48
25.0
100
AcDbBlockEnd
  0
BLOCK
  5
D65B
330
D651
100
AcDbEntity
  8
0
 48
25.0
100
AcDbBlockBegin
  2
*D47
 70
     1
 10
0.0
 20
0.0
 30
0.0
  3
*D47
  1

  0
LINE
  5
DBA2
330
D651
100
AcDbEntity
  8
寸法引出
 48
25.0
370
    -2
100
AcDbLine
 10
2430.124842940757
 20
3737.250569887546
 30
0.0
 11
2376.505812903037
 21
3737.250569887546
 31
0.0
  0
LINE
  5
DBA3
330
D651
100
AcDbEntity
  8
寸法引出
 48
25.0
370
    -2
100
AcDbLine
 10
2430.124842940757
 20
3587.250569887546
 30
0.0
 11
2376.505812903037
 21
3587.250569887546
 31
0.0
  0
LINE
  5
DBA4
330
D651
100
AcDbEntity
  8
寸法引出
 48
25.0
370
    -2
100
AcDbLine
 10
2389.005812903037
 20
3699.750569887546
 30
0.0
 11
2389.005812903037
 21
3624.750569887546
 31
0.0
  0
SOLID
  5
DBA5
330
D651
100
AcDbEntity
  8
寸法引出
 48
25.0
100
AcDbTrace
 10
2382.755812903037
 20
3699.750569887546
 30
0.0
 11
2395.255812903037
 21
3699.750569887546
 31
0.0
 12
2389.005812903037
 22
3737.250569887546
 32
0.0
 13
2389.005812903037
 23
3737.250569887546
 33
0.0
  0
SOLID
  5
DBA6
330
D651
100
AcDbEntity
  8
寸法引出
 48
25.0
100
AcDbTrace
 10
2382.755812903037
 20
3624.750569887546
 30
0.0
 11
2395.255812903037
 21
3624.750569887546
 31
0.0
 12
2389.005812903037
 22
3587.250569887546
 32
0.0
 13
2389.005812903037
 23
3587.250569887546
 33
0.0
  0
MTEXT
  5
DBA7
330
D651
100
AcDbEntity
  8
寸法引出
 48
25.0
100
AcDbMText
 10
2339.005812903036
 20
3662.250569887547
 30
0.0
 40
50.0
 41
0.0
 71
     5
 72
     1
  1
\A1;150
  7
SANWA
 11
0.0000000000000001
 21
1.0
 31
0.0
 73
     1
 44
1.0
1001
ACAD
1000
MTEXTBEGIN
1070
    73
1070
     1
1070
    44
1040
1.0
1070
    74
1070
     0
1000
MTEXTEND
  0
POINT
  5
DBA8
330
D651
100
AcDbEntity
  8
DEFPOINTS
 62
     0
 48
25.0
100
AcDbPoint
 10
2455.124842940757
 20
3737.250569887546
 30
0.0
  0
POINT
  5
DBA9
330
D651
100
AcDbEntity
  8
DEFPOINTS
 62
     0
 48
25.0
100
AcDbPoint
 10
2455.124842940757
 20
3587.250569887546
 30
0.0
  0
POINT
  5
DBAA
330
D651
100
AcDbEntity
  8
DEFPOINTS
 62
     0
 48
25.0
100
AcDbPoint
 10
2389.005812903037
 20
3587.250569887546
 30
0.0
  0
ENDBLK
  5
D65C
330
D651
100
AcDbEntity
  8
0
 48
25.0
100
AcDbBlockEnd
  0
BLOCK
  5
D859
330
D84F
100
AcDbEntity
  8
0
 48
25.0
100
AcDbBlockBegin
  2
*D48
 70
     1
 10
0.0
 20
0.0
 30
0.0
  3
*D48
  1

  0
LINE
  5
DBAB
330
D84F
100
AcDbEntity
  8
寸法引出
 48
25.0
370
    -2
100
AcDbLine
 10
4098.469910207106
 20
3737.250569887546
 30
0.0
 11
3837.976270198459
 21
3737.250569887546
 31
0.0
  0
LINE
  5
DBAC
330
D84F
100
AcDbEntity
  8
寸法引出
 48
25.0
370
    -2
100
AcDbLine
 10
4098.469910207106
 20
2747.250569887548
 30
0.0
 11
3837.976270198458
 21
2747.250569887548
 31
0.0
  0
LINE
  5
DBAD
330
D84F
100
AcDbEntity
  8
寸法引出
 48
25.0
370
    -2
100
AcDbLine
 10
3850.476270198459
 20
3699.750569887546
 30
0.0
 11
3850.476270198458
 21
2784.750569887548
 31
0.0
  0
SOLID
  5
DBAE
330
D84F
100
AcDbEntity
  8
寸法引出
 48
25.0
100
AcDbTrace
 10
3844.226270198459
 20
3699.750569887546
 30
0.0
 11
3856.726270198459
 21
3699.750569887546
 31
0.0
 12
3850.476270198459
 22
3737.250569887546
 32
0.0
 13
3850.476270198459
 23
3737.250569887546
 33
0.0
  0
SOLID
  5
DBAF
330
D84F
100
AcDbEntity
  8
寸法引出
 48
25.0
100
AcDbTrace
 10
3844.226270198458
 20
2784.750569887548
 30
0.0
 11
3856.726270198458
 21
2784.750569887548
 31
0.0
 12
3850.476270198458
 22
2747.250569887548
 32
0.0
 13
3850.476270198458
 23
2747.250569887548
 33
0.0
  0
MTEXT
  5
DBB0
330
D84F
100
AcDbEntity
  8
寸法引出
 48
25.0
100
AcDbMText
 10
3800.476270198458
 20
3242.250569887547
 30
0.0
 40
50.0
 41
0.0
 71
     5
 72
     1
  1
\A1;990
  7
SANWA
 11
0.0000000000000001
 21
1.0
 31
0.0
 73
     1
 44
1.0
1001
ACAD
1000
MTEXTBEGIN
1070
    73
1070
     1
1070
    44
1040
1.0
1070
    74
1070
     0
1000
MTEXTEND
  0
POINT
  5
DBB1
330
D84F
100
AcDbEntity
  8
DEFPOINTS
 62
     0
 48
25.0
100
AcDbPoint
 10
4123.469910207106
 20
3737.250569887546
 30
0.0
  0
POINT
  5
DBB2
330
D84F
100
AcDbEntity
  8
DEFPOINTS
 62
     0
 48
25.0
100
AcDbPoint
 10
4123.469910207106
 20
2747.250569887548
 30
0.0
  0
POINT
  5
DBB3
330
D84F
100
AcDbEntity
  8
DEFPOINTS
 62
     0
 48
25.0
100
AcDbPoint
 10
3850.476270198458
 20
2747.250569887548
 30
0.0
  0
ENDBLK
  5
D85A
330
D84F
100
AcDbEntity
  8
0
 48
25.0
100
AcDbBlockEnd
  0
BLOCK
  5
D866
330
D85C
100
AcDbEntity
  8
0
 48
25.0
100
AcDbBlockBegin
  2
*D49
 70
     1
 10
0.0
 20
0.0
 30
0.0
  3
*D49
  1

  0
LINE
  5
DBB4
330
D85C
100
AcDbEntity
  8
寸法引出
 48
25.0
370
    -2
100
AcDbLine
 10
4098.469910207106
 20
2747.250569887548
 30
0.0
 11
3837.976270198458
 21
2747.250569887548
 31
0.0
  0
LINE
  5
DBB5
330
D85C
100
AcDbEntity
  8
寸法引出
 48
25.0
370
    -2
100
AcDbLine
 10
4108.469910207106
 20
2112.250569887546
 30
0.0
 11
3837.976270198458
 21
2112.250569887546
 31
0.0
  0
LINE
  5
DBB6
330
D85C
100
AcDbEntity
  8
寸法引出
 48
25.0
370
    -2
100
AcDbLine
 10
3850.476270198458
 20
2709.750569887548
 30
0.0
 11
3850.476270198458
 21
2149.750569887546
 31
0.0
  0
SOLID
  5
DBB7
330
D85C
100
AcDbEntity
  8
寸法引出
 48
25.0
100
AcDbTrace
 10
3844.226270198458
 20
2709.750569887548
 30
0.0
 11
3856.726270198458
 21
2709.750569887548
 31
0.0
 12
3850.476270198458
 22
2747.250569887548
 32
0.0
 13
3850.476270198458
 23
2747.250569887548
 33
0.0
  0
SOLID
  5
DBB8
330
D85C
100
AcDbEntity
  8
寸法引出
 48
25.0
100
AcDbTrace
 10
3844.226270198458
 20
2149.750569887546
 30
0.0
 11
3856.726270198458
 21
2149.750569887546
 31
0.0
 12
3850.476270198458
 22
2112.250569887546
 32
0.0
 13
3850.476270198458
 23
2112.250569887546
 33
0.0
  0
MTEXT
  5
DBB9
330
D85C
100
AcDbEntity
  8
寸法引出
 48
25.0
100
AcDbMText
 10
3800.476270198458
 20
2429.750569887547
 30
0.0
 40
50.0
 41
0.0
 71
     5
 72
     1
  1
\A1;635
  7
SANWA
 11
0.0000000000000001
 21
1.0
 31
0.0
 73
     1
 44
1.0
1001
ACAD
1000
MTEXTBEGIN
1070
    73
1070
     1
1070
    44
1040
1.0
1070
    74
1070
     0
1000
MTEXTEND
  0
POINT
  5
DBBA
330
D85C
100
AcDbEntity
  8
DEFPOINTS
 62
     0
 48
25.0
100
AcDbPoint
 10
4123.469910207106
 20
2747.250569887548
 30
0.0
  0
POINT
  5
DBBB
330
D85C
100
AcDbEntity
  8
DEFPOINTS
 62
     0
 48
25.0
100
AcDbPoint
 10
4133.469910207106
 20
2112.250569887546
 30
0.0
  0
POINT
  5
DBBC
330
D85C
100
AcDbEntity
  8
DEFPOINTS
 62
     0
 48
25.0
100
AcDbPoint
 10
3850.476270198458
 20
2112.250569887546
 30
0.0
  0
ENDBLK
  5
D867
330
D85C
100
AcDbEntity
  8
0
 48
25.0
100
AcDbBlockEnd
  0
ENDSEC
  0
SECTION
  2
ENTITIES
  0
INSERT
  5
81E3
330
747D
100
AcDbEntity
  8
ASHADE
 62
     1
 48
15.0
100
AcDbBlockReference
  2
AVE_RENDER
 10
0.0
 20
0.0
 30
0.0
1001
AVE_RENDER
1002
{
1070
     7
1000
Pref
1070
    30
1070
    20
1070
     1
1070
     0
1000

1070
    10
1070
     1
1070
    10
1040
1.0
1070
     1
1040
0.7
1040
1.0
1040
0.0
1040
10.0
1010
-1.0
1020
-1.0
1030
-1.0
1040
0.3
1070
    49
1070
     0
1070
     0
1010
1.0
1020
1.0
1030
1.0
1040
45.0
1070
     1
1070
     0
1000
WCS
1040
0.0
1070
     0
1040
10.0
1002
}
  0
INSERT
  5
81E4
330
747D
100
AcDbEntity
  8
ASHADE
 62
     3
 48
15.0
100
AcDbBlockReference
  2
AVE_RENDER
 10
0.0
 20
0.0
 30
0.0
1001
AVE_RENDER
1002
{
1070
     0
1000
Full Opt
1070
     0
1070
     1
1070
     1
1070
     1
1070
     0
1070
     0
1070
     0
1070
     1
1070
     1
1040
0.0001
1040
0.0001
1002
}
  0
INSERT
  5
81E5
330
747D
100
AcDbEntity
  8
ASHADE
 62
     4
 48
15.0
100
AcDbBlockReference
  2
AVE_RENDER
 10
0.0
 20
0.0
 30
0.0
1001
AVE_RENDER
1002
{
1070
     0
1000
Quick Opt
1070
     0
1070
     1
1070
     1
1070
     1
1070
     0
1070
     0
1070
     1
1002
}
  0
INSERT
  5
81E6
330
747D
100
AcDbEntity
  8
ASHADE
 62
     5
 48
15.0
100
AcDbBlockReference
  2
AVE_RENDER
 10
0.0
 20
0.0
 30
0.0
1001
AVE_RENDER
1002
{
1070
     1
1000
Scanl Opt
1070
     2
1070
     0
1070
     2
1040
2.0
1040
4.0
1070
     0
1070
     1
1070
     0
1040
0.03
1002
}
  0
INSERT
  5
81E7
330
747D
100
AcDbEntity
  8
ASHADE
 62
     6
 48
15.0
100
AcDbBlockReference
  2
AVE_RENDER
 10
0.0
 20
0.0
 30
0.0
1001
AVE_RENDER
1002
{
1070
     2
1000
Raytr Opt
1070
     2
1070
     0
1070
     2
1040
2.0
1040
4.0
1070
     0
1070
     1
1070
     1
1040
0.03
1070
     3
1040
0.03
1002
}
  0
INSERT
  5
81E8
330
747D
100
AcDbEntity
  8
ASHADE
 62
     7
 48
15.0
100
AcDbBlockReference
  2
AVE_RENDER
 10
0.0
 20
0.0
 30
0.0
1001
AVE_RENDER
1002
{
1070
     0
1000
RFile Opt
1070
     1
1070
   640
1070
   480
1070
 10000
1070
     1
1070
     8
1070
     8
1070
     0
1070
     0
1070
     0
1070
     0
1070
     0
1070
     0
1070
     0
1002
}
  0
INSERT
  5
81E9
330
747D
100
AcDbEntity
  8
ASHADE
 62
     8
 48
15.0
100
AcDbBlockReference
  2
AVE_RENDER
 10
0.0
 20
0.0
 30
0.0
1001
AVE_RENDER
1002
{
1070
     0
1000
Fog Opt
1070
     0
1070
     0
1040
0.0
1040
1.0
1040
0.0
1040
1.0
1010
0.5
1020
0.5
1030
0.5
1002
}
  0
INSERT
  5
81EA
330
747D
100
AcDbEntity
  8
ASHADE
 62
     9
 48
15.0
100
AcDbBlockReference
  2
AVE_RENDER
 10
0.0
 20
0.0
 30
0.0
1001
AVE_RENDER
1002
{
1070
     0
1000
BG Opt
1070
     0
1070
     1
1010
0.0
1020
0.0
1030
0.0
1010
1.0
1020
0.0
1030
0.0
1010
0.0
1020
1.0
1030
0.0
1010
0.0
1020
0.0
1030
1.0
1040
0.5
1040
0.33
1040
0.0
1000

1070
     1
1000

1070
     1
1070
     1
1040
1.0
1040
1.0
1040
0.0
1040
0.0
1070
     0
1002
}
  0
INSERT
  5
81F1
330
747D
100
AcDbEntity
  8
ASHADE
 62
     1
 48
15.0
100
AcDbBlockReference
  2
AVE_GLOBAL
 10
0.0
 20
0.0
 30
0.0
1001
AVE_MATERIAL
1002
{
1000
*GLOBAL*
1000
2
1000
Global finish.
1002
{
1002
}
1002
{
1070
    63
1002
{
1002
{
1010
-1.0
1020
-1.0
1030
-1.0
1002
}
1040
0.6999999880790711
1000

1040
0.0
1002
{
1002
}
1040
0.0
1002
{
1002
}
1040
0.0
1002
}
1002
{
1002
{
1010
-1.0
1020
-1.0
1030
-1.0
1002
}
1040
1.0
1000

1040
0.0
1002
{
1002
}
1040
0.0
1002
{
1002
}
1040
0.0
1002
}
1002
{
1002
{
1010
-1.0
1020
-1.0
1030
-1.0
1002
}
1040
0.2000000029802322
1000

1040
0.0
1002
{
1002
}
1040
0.0
1002
{
1002
}
1040
0.0
1002
}
1002
{
1070
     0
1002
{
1070
     1
1002
{
1040
1.0
1040
1.0
1000

1040
0.0
1002
{
1002
}
1040
0.0
1002
{
1002
}
1040
0.0
1002
}
1002
}
1040
1.0
1040
0.0
1040
0.0
1002
}
1002
{
1040
1.0
1040
1.0
1000

1040
0.0
1002
{
1002
}
1040
0.0
1002
{
1002
}
1040
0.0
1002
}
1002
{
1040
0.5
1040
1.0
1000

1040
0.0
1002
{
1002
}
1040
0.0
1002
{
1002
}
1040
0.0
1002
}
1002
{
1070
     0
1040
0.0
1002
{
1002
}
1040
1.0
1002
{
1002
}
1040
0.0
1002
}
1002
{
1040
0.0
1002
{
1002
{
1010
0.0
1020
0.0
1030
0.0
1002
}
1040
1.0
1000

1040
0.0
1002
{
1002
}
1040
0.0
1002
{
1002
}
1040
0.0
1002
}
1002
}
1002
{
1002
{
1070
     1
1002
{
1040
0.0
1040
1.0
1000

1040
0.0
1002
{
1002
}
1040
0.0
1002
{
1002
}
1040
0.0
1002
}
1002
}
1040
0.0
1002
{
1002
}
1010
1.0
1020
0.0
1030
0.0
1010
0.0
1020
1.0
1030
0.0
1010
0.0
1020
0.0
1030
1.0
1070
     0
1002
}
1002
{
1002
{
1040
1.0
1040
1.0
1002
{
1070
     1
1002
{
1040
1.0
1040
1.0
1000

1040
0.0
1002
{
1002
}
1040
0.0
1002
{
1002
}
1040
0.0
1002
}
1002
}
1002
}
1070
     0
1040
0.0
1002
{
1002
}
1002
}
1002
{
1002
}
1002
}
1002
{
1071
        3
1070
     3
1070
     0
1002
{
1070
     2
1070
     0
1070
     0
1040
0.0
1002
}
1070
     0
1070
     2
1002
{
1002
}
1002
}
1002
{
1040
8030.0
1040
190.3000030517578
1040
0.3050000071525574
1040
228.0
1040
545.0
1040
14.0
1040
17.39999961853027
1040
0.4560000002384186
1002
}
1002
}
  0
LINE
  5
C0E2
330
747D
100
AcDbEntity
  8
0
100
AcDbLine
 10
0.0
 20
5250.0
 30
0.0
 11
625.0
 21
5250.0
 31
0.0
  0
LINE
  5
C0E3
330
747D
100
AcDbEntity
  8
0
100
AcDbLine
 10
625.0
 20
0.0
 30
0.0
 11
0.0
 21
0.0
 31
0.0
  0
LINE
  5
C0E4
330
747D
100
AcDbEntity
  8
0
100
AcDbLine
 10
0.0
 20
0.0
 30
0.0
 11
0.0
 21
250.0
 31
0.0
  0
LINE
  5
C0E5
330
747D
100
AcDbEntity
  8
0
100
AcDbLine
 10
0.0
 20
5000.0
 30
0.0
 11
0.0
 21
5250.0
 31
0.0
  0
LINE
  5
C0E6
330
747D
100
AcDbEntity
  8
枠
100
AcDbLine
 10
7175.0
 20
250.0
 30
0.0
 11
7175.0
 21
5000.0
 31
0.0
  0
LINE
  5
C0E7
330
747D
100
AcDbEntity
  8
0
 48
25.0
100
AcDbLine
 10
4123.469910207106
 20
3737.250569887546
 30
0.0
 11
4123.469910207106
 21
2122.250569887547
 31
0.0
  0
LINE
  5
C0E8
330
747D
100
AcDbEntity
  8
0
 48
25.0
100
AcDbLine
 10
6123.469910207106
 20
3737.250569887546
 30
0.0
 11
6123.469910207106
 21
2122.250569887547
 31
0.0
  0
LINE
  5
C0E9
330
747D
100
AcDbEntity
  8
枠
100
AcDbLine
 10
625.0
 20
250.0
 30
0.0
 11
625.0
 21
5000.0
 31
0.0
  0
LINE
  5
C0F0
330
747D
100
AcDbEntity
  8
0
 62
     0
100
AcDbLine
 10
5337.553191489362
 20
990.000000000009
 30
0.0
 11
7175.0
 21
990.000000000009
 31
0.0
  0
LINE
  5
C0F1
330
747D
100
AcDbEntity
  8
0
 62
     0
100
AcDbLine
 10
5337.553191489362
 20
910.0000000000028
 30
0.0
 11
5997.553191489351
 21
910.0000000000028
 31
0.0
  0
LINE
  5
C0F2
330
747D
100
AcDbEntity
  8
0
 62
     0
100
AcDbLine
 10
5337.553191489362
 20
910.0000000000028
 30
0.0
 11
5997.553191489351
 21
910.0000000000028
 31
0.0
  0
LINE
  5
C0F3
330
747D
100
AcDbEntity
  8
0
 62
     0
100
AcDbLine
 10
5337.553191489362
 20
790.000000000009
 30
0.0
 11
5997.553191489351
 21
790.000000000009
 31
0.0
  0
LINE
  5
C0F4
330
747D
100
AcDbEntity
  8
0
 62
     0
100
AcDbLine
 10
5337.553191489362
 20
710.0000000000027
 30
0.0
 11
5997.553191489351
 21
710.0000000000027
 31
0.0
  0
LINE
  5
C0F5
330
747D
100
AcDbEntity
  8
0
 62
     0
100
AcDbLine
 10
5337.553191489362
 20
570.0000000000045
 30
0.0
 11
5997.553191489351
 21
570.0000000000045
 31
0.0
  0
LINE
  5
C0F6
330
747D
100
AcDbEntity
  8
0
100
AcDbLine
 10
5337.553191489362
 20
510.0000000000027
 30
0.0
 11
7175.0
 21
510.0000000000027
 31
0.0
  0
HATCH
  5
C0F7
330
747D
100
AcDbEntity
  8
0
100
AcDbHatch
 10
0.0
 20
0.0
 30
0.0
210
0.0
220
0.0
230
1.0
  2
SOLID
 70
     1
 71
     0
 91
        4
 92
        7
 72
     1
 73
     1
 93
        2
 10
5973.908260611745
 20
354.8500075675886
 42
1.0
 10
5813.957839466559
 20
354.8500075675886
 42
1.0
 97
        0
 92
       22
 72
     1
 73
     1
 93
        2
 10
5969.908260611744
 20
354.8500075675886
 42
-1.0
 10
5817.957839466559
 20
354.8500075675886
 42
-1.0
 97
        0
 92
      136
 93
        4
 72
     1
 10
5853.021607370218
 20
348.2436463095206
 11
5938.164464513072
 21
348.2436463095206
 72
     1
 10
5938.164464513087
 20
348.2436463095206
 11
5938.164464513087
 21
428.1293605952349
 72
     1
 10
5938.164464513087
 20
428.1293605952349
 11
5853.021607370232
 21
428.1293605952349
 72
     1
 10
5853.021607370218
 20
428.1293605952349
 11
5853.021607370218
 21
348.2436463095207
 97
        0
 92
      136
 93
        4
 72
     1
 10
5852.880989765588
 20
294.254199261039
 11
5936.423846908445
 21
294.254199261039
 72
     1
 10
5936.423846908452
 20
294.254199261039
 11
5936.423846908452
 21
369.3399135467533
 72
     1
 10
5936.423846908452
 20
369.3399135467533
 11
5852.880989765595
 21
369.3399135467533
 72
     1
 10
5852.880989765588
 20
369.3399135467533
 11
5852.880989765588
 21
294.254199261039
 97
        0
 75
     0
 76
     1
 47
0.0602706122334892
 98
        2
 10
5932.250193149652
 20
423.5987594022187
 10
5932.250193149652
 20
423.5987594022187
  0
CIRCLE
  5
C0F8
330
747D
100
AcDbEntity
  8
0
100
AcDbCircle
 10
5893.933050039173
 20
354.8500075675883
 30
0.0
 40
79.97521057257928
  0
LINE
  5
C0F9
330
747D
100
AcDbEntity
  8
0
 62
     0
100
AcDbLine
 10
5337.553191489362
 20
450.0
 30
0.0
 11
5997.553191489351
 21
450.0
 31
0.0
  0
TEXT
  5
C0FA
330
747D
100
AcDbEntity
  8
0
 48
2.0
100
AcDbText
 10
5648.287171582342
 20
522.0856316808067
 30
0.0
 40
40.0
  1
2003. 7.14
  7
SANWA
100
AcDbText
  0
LINE
  5
C0FB
330
747D
100
AcDbEntity
  8
0
 48
25.0
100
AcDbLine
 10
4133.469910207106
 20
2112.250569887546
 30
0.0
 11
6113.469910207102
 21
2112.250569887546
 31
0.0
  0
LINE
  5
C0FC
330
747D
100
AcDbEntity
  8
0
  6
HIDDEN2
 48
25.0
100
AcDbLine
 10
4123.469910207106
 20
2237.250569887547
 30
0.0
 11
6123.469910207106
 21
2237.250569887547
 31
0.0
  0
LINE
  5
C0FD
330
747D
100
AcDbEntity
  8
枠
100
AcDbLine
 10
625.0
 20
250.0
 30
0.0
 11
7175.0
 21
250.0000000000055
 31
0.0
  0
LINE
  5
C0FE
330
747D
100
AcDbEntity
  8
0
100
AcDbLine
 10
5337.553191489362
 20
990.000000000009
 30
0.0
 11
5337.553191489362
 21
870.0000000000045
 31
0.0
  0
CIRCLE
  5
C0FF
330
747D
100
AcDbEntity
  8
0
 48
25.0
100
AcDbCircle
 10
1117.50024219734
 20
997.4652226668013
 30
0.0
 40
18.0
  0
LINE
  5
C100
330
747D
100
AcDbEntity
  8
0
 48
25.0
100
AcDbLine
 10
967.5002421973404
 20
1220.965222666801
 30
0.0
 11
967.5002421973331
 21
773.9652226668013
 31
0.0
  0
DIMENSION
  5
C101
330
747D
100
AcDbEntity
  8
寸法引出
 48
25.0
100
AcDbDimension
  2
*D18
 10
1117.50024219734
 20
823.2434378874923
 30
0.0
 11
1042.50024219734
 21
873.2434378874923
 31
0.0
 70
    32
  1
50
 71
     5
 42
150.0
  3
SANWA
100
AcDbAlignedDimension
 13
967.5002421973404
 23
923.9652226668013
 33
0.0
 14
1117.50024219734
 24
997.4652226668013
 34
0.0
100
AcDbRotatedDimension
1001
ACAD
1000
DSTYLE
1002
{
1070
    40
1040
25.0
1070
    41
1040
1.5
1070
    43
1040
5.0
1070
    44
1040
0.5
1070
   140
1040
2.0
1070
   147
1040
1.0
1070
   176
1070
   256
1070
   177
1070
   256
1070
   178
1070
   256
1002
}
  0
LINE
  5
C107
330
747D
100
AcDbEntity
  8
0
 48
25.0
100
AcDbLine
 10
1996.230413937665
 20
1027.465222666804
 30
0.0
 11
1996.230413937665
 21
967.465222666804
 31
0.0
  0
LINE
  5
C108
330
747D
100
AcDbEntity
  8
0
 48
25.0
100
AcDbLine
 10
1990.230413937664
 20
1015.465222666804
 30
0.0
 11
1990.230413937664
 21
979.465222666804
 31
0.0
  0
LINE
  5
C115
330
747D
100
AcDbEntity
  8
0
 48
25.0
100
AcDbLine
 10
1900.230413937665
 20
979.465222666804
 30
0.0
 11
1990.230413937664
 21
979.465222666804
 31
0.0
  0
LINE
  5
C116
330
747D
100
AcDbEntity
  8
0
 48
25.0
100
AcDbLine
 10
1900.230413937665
 20
973.4652226668041
 30
0.0
 11
1990.230413937664
 21
973.4652226668041
 31
0.0
  0
LINE
  5
C118
330
747D
100
AcDbEntity
  8
0
 48
25.0
100
AcDbLine
 10
1990.230413937664
 20
973.4652226668041
 30
0.0
 11
1990.230413937664
 21
967.465222666804
 31
0.0
  0
LINE
  5
C119
330
747D
100
AcDbEntity
  8
0
 48
25.0
100
AcDbLine
 10
1990.230413937664
 20
967.465222666804
 30
0.0
 11
1996.230413937665
 21
967.465222666804
 31
0.0
  0
HATCH
  5
C11A
330
747D
100
AcDbEntity
  8
0
100
AcDbHatch
 10
0.0
 20
0.0
 30
0.0
210
0.0
220
0.0
230
1.0
  2
SOLID
 70
     1
 71
     0
 91
        4
 92
        7
 72
     1
 73
     1
 93
        2
 10
5814.65529385471
 20
121.5279938300057
 42
1.0
 10
5654.704872709524
 20
121.5279938300057
 42
1.0
 97
        0
 92
       22
 72
     1
 73
     1
 93
        2
 10
5810.65529385471
 20
121.5279938300057
 42
-1.0
 10
5658.704872709524
 20
121.5279938300057
 42
-1.0
 97
        0
 92
      136
 93
        4
 72
     1
 10
5694.397212041746
 20
118.5216325719377
 11
5778.282926327461
 21
118.5216325719377
 72
     1
 10
5778.282926327461
 20
118.5216325719377
 11
5778.282926327461
 21
194.6359182862235
 72
     1
 10
5778.282926327461
 20
194.6359182862235
 11
5694.397212041746
 21
194.6359182862235
 72
     1
 10
5694.397212041746
 20
194.6359182862235
 11
5694.397212041746
 21
118.5216325719378
 97
        0
 92
      136
 93
        4
 72
     1
 10
5692.828023008566
 20
58.98932838059899
 11
5777.970880151421
 21
58.98932838059899
 72
     1
 10
5777.970880151436
 20
58.98932838059899
 11
5777.970880151436
 21
138.8750426663132
 72
     1
 10
5777.970880151436
 20
138.8750426663132
 11
5692.82802300858
 21
138.8750426663132
 72
     1
 10
5692.828023008566
 20
138.8750426663132
 11
5692.828023008566
 21
58.98932838059898
 97
        0
 75
     0
 76
     1
 47
0.0602706122334892
 98
        2
 10
5772.997226392618
 20
190.2767456646359
 10
5772.997226392618
 20
190.2767456646359
  0
CIRCLE
  5
C11B
330
747D
100
AcDbEntity
  8
0
100
AcDbCircle
 10
5734.680083282139
 20
121.5279938300054
 30
0.0
 40
79.97521057257928
  0
CIRCLE
  5
C11C
330
747D
100
AcDbEntity
  8
0
100
AcDbCircle
 10
5734.680083282139
 20
121.5279938300054
 30
0.0
 40
75.97521057257927
  0
HATCH
  5
C11D
330
747D
100
AcDbEntity
  8
0
100
AcDbHatch
 10
0.0
 20
0.0
 30
0.0
210
0.0
220
0.0
230
1.0
  2
SOLID
 70
     1
 71
     0
 91
        4
 92
        7
 72
     1
 73
     1
 93
        2
 10
5612.329075578863
 20
121.5279938300057
 42
1.0
 10
5452.378654433735
 20
121.5279938300057
 42
1.0
 97
        0
 92
       22
 72
     1
 73
     1
 93
        2
 10
5608.329075578862
 20
121.5279938300057
 42
-1.0
 10
5456.378654433706
 20
121.5279938300057
 42
-1.0
 97
        0
 92
      136
 93
        4
 72
     1
 10
5491.556708051649
 20
113.8021031153554
 11
5576.470993765935
 21
113.8021031153554
 72
     1
 10
5576.47099376595
 20
113.8021031153554
 11
5576.47099376595
 21
193.0021031153554
 72
     1
 10
5576.47099376595
 20
193.0021031153554
 11
5491.556708051663
 21
193.0021031153554
 72
     1
 10
5491.556708051649
 20
193.0021031153554
 11
5491.556708051649
 21
113.8021031153554
 97
        0
 92
       24
 93
        4
 72
     1
 10
5491.873233304184
 20
54.37358697902701
 11
5574.273233304186
 21
54.37358697902701
 72
     1
 10
5574.27323330415
 20
54.37358697902701
 11
5574.27323330415
 21
126.0307298361698
 72
     1
 10
5574.27323330415
 20
126.0307298361698
 11
5491.873233304148
 21
126.0307298361698
 72
     1
 10
5491.873233304184
 20
126.0307298361698
 11
5491.873233304184
 21
54.37358697902702
 97
        0
 75
     0
 76
     1
 47
0.0602706122334892
 98
        2
 10
5570.671008116798
 20
190.2767456646359
 10
5570.671008116798
 20
190.2767456646359
  0
TEXT
  5
C11E
330
747D
100
AcDbEntity
  8
0
 48
2.0
100
AcDbText
 10
5504.756708051675
 20
132.7163888296409
 30
0.0
 40
40.0
  1
蒔
  7
SANWA
100
AcDbText
  0
CIRCLE
  5
C11F
330
747D
100
AcDbEntity
  8
0
100
AcDbCircle
 10
5532.353865006328
 20
121.5279938300054
 30
0.0
 40
75.97521057257927
  0
CIRCLE
  5
C120
330
747D
100
AcDbEntity
  8
0
100
AcDbCircle
 10
5532.353865006328
 20
121.5279938300054
 30
0.0
 40
79.97521057257928
  0
TEXT
  5
C121
330
747D
100
AcDbEntity
  8
0
 48
2.0
100
AcDbText
 10
5707.082926327487
 20
134.8644897147951
 30
0.0
 40
40.0
  1
大
  7
SANWA
100
AcDbText
  0
TEXT
  5
C122
330
747D
100
AcDbEntity
  8
0
 48
2.0
100
AcDbText
 10
5503.816090447028
 20
71.80215840759865
 30
0.0
 40
40.0
  1
田
  7
SANWA
100
AcDbText
  0
TEXT
  5
C123
330
747D
100
AcDbEntity
  8
0
 48
2.0
100
AcDbText
 10
5706.142308722883
 20
78.24647123774139
 30
0.0
 40
40.0
  1
嶋
  7
SANWA
100
AcDbText
  0
LINE
  5
C124
330
747D
100
AcDbEntity
  8
0
 62
     0
100
AcDbLine
 10
5337.553191489362
 20
630.0000000000063
 30
0.0
 11
5337.553191489362
 21
250.0000000000055
 31
0.0
  0
LINE
  5
C125
330
747D
100
AcDbEntity
  8
0
100
AcDbLine
 10
5337.553191489362
 20
570.0000000000045
 30
0.0
 11
5337.553191489362
 21
630.0000000000063
 31
0.0
  0
LINE
  5
C126
330
747D
100
AcDbEntity
  8
0
100
AcDbLine
 10
5337.553191489362
 20
630.0000000000063
 30
0.0
 11
5337.553191489362
 21
499.8919161829462
 31
0.0
  0
LINE
  5
C127
330
747D
100
AcDbEntity
  8
0
100
AcDbLine
 10
5557.553191489343
 20
250.0000000000055
 30
0.0
 11
5557.553191489343
 21
570.0000000000045
 31
0.0
  0
LINE
  5
C128
330
747D
100
AcDbEntity
  8
0
100
AcDbLine
 10
5777.553191489325
 20
250.0000000000055
 30
0.0
 11
5777.553191489325
 21
510.0000000000027
 31
0.0
  0
TEXT
  5
C129
330
747D
100
AcDbEntity
  8
0
 48
2.0
100
AcDbText
 10
5422.081935578171
 20
356.9821364303525
 30
0.0
 40
40.0
  1
河
  7
SANWA
100
AcDbText
  0
HATCH
  5
C12A
330
747D
100
AcDbEntity
  8
0
100
AcDbHatch
 10
0.0
 20
0.0
 30
0.0
210
0.0
220
0.0
230
1.0
  2
SOLID
 70
     1
 71
     0
 91
        2
 92
        7
 72
     1
 73
     1
 93
        2
 10
5529.654303105345
 20
351.6970659978517
 42
1.0
 10
5369.703881960217
 20
351.6970659978517
 42
1.0
 97
        0
 92
       22
 72
     1
 73
     1
 93
        2
 10
5525.654303105373
 20
351.6970659978517
 42
-1.0
 10
5373.703881960217
 20
351.6970659978517
 42
-1.0
 97
        0
 75
     0
 76
     1
 47
0.0602706122334892
 98
        2
 10
5487.99623564331
 20
420.4458178324818
 10
5487.99623564331
 20
420.4458178324818
  0
CIRCLE
  5
C12B
330
747D
100
AcDbEntity
  8
0
100
AcDbCircle
 10
5449.679092532824
 20
351.6970659978515
 30
0.0
 40
75.97521057257927
  0
CIRCLE
  5
C12C
330
747D
100
AcDbEntity
  8
0
100
AcDbCircle
 10
5449.679092532824
 20
351.6970659978515
 30
0.0
 40
79.97521057257928
  0
TEXT
  5
C12D
330
747D
100
AcDbEntity
  8
0
 48
2.0
100
AcDbText
 10
5421.141317973525
 20
300.3641179532997
 30
0.0
 40
40.0
  1
口
  7
SANWA
100
AcDbText
  0
TEXT
  5
C12E
330
747D
100
AcDbEntity
  8
0
 48
2.0
100
AcDbText
 10
5391.248993407273
 20
522.0856316808067
 30
0.0
 40
40.0
  1
製図
  7
SANWA
100
AcDbText
  0
TEXT
  5
C12F
330
747D
100
AcDbEntity
  8
0
 48
2.0
100
AcDbText
 10
5385.360299888547
 20
459.6196585260768
 30
0.0
 40
40.0
  1
検図
  7
SANWA
100
AcDbText
  0
LINE
  5
C130
330
747D
100
AcDbEntity
  8
0
100
AcDbLine
 10
5337.553191489362
 20
570.0000000000045
 30
0.0
 11
5337.553191489362
 21
510.0000000000027
 31
0.0
  0
TEXT
  5
C131
330
747D
100
AcDbEntity
  8
0
 48
2.0
100
AcDbText
 10
5615.12664304264
 20
461.8928629188303
 30
0.0
 40
40.0
  1
設計
  7
SANWA
100
AcDbText
  0
LINE
  5
C132
330
747D
100
AcDbEntity
  8
0
 62
     0
100
AcDbLine
 10
5337.553191489362
 20
870.0000000000045
 30
0.0
 11
5337.553191489362
 21
630.0000000000063
 31
0.0
  0
LINE
  5
C133
330
747D
100
AcDbEntity
  8
0
100
AcDbLine
 10
5337.553191489362
 20
726.760945979834
 30
0.0
 11
5337.553191489362
 21
882.1169115701533
 31
0.0
  0
LINE
  5
C134
330
747D
100
AcDbEntity
  8
0
100
AcDbLine
 10
5337.553191489362
 20
670.0000000000045
 30
0.0
 11
5337.553191489362
 21
726.760945979834
 31
0.0
  0
TEXT
  5
C135
330
747D
100
AcDbEntity
  8
0
 48
2.0
100
AcDbText
 10
5572.484217939949
 20
630.9755021622549
 30
0.0
 40
40.0
  1
1 : 25
  7
SANWA
100
AcDbText
  0
TEXT
  5
C136
330
747D
100
AcDbEntity
  8
0
 48
2.0
100
AcDbText
 10
5544.098121932351
 20
723.9731911170228
 30
0.0
 40
40.0
  1
縮    尺
  7
SANWA
100
AcDbText
  0
TEXT
  5
C137
330
747D
100
AcDbEntity
  8
0
 48
2.0
100
AcDbText
 10
5542.345604725415
 20
928.7954769413772
 30
0.0
 40
40.0
  1
図面
  7
SANWA
100
AcDbText
  0
TEXT
  5
C138
330
747D
100
AcDbEntity
  8
0
 48
2.0
100
AcDbText
 10
5653.898808185753
 20
931.0686527376557
 30
0.0
 40
40.0
  1
番号
  7
SANWA
100
AcDbText
  0
LEADER
  5
C139
330
747D
100
AcDbEntity
  8
寸法引出
 48
25.0
100
AcDbLeader
  3
SANWA
 76
     3
 10
1945.230413937665
 20
1021.465222666804
 30
0.0
 10
2024.260592312752
 20
1108.328197048177
 30
0.0
 10
2512.815765983338
 20
1108.328197048177
 30
0.0
1001
ACAD
1000
DSTYLE
1002
{
1070
    77
1070
     0
1070
    40
1040
25.0
1070
    41
1040
1.5
1070
    43
1040
5.0
1070
    44
1040
0.5
1070
   140
1040
2.0
1070
   147
1040
1.0
1070
   176
1070
   256
1070
   177
1070
   256
1070
   178
1070
   256
1002
}
  0
MTEXT
  5
C13A
330
747D
100
AcDbEntity
  8
寸法引出
 48
25.0
100
AcDbMText
 10
2269.37365517312
 20
1158.217860262669
 30
0.0
 40
50.0
 41
0.0
 71
     5
 72
     1
  1
ｲﾝｻｰﾄM12×32
  7
SANWA
 73
     1
 44
1.0
1001
ACAD
1000
MTEXTBEGIN
1070
    73
1070
     1
1070
    44
1040
1.0
1070
    74
1070
     0
1000
MTEXTEND
  0
LINE
  5
C13B
330
747D
100
AcDbEntity
  8
0
 48
25.0
100
AcDbLine
 10
1900.230413937665
 20
1425.742488370167
 30
0.0
 11
1900.230413937665
 21
773.9652226668013
 31
0.0
  0
MTEXT
  5
C13C
330
747D
100
AcDbEntity
  8
寸法引出
 48
25.0
100
AcDbMText
 10
1756.403498445554
 20
1215.909548903702
 30
0.0
 40
50.0
 41
0.0
 71
     5
 72
     1
  1
天端より150
  7
SANWA
 11
0.0000000000000001
 21
1.0
 31
0.0
 73
     1
 44
1.0
1001
ACAD
1000
MTEXTBEGIN
1070
    73
1070
     1
1070
    44
1040
1.0
1070
    74
1070
     0
1000
MTEXTEND
  0
LINE
  5
C13D
330
747D
100
AcDbEntity
  8
寸法引出
 48
25.0
100
AcDbLine
 10
1814.107410383185
 20
1034.965222666801
 30
0.0
 11
1814.107410383185
 21
1425.742488370167
 31
0.0
  0
LINE
  5
C14B
330
747D
100
AcDbEntity
  8
0
 48
25.0
100
AcDbLine
 10
1900.230413937665
 20
1015.465222666804
 30
0.0
 11
1990.230413937664
 21
1015.465222666804
 31
0.0
  0
LINE
  5
C14C
330
747D
100
AcDbEntity
  8
0
 48
25.0
100
AcDbLine
 10
1900.230413937665
 20
1021.465222666804
 30
0.0
 11
1990.230413937664
 21
1021.465222666804
 31
0.0
  0
LINE
  5
C14D
330
747D
100
AcDbEntity
  8
0
  6
CENTER2
 48
10.0
100
AcDbLine
 10
1870.230413937665
 20
997.4652226668013
 30
0.0
 11
2026.230413937665
 21
997.4652226668013
 31
0.0
  0
SOLID
  5
C14F
330
747D
100
AcDbEntity
  8
寸法引出
 48
25.0
100
AcDbTrace
 10
1807.857410383185
 20
1034.965222666801
 30
0.0
 11
1820.357410383185
 21
1034.965222666801
 31
0.0
 12
1814.107410383185
 22
997.4652226668013
 32
0.0
 13
1814.107410383185
 23
997.4652226668013
 33
0.0
  0
LINE
  5
C150
330
747D
100
AcDbEntity
  8
寸法引出
 48
25.0
100
AcDbLine
 10
1854.830413937667
 20
997.4652226668013
 30
0.0
 11
1801.607410383185
 21
997.4652226668013
 31
0.0
  0
LINE
  5
C151
330
747D
100
AcDbEntity
  8
0
 48
25.0
100
AcDbLine
 10
1990.230413937664
 20
1027.465222666804
 30
0.0
 11
1990.230413937664
 21
1021.465222666804
 31
0.0
  0
LINE
  5
C152
330
747D
100
AcDbEntity
  8
0
 48
25.0
100
AcDbLine
 10
1990.230413937664
 20
1027.465222666804
 30
0.0
 11
1996.230413937665
 21
1027.465222666804
 31
0.0
  0
LINE
  5
C153
330
747D
100
AcDbEntity
  8
0
100
AcDbLine
 10
1235.272270178844
 20
1529.135985872658
 30
0.0
 11
1793.215826409407
 21
1529.135985872658
 31
0.0
  0
TEXT
  5
C154
330
747D
100
AcDbEntity
  8
0
100
AcDbText
 10
1252.740267113017
 20
1549.214260489776
 30
0.0
 40
60.0
  1
継手部詳細図
  7
SANWA
 72
     4
 11
1516.054552827303
 21
1579.89997477549
 31
0.0
100
AcDbText
  0
LEADER
  5
C159
330
747D
100
AcDbEntity
  8
寸法引出
 48
25.0
100
AcDbLeader
  3
SANWA
 76
     2
 10
2241.205978191119
 20
2254.496038441211
 30
0.0
 10
1949.886747186258
 20
2254.496038441211
 30
0.0
1001
ACAD
1000
DSTYLE
1002
{
1070
    77
1070
     0
1070
    40
1040
25.0
1070
    41
1040
1.5
1070
    43
1040
5.0
1070
    44
1040
0.5
1070
   140
1040
2.0
1070
   147
1040
1.0
1070
   176
1070
   256
1070
   177
1070
   256
1070
   178
1070
   256
1002
}
  0
MTEXT
  5
C15B
330
747D
100
AcDbEntity
  8
寸法引出
 48
25.0
100
AcDbMText
 10
2019.256838573401
 20
2293.803175746923
 30
0.0
 40
50.0
 41
0.0
 71
     5
 72
     1
  1
50r
  7
SANWA
 73
     1
 44
1.0
1001
ACAD
1000
MTEXTBEGIN
1070
    73
1070
     1
1070
    44
1040
1.0
1070
    74
1070
     0
1000
MTEXTEND
  0
LINE
  5
C164
330
747D
100
AcDbEntity
  8
0
100
AcDbLine
 10
5997.553191489351
 20
250.0000000000055
 30
0.0
 11
5997.553191489351
 21
990.000000000009
 31
0.0
  0
LINE
  5
C165
330
747D
100
AcDbEntity
  8
0
100
AcDbLine
 10
6077.553191489325
 20
510.0000000000027
 30
0.0
 11
6077.553191489325
 21
990.000000000009
 31
0.0
  0
LINE
  5
C166
330
747D
100
AcDbEntity
  8
0
100
AcDbLine
 10
7425.0
 20
250.0
 30
0.0
 11
7425.0
 21
0.0
 31
0.0
  0
LINE
  5
C167
330
747D
100
AcDbEntity
  8
0
100
AcDbLine
 10
7425.0
 20
0.0
 30
0.0
 11
7175.0
 21
0.0
 31
0.0
  0
TEXT
  5
C168
330
747D
100
AcDbEntity
  8
0
 48
2.0
100
AcDbText
 10
6015.480113215563
 20
541.5684862348999
 30
0.0
 40
28.0
  1
格
  7
SANWA
100
AcDbText
  0
TEXT
  5
C169
330
747D
100
AcDbEntity
  8
0
100
AcDbText
 10
6406.848024316115
 20
570.457142857152
 30
0.0
 40
40.0
  1
300×1500×2000
  7
SANWA
 72
     4
 11
6626.276595744686
 21
590.000000000009
 31
0.0
100
AcDbText
  0
TEXT
  5
C16A
330
747D
100
AcDbEntity
  8
0
100
AcDbText
 10
6277.347189020751
 20
344.5314540178006
 30
0.0
 40
40.0
  1
三和コンクリート工業株式会社
  7
SANWA
100
AcDbText
  0
ARC
  5
C16B
330
747D
100
AcDbEntity
  8
0
100
AcDbCircle
 10
6133.560357219678
 20
372.0146930146711
 30
0.0
 40
69.10631488841319
100
AcDbArc
 50
141.6476737862055
 51
263.3523262138002
  0
ARC
  5
C16C
330
747D
100
AcDbEntity
  8
0
100
AcDbCircle
 10
6133.560357219678
 20
372.0146930146711
 30
0.0
 40
73.1063148884132
100
AcDbArc
 50
138.136495447086
 51
266.8635045529183
  0
ARC
  5
C16D
330
747D
100
AcDbEntity
  8
0
100
AcDbCircle
 10
6133.560357219678
 20
372.0146930146711
 30
0.0
 40
59.10631488841318
100
AcDbArc
 50
142.7788203119016
 51
262.2211796881018
  0
ARC
  5
C16E
330
747D
100
AcDbEntity
  8
0
100
AcDbCircle
 10
6133.560357219678
 20
372.0146930146711
 30
0.0
 40
55.10631488841318
100
AcDbArc
 50
139.1625874111312
 51
265.8374125888738
  0
TEXT
  5
C16F
330
747D
100
AcDbEntity
  8
0
100
AcDbText
 10
6111.181671391569
 20
344.5314540178006
 30
0.0
 40
30.0
  1
和
  7
SANWA
100
AcDbText
  0
TEXT
  5
C170
330
747D
100
AcDbEntity
  8
0
 48
2.0
100
AcDbText
 10
5866.335893084521
 20
368.186503452378
 30
0.0
 40
40.0
  1
中
  7
SANWA
100
AcDbText
  0
ARC
  5
C171
330
747D
100
AcDbEntity
  8
0
100
AcDbCircle
 10
6133.560357219678
 20
372.0146930146711
 30
0.0
 40
55.10631488841318
100
AcDbArc
 50
274.1625874111262
 51
40.83741258886886
  0
ARC
  5
C172
330
747D
100
AcDbEntity
  8
0
100
AcDbCircle
 10
6133.560357219678
 20
372.0146930146711
 30
0.0
 40
59.10631488841318
100
AcDbArc
 50
277.7788203119047
 51
37.22117968809828
  0
ARC
  5
C173
330
747D
100
AcDbEntity
  8
0
100
AcDbCircle
 10
6133.560357219678
 20
372.0146930146711
 30
0.0
 40
73.1063148884132
100
AcDbArc
 50
273.1364954470817
 51
41.86350455291424
  0
ARC
  5
C174
330
747D
100
AcDbEntity
  8
0
100
AcDbCircle
 10
6133.560357219678
 20
372.0146930146711
 30
0.0
 40
69.10631488841319
100
AcDbArc
 50
276.6476737861998
 51
38.35232621379456
  0
HATCH
  5
C175
330
747D
100
AcDbEntity
  8
0
100
AcDbHatch
 10
0.0
 20
0.0
 30
0.0
210
0.0
220
0.0
230
1.0
  2
SOLID
 70
     1
 71
     0
 91
        6
 92
        7
 72
     1
 73
     1
 93
        4
 10
6084.772249800881
 20
426.4596546829295
 42
0.0
 10
6097.525524441357
 20
413.7063800424442
 42
-0.3722683533228753
 10
6169.595189997956
 20
413.7063800424442
 42
0.0
 10
6182.348464638402
 20
426.4596546829324
 42
0.3824979940290045
 97
        0
 92
       22
 72
     1
 73
     1
 93
        4
 10
6176.440513371781
 20
426.2085576657966
 42
0.0
 10
6169.313383793983
 20
419.0814280879919
 42
0.3367429548951066
 10
6097.8073306453
 20
419.0814280879948
 42
0.0
 10
6090.680201067502
 20
426.2085576657938
 42
-0.347770427523089
 97
        0
 92
        7
 72
     1
 73
     1
 93
        4
 10
6175.252044247463
 20
408.0495257929527
 42
-0.6168583269099046
 10
6137.560357219656
 20
317.05374378177
 42
0.0
 10
6137.560357219656
 20
299.0178898205272
 42
0.6292889159379735
 10
6188.00531888791
 20
420.802800433438
 42
0.0
 97
        0
 92
       22
 72
     1
 73
     1
 93
        4
 10
6187.754221870797
 20
414.8948491668107
 42
-0.5873104908889238
 10
6141.560357219656
 20
303.372994627631
 42
0.0
 10
6141.560357219656
 20
313.4522779373469
 42
0.5741105922167471
 10
6180.627092292969
 20
407.7677195890089
 42
0.0
 97
        0
 92
        7
 72
     1
 73
     1
 93
        4
 10
6079.115395551372
 20
420.802800433438
 42
0.6292889159379591
 10
6129.560357219656
 20
299.0178898205272
 42
0.0
 10
6129.560357219656
 20
317.05374378177
 42
-0.6168583269099637
 10
6091.868670191878
 20
408.0495257929527
 42
0.0
 97
        0
 92
       22
 72
     1
 73
     1
 93
        4
 10
6086.493622146313
 20
407.7677195890089
 42
0.5741105922167495
 10
6125.560357219685
 20
313.4522779373469
 42
0.0
 10
6125.560357219685
 20
303.372994627631
 42
-0.5873104908889167
 10
6079.366492568516
 20
414.8948491668107
 42
0.0
 97
        0
 75
     0
 76
     1
 47
0.0143554168026844
 98
        6
 10
6165.580827973259
 20
434.8088762841882
 10
6165.580827973259
 20
434.8088762841882
 10
6180.523262244765
 20
411.5531024217716
 10
6180.523262244765
 20
411.5531024217716
 10
6088.282422260032
 20
410.6917769343397
 10
6088.282422260032
 20
410.6917769343397
  0
CIRCLE
  5
C176
330
747D
100
AcDbEntity
  8
0
100
AcDbCircle
 10
5893.933050039173
 20
354.8500075675883
 30
0.0
 40
75.97521057257927
  0
TEXT
  5
C177
330
747D
100
AcDbEntity
  8
0
 48
2.0
100
AcDbText
 10
5865.395275479918
 20
311.5684849753243
 30
0.0
 40
40.0
  1
川
  7
SANWA
100
AcDbText
  0
LINE
  5
C178
330
747D
100
AcDbEntity
  8
0
100
AcDbLine
 10
6129.560357219681
 20
299.0178898205277
 30
0.0
 11
6129.560357219681
 21
317.0537437817702
 31
0.0
  0
LINE
  5
C179
330
747D
100
AcDbEntity
  8
0
100
AcDbLine
 10
6137.560357219674
 20
299.0178898205277
 30
0.0
 11
6137.560357219674
 21
317.0537437817702
 31
0.0
  0
LINE
  5
C17A
330
747D
100
AcDbEntity
  8
0
100
AcDbLine
 10
6141.56035721967
 20
303.3729946276308
 30
0.0
 11
6141.56035721967
 21
313.4522779373465
 31
0.0
  0
LINE
  5
C17B
330
747D
100
AcDbEntity
  8
0
100
AcDbLine
 10
6125.560357219685
 20
303.3729946276308
 30
0.0
 11
6125.560357219685
 21
313.4522779373465
 31
0.0
  0
ARC
  5
C17C
330
747D
100
AcDbEntity
  8
0
100
AcDbCircle
 10
6133.560357219678
 20
372.0146930146711
 30
0.0
 40
69.10631488841319
100
AcDbArc
 50
51.64767378620888
 51
128.3523262137999
  0
ARC
  5
C17D
330
747D
100
AcDbEntity
  8
0
100
AcDbCircle
 10
6133.560357219678
 20
372.0146930146711
 30
0.0
 40
73.1063148884132
100
AcDbArc
 50
48.13649544708286
 51
131.8635045529172
  0
LINE
  5
C17E
330
747D
100
AcDbEntity
  8
0
100
AcDbLine
 10
6169.595189997973
 20
413.7063800424466
 30
0.0
 11
6182.348464638428
 21
426.4596546829352
 31
0.0
  0
LINE
  5
C17F
330
747D
100
AcDbEntity
  8
0
100
AcDbLine
 10
6169.313383793997
 20
419.0814280879976
 30
0.0
 11
6176.440513371792
 21
426.2085576657964
 31
0.0
  0
TEXT
  5
C180
330
747D
100
AcDbEntity
  8
0
 48
2.0
100
AcDbText
 10
5831.24899340728
 20
462.0856316808048
 30
0.0
 40
40.0
  1
製図
  7
SANWA
100
AcDbText
  0
ARC
  5
C181
330
747D
100
AcDbEntity
  8
0
100
AcDbCircle
 10
6133.560357219678
 20
372.0146930146711
 30
0.0
 40
55.10631488841318
100
AcDbArc
 50
49.1625874111309
 51
130.8374125888694
  0
ARC
  5
C182
330
747D
100
AcDbEntity
  8
0
100
AcDbCircle
 10
6133.560357219678
 20
372.0146930146711
 30
0.0
 40
59.10631488841318
100
AcDbArc
 50
52.77882031190348
 51
127.2211796880965
  0
TEXT
  5
C183
330
747D
100
AcDbEntity
  8
0
100
AcDbText
 10
6111.181671391569
 20
384.3868193377375
 30
0.0
 40
30.0
  1
三
  7
SANWA
100
AcDbText
  0
LINE
  5
C184
330
747D
100
AcDbEntity
  8
0
100
AcDbLine
 10
6091.868670191892
 20
408.0495257929551
 30
0.0
 11
6079.037959089786
 21
420.8802368950783
 31
0.0
  0
LINE
  5
C185
330
747D
100
AcDbEntity
  8
0
100
AcDbLine
 10
6086.493622146329
 20
407.7677195890092
 30
0.0
 11
6079.366492568537
 21
414.8948491668079
 31
0.0
  0
LINE
  5
C186
330
747D
100
AcDbEntity
  8
0
100
AcDbLine
 10
6097.525524441382
 20
413.7063800424466
 30
0.0
 11
6084.694813339276
 21
426.5370911445698
 31
0.0
  0
LINE
  5
C187
330
747D
100
AcDbEntity
  8
0
100
AcDbLine
 10
6097.807330645312
 20
419.0814280879976
 30
0.0
 11
6090.680201067517
 21
426.2085576657909
 31
0.0
  0
LINE
  5
C188
330
747D
100
AcDbEntity
  8
0
100
AcDbLine
 10
6180.627092292983
 20
407.7677195890092
 30
0.0
 11
6187.754221870775
 21
414.8948491668079
 31
0.0
  0
LINE
  5
C189
330
747D
100
AcDbEntity
  8
0
100
AcDbLine
 10
6175.252044247463
 20
408.0495257929551
 30
0.0
 11
6188.005318887917
 21
420.8028004334383
 31
0.0
  0
TEXT
  5
C18A
330
747D
100
AcDbEntity
  8
0
100
AcDbText
 10
6362.9623100304
 20
890.0000000000027
 30
0.0
 40
40.0
  1
マルチスリット側溝
  7
SANWA
 72
     4
 11
6626.276595744686
 21
910.0000000000028
 31
0.0
100
AcDbText
  0
LINE
  5
C18B
330
747D
100
AcDbEntity
  8
0
 62
     0
100
AcDbLine
 10
5997.553191489351
 20
830.0000000000064
 30
0.0
 11
7175.0
 21
830.0000000000064
 31
0.0
  0
LINE
  5
C18C
330
747D
100
AcDbEntity
  8
0
 62
     0
100
AcDbLine
 10
5997.553191489351
 20
670.0000000000045
 30
0.0
 11
7175.0
 21
670.0000000000045
 31
0.0
  0
TEXT
  5
C18D
330
747D
100
AcDbEntity
  8
0
 48
2.0
100
AcDbText
 10
6014.605708847332
 20
777.3913655001133
 30
0.0
 40
28.0
  1
呼
  7
SANWA
100
AcDbText
  0
TEXT
  5
C18E
330
747D
100
AcDbEntity
  8
0
 48
2.0
100
AcDbText
 10
6015.480113215563
 20
601.1410255214623
 30
0.0
 40
28.0
  1
規
  7
SANWA
100
AcDbText
  0
TEXT
  5
C18F
330
747D
100
AcDbEntity
  8
0
 48
2.0
100
AcDbText
 10
6014.208558144768
 20
739.0543600013415
 30
0.0
 40
28.0
  1
び
  7
SANWA
100
AcDbText
  0
TEXT
  5
C190
330
747D
100
AcDbEntity
  8
0
 48
2.0
100
AcDbText
 10
6014.775609774872
 20
699.8772475912174
 30
0.0
 40
28.0
  1
名
  7
SANWA
100
AcDbText
  0
TEXT
  5
C191
330
747D
100
AcDbEntity
  8
0
 48
2.0
100
AcDbText
 10
6014.721730996193
 20
868.3271054076557
 30
0.0
 40
28.0
  1
名
  7
SANWA
100
AcDbText
  0
TEXT
  5
C192
330
747D
100
AcDbEntity
  8
0
 48
2.0
100
AcDbText
 10
6016.23849543494
 20
933.9614944784161
 30
0.0
 40
28.0
  1
品
  7
SANWA
100
AcDbText
  0
LINE
  5
C193
330
747D
100
AcDbEntity
  8
0
100
AcDbLine
 10
5997.553191489351
 20
990.000000000009
 30
0.0
 11
6035.462120509059
 21
990.000000000009
 31
0.0
  0
LINE
  5
C194
330
747D
100
AcDbEntity
  8
0
 48
25.0
100
AcDbLine
 10
4123.469910207106
 20
3737.250569887546
 30
0.0
 11
6123.469910207106
 21
3737.250569887546
 31
0.0
  0
DIMENSION
  5
C195
330
747D
100
AcDbEntity
  8
寸法引出
 48
25.0
100
AcDbDimension
  2
*D11
 10
6123.469910207106
 20
4070.279774099494
 30
0.0
 11
5123.469910207106
 21
4120.279774099494
 31
0.0
 70
    32
 71
     5
 42
2000.0
  3
SANWA
100
AcDbAlignedDimension
 13
4123.469910207106
 23
3737.250569887546
 33
0.0
 14
6123.469910207106
 24
3737.250569887546
 34
0.0
100
AcDbRotatedDimension
1001
ACAD
1000
DSTYLE
1002
{
1070
    40
1040
25.0
1070
    41
1040
1.5
1070
    43
1040
5.0
1070
    44
1040
0.5
1070
   140
1040
2.0
1070
   147
1040
1.0
1070
   176
1070
   256
1070
   177
1070
   256
1070
   178
1070
   256
1002
}
  0
DIMENSION
  5
C196
330
747D
100
AcDbEntity
  8
寸法引出
 48
25.0
100
AcDbDimension
  2
*D10
 10
6003.469910207106
 20
3947.151702602744
 30
0.0
 11
5623.469910207106
 21
3997.151702602744
 31
0.0
 70
    32
 71
     5
 42
760.0
  3
SANWA
100
AcDbAlignedDimension
 13
5243.469910207107
 23
3737.250569887546
 33
0.0
 14
6003.469910207106
 24
3737.250569887546
 34
0.0
100
AcDbRotatedDimension
1001
ACAD
1000
DSTYLE
1002
{
1070
   279
1070
     1
1070
    40
1040
25.0
1070
    41
1040
1.5
1070
    43
1040
5.0
1070
    44
1040
0.5
1070
   140
1040
2.0
1070
   147
1040
1.0
1070
   176
1070
   256
1070
   177
1070
   256
1070
   178
1070
   256
1002
}
  0
LINE
  5
C197
330
747D
100
AcDbEntity
  8
枠
100
AcDbLine
 10
625.0
 20
5000.0
 30
0.0
 11
7175.0
 21
5000.0
 31
0.0
  0
TEXT
  5
C1C2
330
747D
100
AcDbEntity
  8
0
100
AcDbText
 10
2035.761433941303
 20
4186.804935819441
 30
0.0
 40
60.0
  1
正面図
  7
SANWA
 72
     4
 11
2167.418576798445
 21
4216.633507248011
 31
0.0
100
AcDbText
  0
LINE
  5
C1C3
330
747D
100
AcDbEntity
  8
0
100
AcDbLine
 10
2040.481683970029
 20
4165.869518345186
 30
0.0
 11
2287.46146519261
 21
4165.869518345186
 31
0.0
  0
DIMENSION
  5
C1C4
330
747D
100
AcDbEntity
  8
寸法引出
 48
25.0
100
AcDbDimension
  2
*D16
 10
5243.469910207107
 20
3947.151702602744
 30
0.0
 11
5123.469910207106
 21
3997.151702602744
 31
0.0
 70
    32
 71
     5
 42
240.0
  3
SANWA
100
AcDbAlignedDimension
 13
5003.469910207106
 23
3737.250569887546
 33
0.0
 14
5243.469910207107
 24
3737.250569887546
 34
0.0
100
AcDbRotatedDimension
1001
ACAD
1000
DSTYLE
1002
{
1070
   279
1070
     1
1070
    40
1040
25.0
1070
    41
1040
1.5
1070
    43
1040
5.0
1070
    44
1040
0.5
1070
   140
1040
2.0
1070
   147
1040
1.0
1070
   176
1070
   256
1070
   177
1070
   256
1070
   178
1070
   256
1002
}
  0
DIMENSION
  5
C1C5
330
747D
100
AcDbEntity
  8
寸法引出
 48
25.0
100
AcDbDimension
  2
*D13
 10
4243.469910207106
 20
3947.151702602744
 30
0.0
 11
4183.469910207106
 21
3997.151702602744
 31
0.0
 70
    32
 71
     5
 42
120.0
  3
SANWA
100
AcDbAlignedDimension
 13
4123.469910207106
 23
3737.250569887546
 33
0.0
 14
4243.469910207106
 24
3737.250569887546
 34
0.0
100
AcDbRotatedDimension
1001
ACAD
1000
DSTYLE
1002
{
1070
    40
1040
25.0
1070
    41
1040
1.5
1070
    43
1040
5.0
1070
    44
1040
0.5
1070
   140
1040
2.0
1070
   147
1040
1.0
1070
   176
1070
   256
1070
   177
1070
   256
1070
   178
1070
   256
1002
}
  0
DIMENSION
  5
C1C6
330
747D
100
AcDbEntity
  8
寸法引出
 48
25.0
100
AcDbDimension
  2
*D12
 10
5003.469910207106
 20
3947.151702602744
 30
0.0
 11
4623.469910207106
 21
3997.151702602744
 31
0.0
 70
    32
 71
     5
 42
760.0
  3
SANWA
100
AcDbAlignedDimension
 13
4243.469910207106
 23
3737.250569887546
 33
0.0
 14
5003.469910207106
 24
3737.250569887546
 34
0.0
100
AcDbRotatedDimension
1001
ACAD
1000
DSTYLE
1002
{
1070
   279
1070
     1
1070
    40
1040
25.0
1070
    41
1040
1.5
1070
    43
1040
5.0
1070
    44
1040
0.5
1070
   140
1040
2.0
1070
   147
1040
1.0
1070
   176
1070
   256
1070
   177
1070
   256
1070
   178
1070
   256
1002
}
  0
DIMENSION
  5
C1C7
330
747D
100
AcDbEntity
  8
寸法引出
 48
25.0
100
AcDbDimension
  2
*D14
 10
4173.469910207106
 20
3452.175576881784
 30
0.0
 11
4148.469910207106
 21
3502.175576881783
 31
0.0
 70
    32
 71
     5
 42
50.0
  3
SANWA
100
AcDbAlignedDimension
 13
4123.469910207106
 23
3562.750569887546
 33
0.0
 14
4173.469910207106
 24
3587.250569887546
 34
0.0
100
AcDbRotatedDimension
1001
ACAD
1000
DSTYLE
1002
{
1070
    40
1040
25.0
1070
    41
1040
1.5
1070
    43
1040
5.0
1070
    44
1040
0.5
1070
   140
1040
2.0
1070
   147
1040
1.0
1070
   176
1070
   256
1070
   177
1070
   256
1070
   178
1070
   256
1002
}
  0
DIMENSION
  5
C1C8
330
747D
100
AcDbEntity
  8
寸法引出
 48
25.0
100
AcDbDimension
  2
*D15
 10
3996.237552926137
 20
3737.250569887546
 30
0.0
 11
3946.237552926137
 21
3662.250569887547
 31
0.0
 70
    32
 71
     5
 42
150.0
  3
SANWA
100
AcDbAlignedDimension
 13
4123.469910207106
 23
3587.250569887546
 33
0.0
 14
4123.469910207106
 24
3737.250569887546
 34
0.0
 50
90.0
100
AcDbRotatedDimension
1001
ACAD
1000
DSTYLE
1002
{
1070
    40
1040
25.0
1070
    41
1040
1.5
1070
    43
1040
5.0
1070
    44
1040
0.5
1070
   140
1040
2.0
1070
   147
1040
1.0
1070
   176
1070
   256
1070
   177
1070
   256
1070
   178
1070
   256
1002
}
  0
CIRCLE
  5
C1CB
330
747D
100
AcDbEntity
  8
0
 48
25.0
100
AcDbCircle
 10
4173.469910207106
 20
3587.250569887546
 30
0.0
 40
6.0
  0
LINE
  5
C1D2
330
747D
100
AcDbEntity
  8
0
  6
HIDDEN2
 48
10.0
100
AcDbLine
 10
4233.469910207106
 20
3704.250569887546
 30
0.0
 11
4253.469910207106
 21
3704.250569887546
 31
0.0
  0
LINE
  5
C1D3
330
747D
100
AcDbEntity
  8
0
  6
HIDDEN2
 48
10.0
100
AcDbLine
 10
4233.469910207106
 20
3737.250569887546
 30
0.0
 11
4233.469910207106
 21
3704.250569887546
 31
0.0
  0
LINE
  5
C1D4
330
747D
100
AcDbEntity
  8
0
  6
HIDDEN2
 48
10.0
100
AcDbLine
 10
4253.469910207106
 20
3737.250569887546
 30
0.0
 11
4253.469910207106
 21
3704.250569887546
 31
0.0
  0
LINE
  5
C1D5
330
747D
100
AcDbEntity
  8
0
 48
25.0
100
AcDbLine
 10
5093.46991020711
 20
2747.250569887548
 30
0.0
 11
5153.469910207107
 21
2747.250569887548
 31
0.0
  0
LINE
  5
C1D6
330
747D
100
AcDbEntity
  8
0
 48
25.0
100
AcDbLine
 10
5123.469910207109
 20
2777.250569887548
 30
0.0
 11
5123.469910207106
 21
2717.250569887548
 31
0.0
  0
CIRCLE
  5
C1D7
330
747D
100
AcDbEntity
  8
0
 48
25.0
100
AcDbCircle
 10
5123.469910207106
 20
2747.250569887548
 30
0.0
 40
16.0
  0
CIRCLE
  5
C1D8
330
747D
100
AcDbEntity
  8
0
 48
25.0
100
AcDbCircle
 10
5123.469910207106
 20
2747.250569887548
 30
0.0
 40
17.5
  0
LINE
  5
C1D9
330
747D
100
AcDbEntity
  8
0
  6
HIDDEN2
 48
10.0
100
AcDbLine
 10
4993.469910207107
 20
3737.250569887546
 30
0.0
 11
4993.469910207107
 21
3704.250569887546
 31
0.0
  0
LINE
  5
C1DA
330
747D
100
AcDbEntity
  8
0
  6
HIDDEN2
 48
10.0
100
AcDbLine
 10
5013.469910207106
 20
3737.250569887546
 30
0.0
 11
5013.469910207106
 21
3704.250569887546
 31
0.0
  0
LINE
  5
C1DB
330
747D
100
AcDbEntity
  8
0
  6
HIDDEN2
 48
10.0
100
AcDbLine
 10
4993.469910207107
 20
3704.250569887546
 30
0.0
 11
5013.469910207106
 21
3704.250569887546
 31
0.0
  0
LINE
  5
C1DC
330
747D
100
AcDbEntity
  8
0
  6
HIDDEN2
 48
10.0
100
AcDbLine
 10
5233.469910207106
 20
3704.250569887546
 30
0.0
 11
5253.469910207106
 21
3704.250569887546
 31
0.0
  0
LINE
  5
C1DD
330
747D
100
AcDbEntity
  8
0
  6
HIDDEN2
 48
10.0
100
AcDbLine
 10
5233.469910207106
 20
3737.250569887546
 30
0.0
 11
5233.469910207106
 21
3704.250569887546
 31
0.0
  0
LINE
  5
C1DE
330
747D
100
AcDbEntity
  8
0
  6
HIDDEN2
 48
10.0
100
AcDbLine
 10
5253.469910207106
 20
3737.250569887546
 30
0.0
 11
5253.469910207106
 21
3704.250569887546
 31
0.0
  0
TEXT
  5
C1DF
330
747D
100
AcDbEntity
  8
0
100
AcDbText
 10
4130.877350444881
 20
4186.462078676586
 30
0.0
 40
60.0
  1
側面図
  7
SANWA
 72
     4
 11
4262.534493302024
 21
4216.633507248015
 31
0.0
100
AcDbText
  0
LINE
  5
C1E0
330
747D
100
AcDbEntity
  8
0
100
AcDbLine
 10
4138.163786169985
 20
4165.869518345186
 30
0.0
 11
4385.143567392566
 21
4165.869518345186
 31
0.0
  0
LINE
  5
C1E1
330
747D
100
AcDbEntity
  8
0
100
AcDbLine
 10
2384.312133845662
 20
4500.0
 30
0.0
 11
5290.761576616435
 21
4500.0
 31
0.0
  0
LINE
  5
C1E2
330
747D
100
AcDbEntity
  8
0
100
AcDbLine
 10
2384.312133845662
 20
4480.000000000001
 30
0.0
 11
5290.761576616435
 21
4480.000000000001
 31
0.0
  0
TEXT
  5
C1E3
330
747D
100
AcDbEntity
  8
0
100
AcDbText
 10
2420.801058842517
 20
4537.948317370436
 30
0.0
 40
70.0
  1
マルチスリット側溝 ３００×１５００×２０００
  7
SANWA
 72
     4
 11
3572.801058842517
 21
4572.948317370436
 31
0.0
100
AcDbText
  0
TEXT
  5
C1E4
330
747D
100
AcDbEntity
  8
0
100
AcDbText
 10
4908.464691771168
 20
4544.491174513294
 30
0.0
 40
60.0
  1
W=1507㎏
  7
SANWA
 72
     4
 11
5084.007548914025
 21
4572.948317370436
 31
0.0
100
AcDbText
  0
DIMENSION
  5
C1E5
330
747D
100
AcDbEntity
  8
寸法引出
 48
25.0
100
AcDbDimension
  2
*D17
 10
6123.469910207106
 20
3947.151702602744
 30
0.0
 11
6063.469910207107
 21
3997.151702602744
 31
0.0
 70
    32
 71
     5
 42
120.0
  3
SANWA
100
AcDbAlignedDimension
 13
6003.469910207106
 23
3737.250569887546
 33
0.0
 14
6123.469910207106
 24
3737.250569887546
 34
0.0
100
AcDbRotatedDimension
1001
ACAD
1000
DSTYLE
1002
{
1070
   279
1070
     1
1070
    40
1040
25.0
1070
    41
1040
1.5
1070
    43
1040
5.0
1070
    44
1040
0.5
1070
   140
1040
2.0
1070
   147
1040
1.0
1070
   176
1070
   256
1070
   177
1070
   256
1070
   178
1070
   256
1002
}
  0
CIRCLE
  5
C1E8
330
747D
100
AcDbEntity
  8
0
 48
25.0
100
AcDbCircle
 10
6073.469910207106
 20
3587.250569887546
 30
0.0
 40
6.0
  0
LINE
  5
C1EF
330
747D
100
AcDbEntity
  8
0
  6
HIDDEN2
 48
10.0
100
AcDbLine
 10
5993.469910207107
 20
3704.250569887546
 30
0.0
 11
6013.469910207106
 21
3704.250569887546
 31
0.0
  0
LINE
  5
C1F0
330
747D
100
AcDbEntity
  8
0
  6
HIDDEN2
 48
10.0
100
AcDbLine
 10
5993.469910207107
 20
3737.250569887546
 30
0.0
 11
5993.469910207107
 21
3704.250569887546
 31
0.0
  0
LINE
  5
C1F1
330
747D
100
AcDbEntity
  8
0
  6
HIDDEN2
 48
10.0
100
AcDbLine
 10
6013.469910207106
 20
3737.250569887546
 30
0.0
 11
6013.469910207106
 21
3704.250569887546
 31
0.0
  0
LINE
  5
C1F2
330
747D
100
AcDbEntity
  8
0
100
AcDbLine
 10
7425.0
 20
5250.0
 30
0.0
 11
7425.0
 21
5000.0
 31
0.0
  0
LINE
  5
C1F3
330
747D
100
AcDbEntity
  8
0
100
AcDbLine
 10
7175.0
 20
5250.0
 30
0.0
 11
7425.0
 21
5250.0
 31
0.0
  0
LINE
  5
C604
330
747D
100
AcDbEntity
  8
0
 48
25.0
100
AcDbLine
 10
4123.469910207106
 20
2142.250569887546
 30
0.0
 11
6123.469910207106
 21
2142.250569887546
 31
0.0
  0
LINE
  5
C607
330
747D
100
AcDbEntity
  8
0
 48
25.0
100
AcDbLine
 10
4123.469910207106
 20
2122.250569887546
 30
0.0
 11
4133.469910207106
 21
2112.250569887546
 31
0.0
  0
LINE
  5
C6A6
330
747D
100
AcDbEntity
  8
0
 48
25.0
100
AcDbLine
 10
6113.469910207107
 20
2112.250569887546
 30
0.0
 11
6123.469910207106
 21
2122.250569887546
 31
0.0
  0
DIMENSION
  5
C6B0
330
747D
100
AcDbEntity
  8
寸法引出
 48
25.0
100
AcDbDimension
  2
*D25
 10
2505.124842940757
 20
4018.998044293879
 30
0.0
 11
2305.124842940757
 21
4068.998044293879
 31
0.0
 70
    32
 71
     5
 42
400.0
  3
SANWA
100
AcDbAlignedDimension
 13
2105.124842940757
 23
3737.250569887545
 33
0.0
 14
2505.124842940757
 24
3737.250569887545
 34
0.0
100
AcDbRotatedDimension
1001
ACAD
1000
DSTYLE
1002
{
1070
    40
1040
25.0
1070
    41
1040
1.5
1070
    43
1040
5.0
1070
    44
1040
0.5
1070
   140
1040
2.0
1070
   147
1040
1.0
1070
   176
1070
   256
1070
   177
1070
   256
1070
   178
1070
   256
1002
}
  0
DIMENSION
  5
C6B1
330
747D
100
AcDbEntity
  8
寸法引出
 48
25.0
100
AcDbDimension
  2
*D24
 10
2505.124842940757
 20
3888.436045495898
 30
0.0
 11
2480.124842940757
 21
3938.436045495898
 31
0.0
 70
    32
 71
     5
 42
50.0
  3
SANWA
100
AcDbAlignedDimension
 13
2455.124842940757
 23
3737.250569887545
 33
0.0
 14
2505.124842940757
 24
3737.250569887545
 34
0.0
100
AcDbRotatedDimension
1001
ACAD
1000
DSTYLE
1002
{
1070
   279
1070
     1
1070
    40
1040
25.0
1070
    41
1040
1.5
1070
    43
1040
5.0
1070
    44
1040
0.5
1070
   140
1040
2.0
1070
   147
1040
1.0
1070
   176
1070
   256
1070
   177
1070
   256
1070
   178
1070
   256
1002
}
  0
DIMENSION
  5
C6B2
330
747D
100
AcDbEntity
  8
寸法引出
 48
25.0
100
AcDbDimension
  2
*D23
 10
2455.124842940757
 20
3888.436045495898
 30
0.0
 11
2305.124842940757
 21
3938.436045495898
 31
0.0
 70
    32
 71
     5
 42
300.0
  3
SANWA
100
AcDbAlignedDimension
 13
2155.124842940757
 23
3737.250569887545
 33
0.0
 14
2455.124842940757
 24
3737.250569887545
 34
0.0
100
AcDbRotatedDimension
1001
ACAD
1000
DSTYLE
1002
{
1070
   279
1070
     1
1070
    40
1040
25.0
1070
    41
1040
1.5
1070
    43
1040
5.0
1070
    44
1040
0.5
1070
   140
1040
2.0
1070
   147
1040
1.0
1070
   176
1070
   256
1070
   177
1070
   256
1070
   178
1070
   256
1002
}
  0
DIMENSION
  5
C6B3
330
747D
100
AcDbEntity
  8
寸法引出
 48
25.0
100
AcDbDimension
  2
*D22
 10
2155.124842940757
 20
3888.436045495898
 30
0.0
 11
2130.124842940757
 21
3938.436045495898
 31
0.0
 70
    32
 71
     5
 42
50.0
  3
SANWA
100
AcDbAlignedDimension
 13
2105.124842940757
 23
3737.250569887545
 33
0.0
 14
2155.124842940757
 24
3737.250569887545
 34
0.0
100
AcDbRotatedDimension
1001
ACAD
1000
DSTYLE
1002
{
1070
    40
1040
25.0
1070
    41
1040
1.5
1070
    43
1040
5.0
1070
    44
1040
0.5
1070
   140
1040
2.0
1070
   147
1040
1.0
1070
   176
1070
   256
1070
   177
1070
   256
1070
   178
1070
   256
1002
}
  0
DIMENSION
  5
C6B8
330
747D
100
AcDbEntity
  8
寸法引出
 48
25.0
100
AcDbDimension
  2
*D21
 10
2636.867714182896
 20
2112.250569887544
 30
0.0
 11
2586.867714182896
 21
2174.750569887544
 31
0.0
 70
    32
 71
     5
 42
125.0
  3
SANWA
100
AcDbAlignedDimension
 13
2505.124842940757
 23
2237.250569887544
 33
0.0
 14
2475.124842940753
 24
2112.250569887544
 34
0.0
 50
90.0
100
AcDbRotatedDimension
1001
ACAD
1000
DSTYLE
1002
{
1070
   279
1070
     1
1070
    40
1040
25.0
1070
    41
1040
1.5
1070
    43
1040
5.0
1070
    44
1040
0.5
1070
   140
1040
2.0
1070
   147
1040
1.0
1070
   176
1070
   256
1070
   177
1070
   256
1070
   178
1070
   256
1002
}
  0
DIMENSION
  5
C6B9
330
747D
100
AcDbEntity
  8
寸法引出
 48
25.0
100
AcDbDimension
  2
*D20
 10
2744.837114844748
 20
2112.250569887544
 30
0.0
 11
2694.837114844748
 21
2924.750569887545
 31
0.0
 70
    32
 71
     5
 42
1625.000000000001
  3
SANWA
100
AcDbAlignedDimension
 13
2505.124842940757
 23
3737.250569887545
 33
0.0
 14
2475.124842940753
 24
2112.250569887544
 34
0.0
 50
90.0
100
AcDbRotatedDimension
1001
ACAD
1000
DSTYLE
1002
{
1070
    40
1040
25.0
1070
    41
1040
1.5
1070
    43
1040
5.0
1070
    44
1040
0.5
1070
   140
1040
2.0
1070
   147
1040
1.0
1070
   176
1070
   256
1070
   177
1070
   256
1070
   178
1070
   256
1002
}
  0
DIMENSION
  5
C6BA
330
747D
100
AcDbEntity
  8
寸法引出
 48
25.0
100
AcDbDimension
  2
*D19
 10
2636.867714182896
 20
2237.250569887544
 30
0.0
 11
2586.867714182896
 21
2987.250569887545
 31
0.0
 70
    32
 71
     5
 42
1500.000000000001
  3
SANWA
100
AcDbAlignedDimension
 13
2505.124842940757
 23
3737.250569887545
 33
0.0
 14
2505.124842940757
 24
2237.250569887544
 34
0.0
 50
90.0
100
AcDbRotatedDimension
1001
ACAD
1000
DSTYLE
1002
{
1070
    40
1040
25.0
1070
    41
1040
1.5
1070
    43
1040
5.0
1070
    44
1040
0.5
1070
   140
1040
2.0
1070
   147
1040
1.0
1070
   176
1070
   256
1070
   177
1070
   256
1070
   178
1070
   256
1002
}
  0
LINE
  5
C6BB
330
747D
100
AcDbEntity
  8
0
 48
15.0
100
AcDbLine
 10
2505.124842940757
 20
3737.250569887546
 30
0.0
 11
2505.124842940753
 21
2142.250569887544
 31
0.0
  0
LINE
  5
C6BC
330
747D
100
AcDbEntity
  8
0
 48
15.0
100
AcDbLine
 10
2105.124842940757
 20
3737.250569887546
 30
0.0
 11
2105.124842940761
 21
2142.250569887544
 31
0.0
  0
LINE
  5
C6C2
330
747D
100
AcDbEntity
  8
0
 48
15.0
100
AcDbLine
 10
2135.12484294076
 20
2112.250569887544
 30
0.0
 11
2475.124842940753
 21
2112.250569887544
 31
0.0
  0
LINE
  5
C6C3
330
747D
100
AcDbEntity
  8
0
 48
25.0
100
AcDbLine
 10
2105.124842940761
 20
2142.250569887544
 30
0.0
 11
2135.12484294076
 21
2112.250569887544
 31
0.0
  0
LINE
  5
C6C4
330
747D
100
AcDbEntity
  8
0
 48
25.0
100
AcDbLine
 10
2505.124842940753
 20
2142.250569887544
 30
0.0
 11
2475.124842940753
 21
2112.250569887544
 31
0.0
  0
LINE
  5
C6EB
330
747D
100
AcDbEntity
  8
0
 48
15.0
100
AcDbLine
 10
2105.124842940757
 20
3737.250569887546
 30
0.0
 11
2155.124842940757
 21
3737.250569887546
 31
0.0
  0
LINE
  5
C6EC
330
747D
100
AcDbEntity
  8
0
 48
15.0
100
AcDbLine
 10
2455.124842940757
 20
3737.250569887546
 30
0.0
 11
2505.124842940757
 21
3737.250569887546
 31
0.0
  0
LINE
  5
C81F
330
747D
100
AcDbEntity
  8
0
  6
CENTER2
 48
10.0
100
AcDbLine
 10
2075.124842940757
 20
2747.250569887544
 30
0.0
 11
2231.79150960743
 21
2747.250569887544
 31
0.0
  0
LINE
  5
C820
330
747D
100
AcDbEntity
  8
0
  6
HIDDEN2
 48
15.0
100
AcDbLine
 10
2105.124842940757
 20
2764.750569887544
 30
0.0
 11
2200.895022589105
 21
2763.38733621735
 31
0.0
  0
LINE
  5
C821
330
747D
100
AcDbEntity
  8
0
  6
HIDDEN2
 48
15.0
100
AcDbLine
 10
2105.124842940757
 20
2729.750569887544
 30
0.0
 11
2202.687426869712
 21
2731.124059166433
 31
0.0
  0
LINE
  5
C822
330
747D
100
AcDbEntity
  8
0
  6
HIDDEN2
 48
15.0
100
AcDbLine
 10
2505.124842940757
 20
2764.750569887544
 30
0.0
 11
2409.354663292399
 21
2763.38733621735
 31
0.0
  0
LINE
  5
C823
330
747D
100
AcDbEntity
  8
0
  6
HIDDEN2
 48
15.0
100
AcDbLine
 10
2505.124842940757
 20
2729.750569887544
 30
0.0
 11
2407.562259011792
 21
2731.124059166434
 31
0.0
  0
LINE
  5
C824
330
747D
100
AcDbEntity
  8
0
  6
CENTER2
 48
10.0
100
AcDbLine
 10
2535.124842940757
 20
2747.250569887544
 30
0.0
 11
2378.458176274074
 21
2747.250569887544
 31
0.0
  0
LINE
  5
C825
330
747D
100
AcDbEntity
  8
0
 48
25.0
100
AcDbLine
 10
2135.124842940757
 20
3597.250569887546
 30
0.0
 11
2137.124842940757
 21
3597.250569887546
 31
0.0
  0
LINE
  5
C826
330
747D
100
AcDbEntity
  8
0
 48
25.0
100
AcDbLine
 10
2135.124842940757
 20
3597.250569887546
 30
0.0
 11
2135.124842940757
 21
3595.250569887546
 31
0.0
  0
LINE
  5
C828
330
747D
100
AcDbEntity
  8
0
 48
25.0
100
AcDbLine
 10
2105.124842940757
 20
3595.250569887546
 30
0.0
 11
2135.124842940757
 21
3595.250569887546
 31
0.0
  0
LINE
  5
C829
330
747D
100
AcDbEntity
  8
0
 48
25.0
100
AcDbLine
 10
2105.124842940757
 20
3593.250569887546
 30
0.0
 11
2135.124842940757
 21
3593.250569887546
 31
0.0
  0
LINE
  5
C82A
330
747D
100
AcDbEntity
  8
0
 48
25.0
100
AcDbLine
 10
2135.124842940757
 20
3577.250569887546
 30
0.0
 11
2137.124842940757
 21
3577.250569887546
 31
0.0
  0
LINE
  5
C82B
330
747D
100
AcDbEntity
  8
0
 48
25.0
100
AcDbLine
 10
2135.124842940757
 20
3579.250569887546
 30
0.0
 11
2135.124842940757
 21
3577.250569887546
 31
0.0
  0
LINE
  5
C82D
330
747D
100
AcDbEntity
  8
0
 48
25.0
100
AcDbLine
 10
2105.124842940757
 20
3581.250569887546
 30
0.0
 11
2135.124842940757
 21
3581.250569887546
 31
0.0
  0
LINE
  5
C82E
330
747D
100
AcDbEntity
  8
0
 48
25.0
100
AcDbLine
 10
2105.124842940757
 20
3579.250569887546
 30
0.0
 11
2135.124842940757
 21
3579.250569887546
 31
0.0
  0
LINE
  5
C82F
330
747D
100
AcDbEntity
  8
0
 48
25.0
100
AcDbLine
 10
2135.124842940757
 20
3593.250569887546
 30
0.0
 11
2135.124842940757
 21
3581.250569887546
 31
0.0
  0
LINE
  5
C830
330
747D
100
AcDbEntity
  8
0
 48
25.0
100
AcDbLine
 10
2137.124842940757
 20
3597.250569887546
 30
0.0
 11
2137.124842940757
 21
3577.250569887546
 31
0.0
  0
LINE
  5
C833
330
747D
100
AcDbEntity
  8
0
 48
25.0
100
AcDbLine
 10
2475.124842940757
 20
3597.250569887546
 30
0.0
 11
2475.124842940757
 21
3595.250569887546
 31
0.0
  0
LINE
  5
C834
330
747D
100
AcDbEntity
  8
0
 48
25.0
100
AcDbLine
 10
2475.124842940757
 20
3597.250569887546
 30
0.0
 11
2473.124842940757
 21
3597.250569887546
 31
0.0
  0
LINE
  5
C835
330
747D
100
AcDbEntity
  8
0
 48
25.0
100
AcDbLine
 10
2505.124842940757
 20
3593.250569887546
 30
0.0
 11
2475.124842940757
 21
3593.250569887546
 31
0.0
  0
LINE
  5
C836
330
747D
100
AcDbEntity
  8
0
 48
25.0
100
AcDbLine
 10
2505.124842940757
 20
3595.250569887546
 30
0.0
 11
2475.124842940757
 21
3595.250569887546
 31
0.0
  0
LINE
  5
C838
330
747D
100
AcDbEntity
  8
0
 48
25.0
100
AcDbLine
 10
2475.124842940757
 20
3579.250569887546
 30
0.0
 11
2475.124842940757
 21
3577.250569887546
 31
0.0
  0
LINE
  5
C839
330
747D
100
AcDbEntity
  8
0
 48
25.0
100
AcDbLine
 10
2475.124842940757
 20
3577.250569887546
 30
0.0
 11
2473.124842940757
 21
3577.250569887546
 31
0.0
  0
LINE
  5
C83A
330
747D
100
AcDbEntity
  8
0
 48
25.0
100
AcDbLine
 10
2505.124842940757
 20
3579.250569887546
 30
0.0
 11
2475.124842940757
 21
3579.250569887546
 31
0.0
  0
LINE
  5
C83B
330
747D
100
AcDbEntity
  8
0
 48
25.0
100
AcDbLine
 10
2505.124842940757
 20
3581.250569887546
 30
0.0
 11
2475.124842940757
 21
3581.250569887546
 31
0.0
  0
LINE
  5
C83C
330
747D
100
AcDbEntity
  8
0
 48
25.0
100
AcDbLine
 10
2473.124842940757
 20
3597.250569887546
 30
0.0
 11
2473.124842940757
 21
3577.250569887546
 31
0.0
  0
LINE
  5
C83D
330
747D
100
AcDbEntity
  8
0
 48
25.0
100
AcDbLine
 10
2475.124842940757
 20
3593.250569887546
 30
0.0
 11
2475.124842940757
 21
3581.250569887546
 31
0.0
  0
DIMENSION
  5
C83F
330
747D
100
AcDbEntity
  8
寸法引出
 48
25.0
100
AcDbDimension
  2
*D26
 10
1970.129864571674
 20
3587.250569887546
 30
0.0
 11
1920.129864571674
 21
3662.250569887547
 31
0.0
 70
    32
 71
     5
 42
150.0
  3
SANWA
100
AcDbAlignedDimension
 13
2105.124842940757
 23
3737.250569887546
 33
0.0
 14
2105.124842940757
 24
3587.250569887546
 34
0.0
 50
90.0
100
AcDbRotatedDimension
1001
ACAD
1000
DSTYLE
1002
{
1070
    40
1040
25.0
1070
    41
1040
1.5
1070
    43
1040
5.0
1070
    44
1040
0.5
1070
   140
1040
2.0
1070
   147
1040
1.0
1070
   176
1070
   256
1070
   177
1070
   256
1070
   178
1070
   256
1002
}
  0
ARC
  5
C869
330
747D
100
AcDbEntity
  8
0
 48
25.0
100
AcDbCircle
 10
2305.12484294075
 20
2537.250569887544
 30
0.0
 40
300.0
100
AcDbArc
 50
263.6185647298205
 51
276.3814352701794
  0
DIMENSION
  5
C86E
330
747D
100
AcDbEntity
  8
寸法引出
 48
25.0
100
AcDbDimension
  2
*D27
 10
2230.124842940764
 20
1968.056525916932
 30
0.0
 11
2167.624842940762
 21
2018.056525916932
 31
0.0
 70
    32
 71
     5
 42
125.0000000000036
  3
SANWA
100
AcDbAlignedDimension
 13
2105.124842940761
 23
2142.250569887544
 33
0.0
 14
2230.124842940764
 24
2112.250569887544
 34
0.0
100
AcDbRotatedDimension
1001
ACAD
1000
DSTYLE
1002
{
1070
    40
1040
25.0
1070
    41
1040
1.5
1070
    43
1040
5.0
1070
    44
1040
0.5
1070
   140
1040
2.0
1070
   147
1040
1.0
1070
   176
1070
   256
1070
   177
1070
   256
1070
   178
1070
   256
1002
}
  0
DIMENSION
  5
C87D
330
747D
100
AcDbEntity
  8
寸法引出
 48
25.0
100
AcDbDimension
  2
*D28
 10
2380.124842940735
 20
1968.056525916932
 30
0.0
 11
2305.12484294075
 21
2018.056525916932
 31
0.0
 70
    32
 71
     5
 42
149.9999999999709
  3
SANWA
100
AcDbAlignedDimension
 13
2230.124842940764
 23
2112.250569887544
 33
0.0
 14
2380.124842940735
 24
2112.250569887544
 34
0.0
100
AcDbRotatedDimension
1001
ACAD
1000
DSTYLE
1002
{
1070
   279
1070
     1
1070
    40
1040
25.0
1070
    41
1040
1.5
1070
    43
1040
5.0
1070
    44
1040
0.5
1070
   140
1040
2.0
1070
   147
1040
1.0
1070
   176
1070
   256
1070
   177
1070
   256
1070
   178
1070
   256
1002
}
  0
DIMENSION
  5
C88A
330
747D
100
AcDbEntity
  8
寸法引出
 48
25.0
100
AcDbDimension
  2
*D29
 10
2505.124842940753
 20
1968.056525916932
 30
0.0
 11
2442.624842940745
 21
2018.056525916932
 31
0.0
 70
    32
 71
     5
 42
125.0000000000182
  3
SANWA
100
AcDbAlignedDimension
 13
2380.124842940735
 23
2112.250569887544
 33
0.0
 14
2505.124842940753
 24
2142.250569887544
 34
0.0
100
AcDbRotatedDimension
1001
ACAD
1000
DSTYLE
1002
{
1070
   279
1070
     1
1070
    40
1040
25.0
1070
    41
1040
1.5
1070
    43
1040
5.0
1070
    44
1040
0.5
1070
   140
1040
2.0
1070
   147
1040
1.0
1070
   176
1070
   256
1070
   177
1070
   256
1070
   178
1070
   256
1002
}
  0
LINE
  5
C925
330
747D
100
AcDbEntity
  8
0
  6
CENTER2
 48
10.0
100
AcDbLine
 10
2305.124842940757
 20
2287.250569887544
 30
0.0
 11
2305.124842940757
 21
2062.250569887544
 31
0.0
  0
LEADER
  5
C92A
330
747D
100
AcDbEntity
  8
寸法引出
 48
25.0
100
AcDbLeader
  3
SANWA
 76
     3
 10
2290.996793249855
 20
2237.583424187633
 30
0.0
 10
2227.777555858243
 20
2517.569363220868
 30
0.0
 10
2382.552446502435
 20
2517.569363220868
 30
0.0
1001
ACAD
1000
DSTYLE
1002
{
1070
    77
1070
     0
1070
    40
1040
25.0
1070
    41
1040
1.5
1070
    43
1040
5.0
1070
    44
1040
0.5
1070
   140
1040
2.0
1070
   147
1040
1.0
1070
   176
1070
   256
1070
   177
1070
   256
1070
   178
1070
   256
1002
}
  0
MTEXT
  5
C92B
330
747D
100
AcDbEntity
  8
寸法引出
 48
25.0
100
AcDbMText
 10
2308.398225914167
 20
2556.87650052658
 30
0.0
 40
50.0
 41
0.0
 71
     5
 72
     1
  1
300r
  7
SANWA
 73
     1
 44
1.0
1001
ACAD
1000
MTEXTBEGIN
1070
    73
1070
     1
1070
    44
1040
1.0
1070
    74
1070
     0
1000
MTEXTEND
  0
LINE
  5
C9FB
330
747D
100
AcDbEntity
  8
0
 48
15.0
100
AcDbLine
 10
2124.124842940757
 20
3737.250569887546
 30
0.0
 11
2124.124842940764
 21
2294.750569887542
 31
0.0
  0
LINE
  5
C9FD
330
747D
100
AcDbEntity
  8
0
 48
15.0
100
AcDbLine
 10
2136.124842940757
 20
3737.250569887546
 30
0.0
 11
2136.124842940764
 21
2294.750569887542
 31
0.0
  0
ARC
  5
C9FE
330
747D
100
AcDbEntity
  8
0
 48
15.0
100
AcDbCircle
 10
2250.124842940764
 20
2294.750569887543
 30
0.0
 40
126.0
100
AcDbArc
 50
180.0000000000001
 51
270.0
  0
ARC
  5
C9FF
330
747D
100
AcDbEntity
  8
0
 48
15.0
100
AcDbCircle
 10
2250.124842940764
 20
2294.750569887543
 30
0.0
 40
114.0
100
AcDbArc
 50
180.0000000000001
 51
270.0
  0
LINE
  5
CA00
330
747D
100
AcDbEntity
  8
0
 48
15.0
100
AcDbLine
 10
2250.124842940764
 20
2168.750569887543
 30
0.0
 11
2360.124842940753
 21
2168.750569887544
 31
0.0
  0
LINE
  5
CA01
330
747D
100
AcDbEntity
  8
0
 48
15.0
100
AcDbLine
 10
2250.124842940764
 20
2180.750569887543
 30
0.0
 11
2360.124842940753
 21
2180.750569887544
 31
0.0
  0
LEADER
  5
CA02
330
747D
100
AcDbEntity
  8
寸法引出
 48
25.0
100
AcDbLeader
  3
SANWA
 76
     3
 10
2164.307939422764
 20
2210.872926438395
 30
0.0
 10
2051.650829693121
 20
2141.011261482608
 30
0.0
 10
1902.014896938235
 20
2141.011261482608
 30
0.0
1001
ACAD
1000
DSTYLE
1002
{
1070
    77
1070
     0
1070
    40
1040
25.0
1070
    41
1040
1.5
1070
    43
1040
5.0
1070
    44
1040
0.5
1070
   140
1040
2.0
1070
   147
1040
1.0
1070
   176
1070
   256
1070
   177
1070
   256
1070
   178
1070
   256
1002
}
  0
MTEXT
  5
CA03
330
747D
100
AcDbEntity
  8
寸法引出
 48
25.0
100
AcDbMText
 10
1981.510722164159
 20
2180.318398788319
 30
0.0
 40
50.0
 41
0.0
 71
     5
 72
     1
  1
120r
  7
SANWA
 73
     1
 44
1.0
1001
ACAD
1000
MTEXTBEGIN
1070
    73
1070
     1
1070
    44
1040
1.0
1070
    74
1070
     0
1000
MTEXTEND
  0
ARC
  5
CA06
330
747D
100
AcDbEntity
  8
0
 48
15.0
100
AcDbCircle
 10
2360.124842940753
 20
2294.750569887544
 30
0.0
 40
114.0
100
AcDbArc
 50
270.0
 51
359.9999999999999
  0
ARC
  5
CA07
330
747D
100
AcDbEntity
  8
0
 48
15.0
100
AcDbCircle
 10
2360.124842940753
 20
2294.750569887544
 30
0.0
 40
126.0
100
AcDbArc
 50
270.0
 51
359.9999999999999
  0
LINE
  5
CA08
330
747D
100
AcDbEntity
  8
0
 48
15.0
100
AcDbLine
 10
2474.124842940757
 20
3737.250569887546
 30
0.0
 11
2474.124842940753
 21
2294.750569887544
 31
0.0
  0
LINE
  5
CA09
330
747D
100
AcDbEntity
  8
0
 48
15.0
100
AcDbLine
 10
2486.124842940757
 20
3737.250569887546
 30
0.0
 11
2486.124842940754
 21
2294.750569887544
 31
0.0
  0
LINE
  5
CA0A
330
747D
100
AcDbEntity
  8
0
 48
25.0
100
AcDbLine
 10
2859.026838898608
 20
1311.029885753015
 30
0.0
 11
2859.026838898572
 21
1079.498750889092
 31
0.0
  0
LINE
  5
CA0B
330
747D
100
AcDbEntity
  8
0
 48
25.0
100
AcDbLine
 10
3359.026838898572
 20
1311.029885753015
 30
0.0
 11
3359.026838898572
 21
1079.498750889092
 31
0.0
  0
LINE
  5
CA0C
330
747D
100
AcDbEntity
  8
0
 48
25.0
100
AcDbLine
 10
2859.026838898572
 20
1079.498750889092
 30
0.0
 11
3049.026838898571
 21
1079.498750889092
 31
0.0
  0
LINE
  5
CA12
330
747D
100
AcDbEntity
  8
0
 48
25.0
100
AcDbLine
 10
3069.026838898571
 20
1139.498750889092
 30
0.0
 11
3149.026838898572
 21
1139.498750889092
 31
0.0
  0
LINE
  5
CA13
330
747D
100
AcDbEntity
  8
0
 48
25.0
100
AcDbLine
 10
3049.026838898571
 20
1079.498750889092
 30
0.0
 11
3069.026838898571
 21
1139.498750889092
 31
0.0
  0
LINE
  5
CA14
330
747D
100
AcDbEntity
  8
0
 48
25.0
100
AcDbLine
 10
3149.026838898572
 20
1139.498750889092
 30
0.0
 11
3169.026838898572
 21
1079.498750889092
 31
0.0
  0
LINE
  5
CA15
330
747D
100
AcDbEntity
  8
0
 48
25.0
100
AcDbLine
 10
3169.026838898572
 20
1079.498750889092
 30
0.0
 11
3359.026838898572
 21
1079.498750889092
 31
0.0
  0
DIMENSION
  5
CA26
330
747D
100
AcDbEntity
  8
寸法引出
 48
25.0
100
AcDbDimension
  2
*D30
 10
3149.026838898572
 20
900.7675487753813
 30
0.0
 11
3109.026838898572
 21
950.7675487753813
 31
0.0
 70
    32
  1
8
 71
     5
 42
80.0
  3
SANWA
100
AcDbAlignedDimension
 13
3069.026838898571
 23
1139.498750889092
 33
0.0
 14
3149.026838898572
 24
1139.498750889092
 34
0.0
100
AcDbRotatedDimension
1001
ACAD
1000
DSTYLE
1002
{
1070
   279
1070
     1
1070
    40
1040
25.0
1070
    41
1040
1.5
1070
    43
1040
5.0
1070
    44
1040
0.5
1070
   140
1040
2.0
1070
   147
1040
1.0
1070
   176
1070
   256
1070
   177
1070
   256
1070
   178
1070
   256
1002
}
  0
DIMENSION
  5
CA65
330
747D
100
AcDbEntity
  8
寸法引出
 48
25.0
100
AcDbDimension
  2
*D31
 10
3169.026838898572
 20
773.2349729018251
 30
0.0
 11
3109.026838898572
 21
823.2349729018251
 31
0.0
 70
    32
  1
12
 71
     5
 42
120.0
  3
SANWA
100
AcDbAlignedDimension
 13
3049.026838898571
 23
1079.498750889092
 33
0.0
 14
3169.026838898572
 24
1079.498750889092
 34
0.0
100
AcDbRotatedDimension
1001
ACAD
1000
DSTYLE
1002
{
1070
    40
1040
25.0
1070
    41
1040
1.5
1070
    43
1040
5.0
1070
    44
1040
0.5
1070
   140
1040
2.0
1070
   147
1040
1.0
1070
   176
1070
   256
1070
   177
1070
   256
1070
   178
1070
   256
1002
}
  0
DIMENSION
  5
CA74
330
747D
100
AcDbEntity
  8
寸法引出
 48
25.0
100
AcDbDimension
  2
*D32
 10
3359.026838898572
 20
773.2349729018251
 30
0.0
 11
3264.026838898572
 21
823.2349729018251
 31
0.0
 70
    32
  1
19
 71
     5
 42
190.0
  3
SANWA
100
AcDbAlignedDimension
 13
3169.026838898572
 23
1079.498750889092
 33
0.0
 14
3359.026838898572
 24
1079.498750889092
 34
0.0
100
AcDbRotatedDimension
1001
ACAD
1000
DSTYLE
1002
{
1070
   279
1070
     1
1070
    40
1040
25.0
1070
    41
1040
1.5
1070
    43
1040
5.0
1070
    44
1040
0.5
1070
   140
1040
2.0
1070
   147
1040
1.0
1070
   176
1070
   256
1070
   177
1070
   256
1070
   178
1070
   256
1002
}
  0
DIMENSION
  5
CA81
330
747D
100
AcDbEntity
  8
寸法引出
 48
25.0
100
AcDbDimension
  2
*D33
 10
2859.026838898572
 20
773.2349729018251
 30
0.0
 11
2954.026838898572
 21
823.2349729018251
 31
0.0
 70
    32
  1
19
 71
     5
 42
190.0
  3
SANWA
100
AcDbAlignedDimension
 13
3049.026838898571
 23
1079.498750889092
 33
0.0
 14
2859.026838898572
 24
1079.498750889092
 34
0.0
100
AcDbRotatedDimension
1001
ACAD
1000
DSTYLE
1002
{
1070
    40
1040
25.0
1070
    41
1040
1.5
1070
    43
1040
5.0
1070
    44
1040
0.5
1070
   140
1040
2.0
1070
   147
1040
1.0
1070
   176
1070
   256
1070
   177
1070
   256
1070
   178
1070
   256
1002
}
  0
LINE
  5
CAE9
330
747D
100
AcDbEntity
  8
寸法引出
 48
25.0
100
AcDbLine
 10
3049.026838898571
 20
1054.498750889092
 30
0.0
 11
3049.026838898571
 21
888.2675487753813
 31
0.0
  0
LINE
  5
CAEA
330
747D
100
AcDbEntity
  8
寸法引出
 48
25.0
100
AcDbLine
 10
3069.026838898571
 20
1114.498750889092
 30
0.0
 11
3069.026838898571
 21
888.2675487753813
 31
0.0
  0
LINE
  5
CAEB
330
747D
100
AcDbEntity
  8
寸法引出
 48
25.0
100
AcDbLine
 10
3011.526838898572
 20
900.7675487753813
 30
0.0
 11
2974.026838898572
 21
900.7675487753813
 31
0.0
  0
LINE
  5
CAEC
330
747D
100
AcDbEntity
  8
寸法引出
 48
25.0
100
AcDbLine
 10
3106.526838898572
 20
900.7675487753813
 30
0.0
 11
3144.026838898572
 21
900.7675487753813
 31
0.0
  0
LINE
  5
CAED
330
747D
100
AcDbEntity
  8
寸法引出
 48
25.0
100
AcDbLine
 10
3049.026838898571
 20
900.7675487753813
 30
0.0
 11
3069.026838898571
 21
900.7675487753813
 31
0.0
  0
SOLID
  5
CAEE
330
747D
100
AcDbEntity
  8
寸法引出
 48
25.0
100
AcDbTrace
 10
3011.526838898572
 20
907.0175487753813
 30
0.0
 11
3011.526838898572
 21
894.5175487753813
 31
0.0
 12
3049.026838898571
 22
900.7675487753813
 32
0.0
 13
3049.026838898571
 23
900.7675487753813
 33
0.0
  0
SOLID
  5
CAEF
330
747D
100
AcDbEntity
  8
寸法引出
 48
25.0
100
AcDbTrace
 10
3106.526838898572
 20
907.0175487753813
 30
0.0
 11
3106.526838898572
 21
894.5175487753813
 31
0.0
 12
3069.026838898571
 22
900.7675487753813
 32
0.0
 13
3069.026838898571
 23
900.7675487753813
 33
0.0
  0
MTEXT
  5
CAF0
330
747D
100
AcDbEntity
  8
寸法引出
 48
25.0
100
AcDbMText
 10
3007.068066279389
 20
950.7675487753813
 30
0.0
 40
50.0
 41
0.0
 71
     5
 72
     1
  1
\A1;2
  7
SANWA
 73
     1
 44
1.0
1001
ACAD
1000
MTEXTBEGIN
1070
    73
1070
     1
1070
    44
1040
1.0
1070
    74
1070
     0
1000
MTEXTEND
  0
LINE
  5
CAF1
330
747D
100
AcDbEntity
  8
寸法引出
 48
25.0
100
AcDbLine
 10
3149.026838898572
 20
1114.498750889092
 30
0.0
 11
3149.026838898572
 21
888.2675487753813
 31
0.0
  0
LINE
  5
CAF2
330
747D
100
AcDbEntity
  8
寸法引出
 48
25.0
100
AcDbLine
 10
3169.026838898572
 20
1054.498750889092
 30
0.0
 11
3169.026838898572
 21
888.2675487753813
 31
0.0
  0
LINE
  5
CAF3
330
747D
100
AcDbEntity
  8
寸法引出
 48
25.0
100
AcDbLine
 10
3111.526838898571
 20
900.7675487753813
 30
0.0
 11
3074.026838898572
 21
900.7675487753813
 31
0.0
  0
LINE
  5
CAF4
330
747D
100
AcDbEntity
  8
寸法引出
 48
25.0
100
AcDbLine
 10
3206.526838898572
 20
900.7675487753813
 30
0.0
 11
3244.026838898572
 21
900.7675487753813
 31
0.0
  0
LINE
  5
CAF5
330
747D
100
AcDbEntity
  8
寸法引出
 48
25.0
100
AcDbLine
 10
3149.026838898572
 20
900.7675487753813
 30
0.0
 11
3169.026838898572
 21
900.7675487753813
 31
0.0
  0
SOLID
  5
CAF6
330
747D
100
AcDbEntity
  8
寸法引出
 48
25.0
100
AcDbTrace
 10
3111.526838898571
 20
907.0175487753813
 30
0.0
 11
3111.526838898571
 21
894.5175487753813
 31
0.0
 12
3149.026838898572
 22
900.7675487753813
 32
0.0
 13
3149.026838898572
 23
900.7675487753813
 33
0.0
  0
SOLID
  5
CAF7
330
747D
100
AcDbEntity
  8
寸法引出
 48
25.0
100
AcDbTrace
 10
3206.526838898572
 20
907.0175487753813
 30
0.0
 11
3206.526838898572
 21
894.5175487753813
 31
0.0
 12
3169.026838898572
 22
900.7675487753813
 32
0.0
 13
3169.026838898572
 23
900.7675487753813
 33
0.0
  0
MTEXT
  5
CAF8
330
747D
100
AcDbEntity
  8
寸法引出
 48
25.0
100
AcDbMText
 10
3212.513785555595
 20
950.7675487753813
 30
0.0
 40
50.0
 41
0.0
 71
     5
 72
     1
  1
\A1;2
  7
SANWA
 73
     1
 44
1.0
1001
ACAD
1000
MTEXTBEGIN
1070
    73
1070
     1
1070
    44
1040
1.0
1070
    74
1070
     0
1000
MTEXTEND
  0
DIMENSION
  5
CAF9
330
747D
100
AcDbEntity
  8
寸法引出
 48
25.0
100
AcDbDimension
  2
*D34
 10
2977.5315943725
 20
1139.498750889092
 30
0.0
 11
2927.5315943725
 21
1109.498750889093
 31
0.0
 70
    32
  1
6
 71
     5
 42
60.0
  3
SANWA
100
AcDbAlignedDimension
 13
3049.026838898571
 23
1079.498750889092
 33
0.0
 14
3069.026838898571
 24
1139.498750889092
 34
0.0
 50
90.0
100
AcDbRotatedDimension
1001
ACAD
1000
DSTYLE
1002
{
1070
    40
1040
25.0
1070
    41
1040
1.5
1070
    43
1040
5.0
1070
    44
1040
0.5
1070
   140
1040
2.0
1070
   147
1040
1.0
1070
   176
1070
   256
1070
   177
1070
   256
1070
   178
1070
   256
1002
}
  0
LINE
  5
CB1F
330
747D
100
AcDbEntity
  8
0
100
AcDbLine
 10
2808.865243649881
 20
1529.135985872658
 30
0.0
 11
3366.808799880444
 21
1529.135985872658
 31
0.0
  0
TEXT
  5
CB20
330
747D
100
AcDbEntity
  8
0
100
AcDbText
 10
2826.333240584055
 20
1548.871403346919
 30
0.0
 40
60.0
  1
目地部詳細図
  7
SANWA
 72
     4
 11
3089.647526298341
 21
1579.89997477549
 31
0.0
100
AcDbText
  0
LINE
  5
D636
330
747D
100
AcDbEntity
  8
0
 48
25.0
100
AcDbLine
 10
2155.124842940757
 20
3737.250569887546
 30
0.0
 11
2155.124842940757
 21
3587.250569887546
 31
0.0
  0
LINE
  5
D637
330
747D
100
AcDbEntity
  8
0
 48
25.0
100
AcDbLine
 10
2455.124842940757
 20
3737.250569887546
 30
0.0
 11
2455.124842940757
 21
3587.250569887546
 31
0.0
  0
LINE
  5
D638
330
747D
100
AcDbEntity
  8
0
 48
25.0
100
AcDbLine
 10
2155.124842940757
 20
3587.250569887546
 30
0.0
 11
2227.415092782405
 21
2286.026072737997
 31
0.0
  0
LINE
  5
D639
330
747D
100
AcDbEntity
  8
0
 48
25.0
100
AcDbLine
 10
2382.834593099093
 20
2286.026072737996
 30
0.0
 11
2455.124842940757
 21
3587.250569887546
 31
0.0
  0
DIMENSION
  5
D650
330
747D
100
AcDbEntity
  8
寸法引出
 48
25.0
100
AcDbDimension
  2
*D47
 10
2389.005812903037
 20
3587.250569887546
 30
0.0
 11
2339.005812903036
 21
3662.250569887547
 31
0.0
 70
    32
 71
     5
 42
150.0
  3
SANWA
100
AcDbAlignedDimension
 13
2455.124842940757
 23
3737.250569887546
 33
0.0
 14
2455.124842940757
 24
3587.250569887546
 34
0.0
 50
90.0
100
AcDbRotatedDimension
1001
ACAD
1000
DSTYLE
1002
{
1070
    40
1040
25.0
1070
    41
1040
1.5
1070
    43
1040
5.0
1070
    44
1040
0.5
1070
   140
1040
2.0
1070
   147
1040
1.0
1070
   176
1070
   256
1070
   177
1070
   256
1070
   178
1070
   256
1002
}
  0
ARC
  5
D666
330
747D
100
AcDbEntity
  8
0
 48
25.0
100
AcDbCircle
 10
2277.338110442676
 20
2288.799573719123
 30
0.0
 40
50.0
100
AcDbArc
 50
183.1798301198645
 51
263.6185647298206
  0
ARC
  5
D667
330
747D
100
AcDbEntity
  8
0
 48
25.0
100
AcDbCircle
 10
2332.911575438822
 20
2288.799573719123
 30
0.0
 40
50.0
100
AcDbArc
 50
276.3814352701794
 51
356.8201698801344
  0
DIMENSION
  5
D84E
330
747D
100
AcDbEntity
  8
寸法引出
 48
25.0
100
AcDbDimension
  2
*D48
 10
3850.476270198458
 20
2747.250569887548
 30
0.0
 11
3800.476270198458
 21
3242.250569887547
 31
0.0
 70
    32
 71
     5
 42
989.9999999999982
  3
SANWA
100
AcDbAlignedDimension
 13
4123.469910207106
 23
3737.250569887546
 33
0.0
 14
4123.469910207106
 24
2747.250569887548
 34
0.0
 50
90.0
100
AcDbRotatedDimension
1001
ACAD
1000
DSTYLE
1002
{
1070
    40
1040
25.0
1070
    41
1040
1.5
1070
    43
1040
5.0
1070
    44
1040
0.5
1070
   140
1040
2.0
1070
   147
1040
1.0
1070
   176
1070
   256
1070
   177
1070
   256
1070
   178
1070
   256
1002
}
  0
DIMENSION
  5
D85B
330
747D
100
AcDbEntity
  8
寸法引出
 48
25.0
100
AcDbDimension
  2
*D49
 10
3850.476270198458
 20
2112.250569887546
 30
0.0
 11
3800.476270198458
 21
2429.750569887547
 31
0.0
 70
    32
 71
     5
 42
635.0000000000018
  3
SANWA
100
AcDbAlignedDimension
 13
4123.469910207106
 23
2747.250569887548
 33
0.0
 14
4133.469910207106
 24
2112.250569887546
 34
0.0
 50
90.0
100
AcDbRotatedDimension
1001
ACAD
1000
DSTYLE
1002
{
1070
   279
1070
     1
1070
    40
1040
25.0
1070
    41
1040
1.5
1070
    43
1040
5.0
1070
    44
1040
0.5
1070
   140
1040
2.0
1070
   147
1040
1.0
1070
   176
1070
   256
1070
   177
1070
   256
1070
   178
1070
   256
1002
}
  0
VIEWPORT
  5
7540
102
{ACAD_XDICTIONARY
360
DBC5
102
}
330
747A
100
AcDbEntity
 67
     1
  8
0
100
AcDbViewport
 10
2878.243789599006
 20
970.3639114717196
 30
0.0
 40
6257.342359533289
 41
4285.736489239756
 68
     1
 69
     1
 12
2878.243789599006
 22
970.3639114717196
 13
0.0
 23
0.0
 14
10.0
 24
10.0
 15
10.0
 25
10.0
 16
0.0
 26
0.0
 36
1.0
 17
0.0
 27
0.0
 37
0.0
 42
50.0
 43
0.0
 44
0.0
 45
4285.736489239756
 50
0.0
 51
0.0
 72
   100
 90
    32800
  1

281
     0
 71
     1
 74
     0
110
0.0
120
0.0
130
0.0
111
1.0
121
0.0
131
0.0
112
0.0
122
1.0
132
0.0
 79
     0
146
0.0
  0
TEXT
  5
7737
330
747A
100
AcDbEntity
 67
     1
  8
0
 48
2.0
100
AcDbText
 10
331.871196811185
 20
20.60428158404022
 30
0.0
 40
2.0
  1

  7
SANWA
100
AcDbText
  0
ENDSEC
  0
SECTION
  2
OBJECTS
  0
DICTIONARY
  5
7471
330
0
100
AcDbDictionary
281
     1
  3
ACAD_COLOR
350
DA51
  3
ACAD_GROUP
350
7472
  3
ACAD_LAYOUT
350
7F6B
  3
ACAD_MATERIAL
350
DA27
  3
ACAD_MLEADERSTYLE
350
DA76
  3
ACAD_MLINESTYLE
350
7473
  3
ACAD_PLOTSETTINGS
350
7F6C
  3
ACAD_PLOTSTYLENAME
350
7F69
  3
ACAD_SCALELIST
350
DA54
  3
ACAD_TABLESTYLE
350
DA52
  3
ACAD_VISUALSTYLE
350
DA40
  3
AcadDim
350
D24E
  3
ACDB_RECOMPOSE_DATA
350
DBC3
  3
ACDBVARIABLEDICTIONARY
350
789B
  3
DWGPROPS
350
DBC4
  0
DICTIONARY
  5
DA80
330
7474
100
AcDbDictionary
280
     1
281
     1
  3
ADSK_XREC_LAYER_RECONCILED
360
DA81
  0
DICTIONARY
  5
DA82
330
7486
100
AcDbDictionary
280
     1
281
     1
  3
ADSK_XREC_LAYER_RECONCILED
360
DA83
  0
DICTIONARY
  5
DA84
330
7950
100
AcDbDictionary
280
     1
281
     1
  3
ADSK_XREC_LAYER_RECONCILED
360
DA85
  0
DICTIONARY
  5
DA86
330
7D58
100
AcDbDictionary
280
     1
281
     1
  3
ADSK_XREC_LAYER_RECONCILED
360
DA87
  0
DICTIONARY
  5
DA88
330
7D59
100
AcDbDictionary
280
     1
281
     1
  3
ADSK_XREC_LAYER_RECONCILED
360
DA89
  0
DICTIONARY
  5
DA8A
330
7D5A
100
AcDbDictionary
280
     1
281
     1
  3
ADSK_XREC_LAYER_RECONCILED
360
DA8B
  0
DICTIONARY
  5
DA8C
330
81DF
100
AcDbDictionary
280
     1
281
     1
  3
ADSK_XREC_LAYER_RECONCILED
360
DA8D
  0
DICTIONARY
  5
DBC5
330
7540
100
AcDbDictionary
280
     1
281
     1
  3
ACAD_XREC_ROUNDTRIP
360
DBC6
  0
DICTIONARY
  5
DA51
102
{ACAD_REACTORS
330
7471
102
}
330
7471
100
AcDbDictionary
281
     1
  0
DICTIONARY
  5
7472
102
{ACAD_REACTORS
330
7471
102
}
330
0
100
AcDbDictionary
281
     1
  0
DICTIONARY
  5
7F6B
102
{ACAD_REACTORS
330
7471
102
}
330
7471
100
AcDbDictionary
281
     1
  3
Model
350
7F6D
  3
ﾚｲｱｳﾄ1
350
7F6E
  0
DICTIONARY
  5
DA27
102
{ACAD_REACTORS
330
7471
102
}
330
7471
100
AcDbDictionary
281
     1
  3
ByBlock
350
DA30
  3
ByLayer
350
DA28
  3
Global
350
DA38
  0
DICTIONARY
  5
DA76
102
{ACAD_REACTORS
330
7471
102
}
330
7471
100
AcDbDictionary
281
     1
  3
Standard
350
DA77
  0
DICTIONARY
  5
7473
102
{ACAD_REACTORS
330
7471
102
}
330
0
100
AcDbDictionary
281
     1
  3
STANDARD
350
7480
  0
DICTIONARY
  5
7F6C
102
{ACAD_REACTORS
330
7471
102
}
330
7471
100
AcDbDictionary
281
     1
  0
ACDBDICTIONARYWDFLT
  5
7F69
102
{ACAD_REACTORS
330
7471
102
}
330
7471
100
AcDbDictionary
281
     1
  3
Normal
350
7F6A
100
AcDbDictionaryWithDefault
340
7F6A
  0
DICTIONARY
  5
DA54
102
{ACAD_REACTORS
330
7471
102
}
330
7471
100
AcDbDictionary
281
     1
  3
A0
350
DA55
  3
A1
350
DA56
  3
A2
350
DA57
  3
A3
350
DA58
  3
A4
350
DA59
  3
A5
350
DA5A
  3
A6
350
DA5B
  3
A7
350
DA5C
  3
A8
350
DA5D
  3
A9
350
DA5E
  3
B0
350
DA5F
  3
B1
350
DA60
  3
B2
350
DA61
  3
B3
350
DA62
  3
B4
350
DA63
  3
B5
350
DA64
  3
B6
350
DA65
  3
B7
350
DA66
  3
B8
350
DA67
  3
B9
350
DA68
  3
C0
350
DA69
  3
C1
350
DA6A
  3
C2
350
DA6B
  3
C3
350
DA6C
  3
C4
350
DA6D
  3
C5
350
DA6E
  3
C6
350
DA6F
  3
C7
350
DA70
  3
C8
350
DA71
  3
C9
350
DA72
  3
D0
350
DA73
  3
D1
350
DA74
  3
D2
350
DA75
  0
DICTIONARY
  5
DA52
102
{ACAD_REACTORS
330
7471
102
}
330
7471
100
AcDbDictionary
281
     1
  3
Standard
350
DA53
  0
DICTIONARY
  5
DA40
102
{ACAD_REACTORS
330
7471
102
}
330
7471
100
AcDbDictionary
281
     1
  3
2dWireframe
350
DA46
  3
3D Hidden
350
DA48
  3
3dWireframe
350
DA47
  3
Basic
350
DA45
  3
Brighten
350
DA4C
  3
ColorChange
350
DA50
  3
Conceptual
350
DA49
  3
Dim
350
DA4B
  3
Facepattern
350
DA4F
  3
Flat
350
DA41
  3
FlatWithEdges
350
DA42
  3
Gouraud
350
DA43
  3
GouraudWithEdges
350
DA44
  3
Linepattern
350
DA4E
  3
Realistic
350
DA4A
  3
Thicken
350
DA4D
  0
XRECORD
  5
D24E
102
{ACAD_REACTORS
330
7471
102
}
330
7471
100
AcDbXrecord
280
     1
 90
   990106
  3

 60
     4
 61
     0
 62
     1
 63
     3
 64
     0
 65
     0
 66
     0
 67
     3
 68
     1
 69
     0
 70
     0
 71
     0
 72
     0
 40
0.0
170
     0
  0
XRECORD
  5
DBC3
102
{ACAD_REACTORS
330
7471
102
}
330
7471
100
AcDbXrecord
280
     1
 90
        1
330
DA53
  0
DICTIONARY
  5
789B
102
{ACAD_REACTORS
330
7471
102
}
330
7471
100
AcDbDictionary
281
     1
  3
CANNOSCALE
350
DBBF
  3
CMLEADERSTYLE
350
DBBE
  3
CTABLESTYLE
350
DBBD
  3
DIMASSOC
350
7F75
  3
INDEXCTL
350
DBC0
  3
SORTENTS
350
789C
  0
XRECORD
  5
DBC4
102
{ACAD_REACTORS
330
7471
102
}
330
7471
100
AcDbXrecord
280
     1
  1
DWGPROPS COOKIE
  2

  3

  4

  6

  7

  8
ooshima
  9

300
=
301
=
302
=
303
=
304
=
305
=
306
=
307
=
308
=
309
=
 40
0.7996887037037038
 41
2451806.361679283
 42
2455383.447550359
  1

 90
        0
  0
XRECORD
  5
DA81
102
{ACAD_REACTORS
330
DA80
102
}
330
DA80
100
AcDbXrecord
280
     1
290
     1
  0
XRECORD
  5
DA83
102
{ACAD_REACTORS
330
DA82
102
}
330
DA82
100
AcDbXrecord
280
     1
290
     1
  0
XRECORD
  5
DA85
102
{ACAD_REACTORS
330
DA84
102
}
330
DA84
100
AcDbXrecord
280
     1
290
     1
  0
XRECORD
  5
DA87
102
{ACAD_REACTORS
330
DA86
102
}
330
DA86
100
AcDbXrecord
280
     1
290
     1
  0
XRECORD
  5
DA89
102
{ACAD_REACTORS
330
DA88
102
}
330
DA88
100
AcDbXrecord
280
     1
290
     1
  0
XRECORD
  5
DA8B
102
{ACAD_REACTORS
330
DA8A
102
}
330
DA8A
100
AcDbXrecord
280
     1
290
     1
  0
XRECORD
  5
DA8D
102
{ACAD_REACTORS
330
DA8C
102
}
330
DA8C
100
AcDbXrecord
280
     1
290
     1
  0
XRECORD
  5
DBC6
102
{ACAD_REACTORS
330
DBC5
102
}
330
DBC5
100
AcDbXrecord
280
     1
102
SHADEPLOT
 70
     0
  0
LAYOUT
  5
7F6D
102
{ACAD_XDICTIONARY
360
DBC7
102
}
102
{ACAD_REACTORS
330
7F6B
102
}
330
7F6B
100
AcDbPlotSettings
  1

  2
DocuWorks Printer
  4
A4
  6

 40
5.408082962036132
 41
5.408079147338867
 42
5.4080810546875
 43
5.4080810546875
 44
210.0156707763672
 45
297.0106506347656
 46
4.599753379821763
 47
12.09724521636963
 48
1302.630487518523
 49
250.0000000032442
140
7852.630487518523
141
5000.000000003245
142
1.0
143
25.0
 70
 11940
 72
     1
 73
     1
 74
     4
  7
sanwa3.ctb
 75
     0
147
0.04
148
-1302.630487518523
149
-250.0000000032442
100
AcDbLayout
  1
Model
 70
     1
 71
     0
 10
0.0
 20
0.0
 11
12.0
 21
9.0
 12
0.0
 22
0.0
 32
0.0
 14
0.0
 24
0.0
 34
0.0
 15
0.0
 25
0.0
 35
0.0
146
0.0
 13
0.0
 23
0.0
 33
0.0
 16
1.0
 26
0.0
 36
0.0
 17
0.0
 27
1.0
 37
0.0
 76
     0
330
747D
331
DA25
1001
ACAD_PSEXT
1000
DocuWorks Printer
1000
DocuWorks Printer Driver
1000
DocuWorks Port
1000

1070
     0
  0
LAYOUT
  5
7F6E
102
{ACAD_XDICTIONARY
360
DBC9
102
}
102
{ACAD_REACTORS
330
7F6B
102
}
330
7F6B
100
AcDbPlotSettings
  1

  2
RICOH NX-510
  4
A4
  6

 40
5.873749732971191
 41
4.92125654220581
 42
7.588241577148437
 43
5.81024169921875
 44
209.9944915771484
 45
296.989501953125
 46
0.0
 47
0.0
 48
0.0
 49
0.0
140
0.0
141
0.0
142
1.0
143
20.17331812743451
 70
   688
 72
     1
 73
     1
 74
     1
  7
sanwa3.ctb
 75
     0
147
0.0495704273180553
148
0.1762079097297828
149
1029.28590836146
100
AcDbLayout
  1
ﾚｲｱｳﾄ1
 70
     1
 71
     1
 10
-117.3880621053553
 20
-1147.778930325621
 11
5873.875641303368
 21
3088.506753269061
 12
0.0
 22
0.0
 32
0.0
 14
1.000000000000000E+20
 24
1.000000000000000E+20
 34
1.000000000000000E+20
 15
-1.000000000000000E+20
 25
-1.000000000000000E+20
 35
-1.000000000000000E+20
146
0.0
 13
0.0
 23
0.0
 33
0.0
 16
1.0
 26
0.0
 36
0.0
 17
0.0
 27
1.0
 37
0.0
 76
     0
330
747A
331
7540
  0
MATERIAL
  5
DA30
102
{ACAD_XDICTIONARY
360
DA31
102
}
102
{ACAD_REACTORS
330
DA27
102
}
330
DA27
100
AcDbMaterial
  1
ByBlock
 72
     0
 43
0.0208333333333333
 43
0.0
 43
0.0
 43
0.0
 43
0.0
 43
0.0208333333333333
 43
0.0
 43
0.0
 43
0.0
 43
0.0
 43
1.0
 43
0.0
 43
0.0
 43
0.0
 43
0.0
 43
1.0
 77
     0
 47
0.0208333333333333
 47
0.0
 47
0.0
 47
0.0
 47
0.0
 47
0.0208333333333333
 47
0.0
 47
0.0
 47
0.0
 47
0.0
 47
1.0
 47
0.0
 47
0.0
 47
0.0
 47
0.0
 47
1.0
171
     0
 49
0.0208333333333333
 49
0.0
 49
0.0
 49
0.0
 49
0.0
 49
0.0208333333333333
 49
0.0
 49
0.0
 49
0.0
 49
0.0
 49
1.0
 49
0.0
 49
0.0
 49
0.0
 49
0.0
 49
1.0
175
     0
142
0.0208333333333333
142
0.0
142
0.0
142
0.0
142
0.0
142
0.0208333333333333
142
0.0
142
0.0
142
0.0
142
0.0
142
1.0
142
0.0
142
0.0
142
0.0
142
0.0
142
1.0
179
     0
144
0.0208333333333333
144
0.0
144
0.0
144
0.0
144
0.0
144
0.0208333333333333
144
0.0
144
0.0
144
0.0
144
0.0
144
1.0
144
0.0
144
0.0
144
0.0
144
0.0
144
1.0
147
0.0208333333333333
147
0.0
147
0.0
147
0.0
147
0.0
147
0.0208333333333333
147
0.0
147
0.0
147
0.0
147
0.0
147
1.0
147
0.0
147
0.0
147
0.0
147
0.0
147
1.0
  0
MATERIAL
  5
DA28
102
{ACAD_XDICTIONARY
360
DA29
102
}
102
{ACAD_REACTORS
330
DA27
102
}
330
DA27
100
AcDbMaterial
  1
ByLayer
 72
     0
 43
0.0208333333333333
 43
0.0
 43
0.0
 43
0.0
 43
0.0
 43
0.0208333333333333
 43
0.0
 43
0.0
 43
0.0
 43
0.0
 43
1.0
 43
0.0
 43
0.0
 43
0.0
 43
0.0
 43
1.0
 77
     0
 47
0.0208333333333333
 47
0.0
 47
0.0
 47
0.0
 47
0.0
 47
0.0208333333333333
 47
0.0
 47
0.0
 47
0.0
 47
0.0
 47
1.0
 47
0.0
 47
0.0
 47
0.0
 47
0.0
 47
1.0
171
     0
 49
0.0208333333333333
 49
0.0
 49
0.0
 49
0.0
 49
0.0
 49
0.0208333333333333
 49
0.0
 49
0.0
 49
0.0
 49
0.0
 49
1.0
 49
0.0
 49
0.0
 49
0.0
 49
0.0
 49
1.0
175
     0
142
0.0208333333333333
142
0.0
142
0.0
142
0.0
142
0.0
142
0.0208333333333333
142
0.0
142
0.0
142
0.0
142
0.0
142
1.0
142
0.0
142
0.0
142
0.0
142
0.0
142
1.0
179
     0
144
0.0208333333333333
144
0.0
144
0.0
144
0.0
144
0.0
144
0.0208333333333333
144
0.0
144
0.0
144
0.0
144
0.0
144
1.0
144
0.0
144
0.0
144
0.0
144
0.0
144
1.0
147
0.0208333333333333
147
0.0
147
0.0
147
0.0
147
0.0
147
0.0208333333333333
147
0.0
147
0.0
147
0.0
147
0.0
147
1.0
147
0.0
147
0.0
147
0.0
147
0.0
147
1.0
  0
MATERIAL
  5
DA38
102
{ACAD_XDICTIONARY
360
DA39
102
}
102
{ACAD_REACTORS
330
DA27
102
}
330
DA27
100
AcDbMaterial
  1
Global
 72
     0
 43
0.0208333333333333
 43
0.0
 43
0.0
 43
0.0
 43
0.0
 43
0.0208333333333333
 43
0.0
 43
0.0
 43
0.0
 43
0.0
 43
1.0
 43
0.0
 43
0.0
 43
0.0
 43
0.0
 43
1.0
 77
     0
 47
0.0208333333333333
 47
0.0
 47
0.0
 47
0.0
 47
0.0
 47
0.0208333333333333
 47
0.0
 47
0.0
 47
0.0
 47
0.0
 47
1.0
 47
0.0
 47
0.0
 47
0.0
 47
0.0
 47
1.0
171
     0
 49
0.0208333333333333
 49
0.0
 49
0.0
 49
0.0
 49
0.0
 49
0.0208333333333333
 49
0.0
 49
0.0
 49
0.0
 49
0.0
 49
1.0
 49
0.0
 49
0.0
 49
0.0
 49
0.0
 49
1.0
175
     0
142
0.0208333333333333
142
0.0
142
0.0
142
0.0
142
0.0
142
0.0208333333333333
142
0.0
142
0.0
142
0.0
142
0.0
142
1.0
142
0.0
142
0.0
142
0.0
142
0.0
142
1.0
179
     0
144
0.0208333333333333
144
0.0
144
0.0
144
0.0
144
0.0
144
0.0208333333333333
144
0.0
144
0.0
144
0.0
144
0.0
144
1.0
144
0.0
144
0.0
144
0.0
144
0.0
144
1.0
147
0.0208333333333333
147
0.0
147
0.0
147
0.0
147
0.0
147
0.0208333333333333
147
0.0
147
0.0
147
0.0
147
0.0
147
1.0
147
0.0
147
0.0
147
0.0
147
0.0
147
1.0
  0
MLEADERSTYLE
  5
DA77
102
{ACAD_REACTORS
330
DA76
102
}
330
DA76
100
AcDbMLeaderStyle
170
     2
171
     1
172
     0
 90
        2
 40
0.0
 41
0.0
173
     1
 91
-1056964608
340
7477
 92
       -2
290
     1
 42
2.0
291
     1
 43
0.36
  3
Standard
 44
4.0
300

342
7475
174
     1
178
     6
175
     1
176
     0
 93
-1056964608
 45
4.0
292
     0
297
     0
 46
4.0
 94
-1056964608
 47
1.0
 49
1.0
140
1.0
293
     1
141
0.0
294
     1
177
     0
142
1.0
295
     0
296
     0
143
0.125
1001
ACAD_MLEADERVER
1070
     2
  0
MLINESTYLE
  5
7480
102
{ACAD_REACTORS
330
7473
102
}
330
0
100
AcDbMlineStyle
  2
STANDARD
 70
     0
  3

 62
     0
 51
90.0
 52
90.0
 71
     2
 49
0.5
 62
   256
  6
BYLAYER
 49
-0.5
 62
   256
  6
BYLAYER
  0
ACDBPLACEHOLDER
  5
7F6A
102
{ACAD_REACTORS
330
7F69
102
}
330
7F69
  0
SCALE
  5
DA55
102
{ACAD_REACTORS
330
DA54
102
}
330
DA54
100
AcDbScale
 70
     0
300
1:1
140
1.0
141
1.0
290
     1
  0
SCALE
  5
DA56
102
{ACAD_REACTORS
330
DA54
102
}
330
DA54
100
AcDbScale
 70
     0
300
1:2
140
1.0
141
2.0
290
     0
  0
SCALE
  5
DA57
102
{ACAD_REACTORS
330
DA54
102
}
330
DA54
100
AcDbScale
 70
     0
300
1:4
140
1.0
141
4.0
290
     0
  0
SCALE
  5
DA58
102
{ACAD_REACTORS
330
DA54
102
}
330
DA54
100
AcDbScale
 70
     0
300
1:5
140
1.0
141
5.0
290
     0
  0
SCALE
  5
DA59
102
{ACAD_REACTORS
330
DA54
102
}
330
DA54
100
AcDbScale
 70
     0
300
1:8
140
1.0
141
8.0
290
     0
  0
SCALE
  5
DA5A
102
{ACAD_REACTORS
330
DA54
102
}
330
DA54
100
AcDbScale
 70
     0
300
1:10
140
1.0
141
10.0
290
     0
  0
SCALE
  5
DA5B
102
{ACAD_REACTORS
330
DA54
102
}
330
DA54
100
AcDbScale
 70
     0
300
1:16
140
1.0
141
16.0
290
     0
  0
SCALE
  5
DA5C
102
{ACAD_REACTORS
330
DA54
102
}
330
DA54
100
AcDbScale
 70
     0
300
1:20
140
1.0
141
20.0
290
     0
  0
SCALE
  5
DA5D
102
{ACAD_REACTORS
330
DA54
102
}
330
DA54
100
AcDbScale
 70
     0
300
1:30
140
1.0
141
30.0
290
     0
  0
SCALE
  5
DA5E
102
{ACAD_REACTORS
330
DA54
102
}
330
DA54
100
AcDbScale
 70
     0
300
1:40
140
1.0
141
40.0
290
     0
  0
SCALE
  5
DA5F
102
{ACAD_REACTORS
330
DA54
102
}
330
DA54
100
AcDbScale
 70
     0
300
1:50
140
1.0
141
50.0
290
     0
  0
SCALE
  5
DA60
102
{ACAD_REACTORS
330
DA54
102
}
330
DA54
100
AcDbScale
 70
     0
300
1:100
140
1.0
141
100.0
290
     0
  0
SCALE
  5
DA61
102
{ACAD_REACTORS
330
DA54
102
}
330
DA54
100
AcDbScale
 70
     0
300
2:1
140
2.0
141
1.0
290
     0
  0
SCALE
  5
DA62
102
{ACAD_REACTORS
330
DA54
102
}
330
DA54
100
AcDbScale
 70
     0
300
4:1
140
4.0
141
1.0
290
     0
  0
SCALE
  5
DA63
102
{ACAD_REACTORS
330
DA54
102
}
330
DA54
100
AcDbScale
 70
     0
300
8:1
140
8.0
141
1.0
290
     0
  0
SCALE
  5
DA64
102
{ACAD_REACTORS
330
DA54
102
}
330
DA54
100
AcDbScale
 70
     0
300
10:1
140
10.0
141
1.0
290
     0
  0
SCALE
  5
DA65
102
{ACAD_REACTORS
330
DA54
102
}
330
DA54
100
AcDbScale
 70
     0
300
100:1
140
100.0
141
1.0
290
     0
  0
SCALE
  5
DA66
102
{ACAD_REACTORS
330
DA54
102
}
330
DA54
100
AcDbScale
 70
     0
300
1/128" = 1'-0"
140
0.0078125
141
12.0
290
     0
  0
SCALE
  5
DA67
102
{ACAD_REACTORS
330
DA54
102
}
330
DA54
100
AcDbScale
 70
     0
300
1/64" = 1'-0"
140
0.015625
141
12.0
290
     0
  0
SCALE
  5
DA68
102
{ACAD_REACTORS
330
DA54
102
}
330
DA54
100
AcDbScale
 70
     0
300
1/32" = 1'-0"
140
0.03125
141
12.0
290
     0
  0
SCALE
  5
DA69
102
{ACAD_REACTORS
330
DA54
102
}
330
DA54
100
AcDbScale
 70
     0
300
1/16" = 1'-0"
140
0.0625
141
12.0
290
     0
  0
SCALE
  5
DA6A
102
{ACAD_REACTORS
330
DA54
102
}
330
DA54
100
AcDbScale
 70
     0
300
3/32" = 1'-0"
140
0.09375
141
12.0
290
     0
  0
SCALE
  5
DA6B
102
{ACAD_REACTORS
330
DA54
102
}
330
DA54
100
AcDbScale
 70
     0
300
1/8" = 1'-0"
140
0.125
141
12.0
290
     0
  0
SCALE
  5
DA6C
102
{ACAD_REACTORS
330
DA54
102
}
330
DA54
100
AcDbScale
 70
     0
300
3/16" = 1'-0"
140
0.1875
141
12.0
290
     0
  0
SCALE
  5
DA6D
102
{ACAD_REACTORS
330
DA54
102
}
330
DA54
100
AcDbScale
 70
     0
300
1/4" = 1'-0"
140
0.25
141
12.0
290
     0
  0
SCALE
  5
DA6E
102
{ACAD_REACTORS
330
DA54
102
}
330
DA54
100
AcDbScale
 70
     0
300
3/8" = 1'-0"
140
0.375
141
12.0
290
     0
  0
SCALE
  5
DA6F
102
{ACAD_REACTORS
330
DA54
102
}
330
DA54
100
AcDbScale
 70
     0
300
1/2" = 1'-0"
140
0.5
141
12.0
290
     0
  0
SCALE
  5
DA70
102
{ACAD_REACTORS
330
DA54
102
}
330
DA54
100
AcDbScale
 70
     0
300
3/4" = 1'-0"
140
0.75
141
12.0
290
     0
  0
SCALE
  5
DA71
102
{ACAD_REACTORS
330
DA54
102
}
330
DA54
100
AcDbScale
 70
     0
300
1" = 1'-0"
140
1.0
141
12.0
290
     0
  0
SCALE
  5
DA72
102
{ACAD_REACTORS
330
DA54
102
}
330
DA54
100
AcDbScale
 70
     0
300
1-1/2" = 1'-0"
140
1.5
141
12.0
290
     0
  0
SCALE
  5
DA73
102
{ACAD_REACTORS
330
DA54
102
}
330
DA54
100
AcDbScale
 70
     0
300
3" = 1'-0"
140
3.0
141
12.0
290
     0
  0
SCALE
  5
DA74
102
{ACAD_REACTORS
330
DA54
102
}
330
DA54
100
AcDbScale
 70
     0
300
6" = 1'-0"
140
6.0
141
12.0
290
     0
  0
SCALE
  5
DA75
102
{ACAD_REACTORS
330
DA54
102
}
330
DA54
100
AcDbScale
 70
     0
300
1'-0" = 1'-0"
140
12.0
141
12.0
290
     0
  0
TABLESTYLE
  5
DA53
102
{ACAD_XDICTIONARY
360
DBC1
102
}
102
{ACAD_REACTORS
330
DA52
102
}
330
DA52
100
AcDbTableStyle
  3
Standard
 70
     0
 71
     0
 40
1.5
 41
1.5
280
     0
281
     0
  7
STANDARD
140
4.5
170
     2
 62
     0
 63
     7
283
     0
274
    -2
284
     1
 64
     0
275
    -2
285
     1
 65
     0
276
    -2
286
     1
 66
     0
277
    -2
287
     1
 67
     0
278
    -2
288
     1
 68
     0
279
    -2
289
     1
 69
     0
  7
STANDARD
140
6.0
170
     5
 62
     0
 63
     7
283
     0
274
    -2
284
     1
 64
     0
275
    -2
285
     1
 65
     0
276
    -2
286
     1
 66
     0
277
    -2
287
     1
 67
     0
278
    -2
288
     1
 68
     0
279
    -2
289
     1
 69
     0
  7
STANDARD
140
4.5
170
     5
 62
     0
 63
     7
283
     0
274
    -2
284
     1
 64
     0
275
    -2
285
     1
 65
     0
276
    -2
286
     1
 66
     0
277
    -2
287
     1
 67
     0
278
    -2
288
     1
 68
     0
279
    -2
289
     1
 69
     0
  0
VISUALSTYLE
  5
DA46
102
{ACAD_REACTORS
330
DA40
102
}
330
DA40
100
AcDbVisualStyle
  2
2dWireframe
 70
     4
 71
     0
 72
     2
 73
     0
 90
        0
 40
-0.6
 41
-30.0
 62
     5
 63
     7
 74
     1
 91
        4
 64
     7
 65
   257
 75
     1
175
     1
 42
1.0
 92
        0
 66
   257
 43
1.0
 76
     1
 77
     6
 78
     2
 67
     7
 79
     5
170
     0
171
     0
290
     0
174
     0
 93
        1
 44
0.0
173
     0
291
     0
 45
0.0
1001
ACAD
1000
AcDbSavedByObjectVersion
1070
     0
  0
VISUALSTYLE
  5
DA48
102
{ACAD_REACTORS
330
DA40
102
}
330
DA40
100
AcDbVisualStyle
  2
3D Hidden
 70
     6
 71
     1
 72
     2
 73
     2
 90
        0
 40
-0.6
 41
-30.0
 62
     5
 63
     7
 74
     2
 91
        2
 64
     7
 65
   257
 75
     2
175
     1
 42
40.0
 92
        0
 66
   257
 43
1.0
 76
     1
 77
     6
 78
     2
 67
     7
 79
     3
170
     0
171
     0
290
     0
174
     0
 93
        1
 44
0.0
173
     0
291
     0
 45
0.0
1001
ACAD
1000
AcDbSavedByObjectVersion
1070
     0
  0
VISUALSTYLE
  5
DA47
102
{ACAD_REACTORS
330
DA40
102
}
330
DA40
100
AcDbVisualStyle
  2
3dWireframe
 70
     5
 71
     0
 72
     2
 73
     0
 90
        0
 40
-0.6
 41
-30.0
 62
     5
 63
     7
 74
     1
 91
        4
 64
     7
 65
   257
 75
     1
175
     1
 42
1.0
 92
        0
 66
   257
 43
1.0
 76
     1
 77
     6
 78
     2
 67
     7
 79
     5
170
     0
171
     0
290
     0
174
     0
 93
        1
 44
0.0
173
     0
291
     0
 45
0.0
1001
ACAD
1000
AcDbSavedByObjectVersion
1070
     0
  0
VISUALSTYLE
  5
DA45
102
{ACAD_REACTORS
330
DA40
102
}
330
DA40
100
AcDbVisualStyle
  2
Basic
 70
     7
 71
     1
 72
     0
 73
     1
 90
        0
 40
-0.6
 41
-30.0
 62
     5
 63
     7
 74
     0
 91
        4
 64
     7
 65
   257
 75
     1
175
     1
 42
1.0
 92
        8
 66
     7
 43
1.0
 76
     1
 77
     6
 78
     2
 67
     7
 79
     5
170
     0
171
     0
290
     0
174
     0
 93
        1
 44
0.0
173
     0
291
     1
 45
0.0
1001
ACAD
1000
AcDbSavedByObjectVersion
1070
     0
  0
VISUALSTYLE
  5
DA4C
102
{ACAD_REACTORS
330
DA40
102
}
330
DA40
100
AcDbVisualStyle
  2
Brighten
 70
    12
 71
     2
 72
     2
 73
     0
 90
        0
 40
-0.6
 41
-30.0
 62
     5
 63
     7
 74
     1
 91
        4
 64
     7
 65
   257
 75
     1
175
     1
 42
1.0
 92
        8
 66
     7
 43
1.0
 76
     1
 77
     6
 78
     2
 67
     7
 79
     5
170
     0
171
     0
290
     0
174
     0
 93
        1
 44
50.0
173
     0
291
     1
 45
0.0
1001
ACAD
1000
AcDbSavedByObjectVersion
1070
     0
  0
VISUALSTYLE
  5
DA50
102
{ACAD_REACTORS
330
DA40
102
}
330
DA40
100
AcDbVisualStyle
  2
ColorChange
 70
    16
 71
     2
 72
     2
 73
     3
 90
        0
 40
-0.6
 41
-30.0
 62
     5
 63
     8
 74
     1
 91
        4
 64
     7
 65
   257
 75
     1
175
     1
 42
1.0
 92
        8
 66
     8
 43
1.0
 76
     1
 77
     6
 78
     2
 67
     7
 79
     5
170
     0
171
     0
290
     0
174
     0
 93
        1
 44
0.0
173
     0
291
     1
 45
0.0
1001
ACAD
1000
AcDbSavedByObjectVersion
1070
     0
  0
VISUALSTYLE
  5
DA49
102
{ACAD_REACTORS
330
DA40
102
}
330
DA40
100
AcDbVisualStyle
  2
Conceptual
 70
     9
 71
     3
 72
     2
 73
     0
 90
        0
 40
-0.6
 41
-30.0
 62
     5
 63
     7
 74
     2
 91
        2
 64
     7
 65
   257
 75
     1
175
     1
 42
40.0
 92
        8
 66
     7
 43
1.0
 76
     1
 77
     6
 78
     2
 67
     7
 79
     3
170
     0
171
     0
290
     0
174
     0
 93
        1
 44
0.0
173
     0
291
     0
 45
0.0
1001
ACAD
1000
AcDbSavedByObjectVersion
1070
     0
  0
VISUALSTYLE
  5
DA4B
102
{ACAD_REACTORS
330
DA40
102
}
330
DA40
100
AcDbVisualStyle
  2
Dim
 70
    11
 71
     2
 72
     2
 73
     0
 90
        0
 40
-0.6
 41
-30.0
 62
     5
 63
     7
 74
     1
 91
        4
 64
     7
 65
   257
 75
     1
175
     1
 42
1.0
 92
        8
 66
     7
 43
1.0
 76
     1
 77
     6
 78
     2
 67
     7
 79
     5
170
     0
171
     0
290
     0
174
     0
 93
        1
 44
-50.0
173
     0
291
     1
 45
0.0
1001
ACAD
1000
AcDbSavedByObjectVersion
1070
     0
  0
VISUALSTYLE
  5
DA4F
102
{ACAD_REACTORS
330
DA40
102
}
330
DA40
100
AcDbVisualStyle
  2
Facepattern
 70
    15
 71
     2
 72
     2
 73
     0
 90
        0
 40
-0.6
 41
-30.0
 62
     5
 63
     7
 74
     1
 91
        4
 64
     7
 65
   257
 75
     1
175
     1
 42
1.0
 92
        8
 66
     7
 43
1.0
 76
     1
 77
     6
 78
     2
 67
     7
 79
     5
170
     0
171
     0
290
     0
174
     0
 93
        1
 44
0.0
173
     0
291
     1
 45
0.0
1001
ACAD
1000
AcDbSavedByObjectVersion
1070
     0
  0
VISUALSTYLE
  5
DA41
102
{ACAD_REACTORS
330
DA40
102
}
330
DA40
100
AcDbVisualStyle
  2
Flat
 70
     0
 71
     2
 72
     1
 73
     1
 90
        2
 40
-0.6
 41
30.0
 62
     5
 63
     7
 74
     0
 91
        4
 64
     7
 65
   257
 75
     1
175
     1
 42
1.0
 92
        8
 66
     7
 43
1.0
 76
     1
 77
     6
 78
     2
 67
     7
 79
     5
170
     0
171
     0
290
     0
174
     0
 93
       13
 44
0.0
173
     0
291
     1
 45
0.0
1001
ACAD
1000
AcDbSavedByObjectVersion
1070
     0
  0
VISUALSTYLE
  5
DA42
102
{ACAD_REACTORS
330
DA40
102
}
330
DA40
100
AcDbVisualStyle
  2
FlatWithEdges
 70
     1
 71
     2
 72
     1
 73
     1
 90
        2
 40
-0.6
 41
30.0
 62
     5
 63
     7
 74
     1
 91
        4
 64
     7
 65
   257
 75
     1
175
     1
 42
1.0
 92
        0
 66
   257
 43
1.0
 76
     1
 77
     6
 78
     2
 67
     7
 79
     5
170
     0
171
     0
290
     0
174
     0
 93
       13
 44
0.0
173
     0
291
     1
 45
0.0
1001
ACAD
1000
AcDbSavedByObjectVersion
1070
     0
  0
VISUALSTYLE
  5
DA43
102
{ACAD_REACTORS
330
DA40
102
}
330
DA40
100
AcDbVisualStyle
  2
Gouraud
 70
     2
 71
     2
 72
     2
 73
     1
 90
        2
 40
-0.6
 41
30.0
 62
     5
 63
     7
 74
     0
 91
        4
 64
     7
 65
   257
 75
     1
175
     1
 42
1.0
 92
        0
 66
     7
 43
1.0
 76
     1
 77
     6
 78
     2
 67
     7
 79
     5
170
     0
171
     0
290
     0
174
     0
 93
       13
 44
0.0
173
     0
291
     1
 45
0.0
1001
ACAD
1000
AcDbSavedByObjectVersion
1070
     0
  0
VISUALSTYLE
  5
DA44
102
{ACAD_REACTORS
330
DA40
102
}
330
DA40
100
AcDbVisualStyle
  2
GouraudWithEdges
 70
     3
 71
     2
 72
     2
 73
     1
 90
        2
 40
-0.6
 41
30.0
 62
     5
 63
     7
 74
     1
 91
        4
 64
     7
 65
   257
 75
     1
175
     1
 42
1.0
 92
        0
 66
   257
 43
1.0
 76
     1
 77
     6
 78
     2
 67
     7
 79
     5
170
     0
171
     0
290
     0
174
     0
 93
       13
 44
0.0
173
     0
291
     1
 45
0.0
1001
ACAD
1000
AcDbSavedByObjectVersion
1070
     0
  0
VISUALSTYLE
  5
DA4E
102
{ACAD_REACTORS
330
DA40
102
}
330
DA40
100
AcDbVisualStyle
  2
Linepattern
 70
    14
 71
     2
 72
     2
 73
     0
 90
        0
 40
-0.6
 41
-30.0
 62
     5
 63
     7
 74
     1
 91
        4
 64
     7
 65
   257
 75
     7
175
     7
 42
1.0
 92
        8
 66
     7
 43
1.0
 76
     1
 77
     6
 78
     2
 67
     7
 79
     5
170
     0
171
     0
290
     0
174
     0
 93
        1
 44
0.0
173
     0
291
     1
 45
0.0
1001
ACAD
1000
AcDbSavedByObjectVersion
1070
     0
  0
VISUALSTYLE
  5
DA4A
102
{ACAD_REACTORS
330
DA40
102
}
330
DA40
100
AcDbVisualStyle
  2
Realistic
 70
     8
 71
     2
 72
     2
 73
     0
 90
        0
 40
-0.6
 41
-30.0
 62
     5
 63
     7
 74
     1
 91
        0
 64
     7
 65
   257
 75
     1
175
     1
 42
1.0
 92
        8
 66
     8
 43
1.0
 76
     1
 77
     6
 78
     2
 67
     7
 79
     5
170
     0
171
     0
290
     0
174
     0
 93
       13
 44
0.0
173
     0
291
     0
 45
0.0
1001
ACAD
1000
AcDbSavedByObjectVersion
1070
     0
  0
VISUALSTYLE
  5
DA4D
102
{ACAD_REACTORS
330
DA40
102
}
330
DA40
100
AcDbVisualStyle
  2
Thicken
 70
    13
 71
     2
 72
     2
 73
     0
 90
        0
 40
-0.6
 41
-30.0
 62
     5
 63
     7
 74
     1
 91
        4
 64
     7
 65
   257
 75
     1
175
     1
 42
1.0
 92
       12
 66
     7
 43
1.0
 76
     1
 77
     6
 78
     2
 67
     7
 79
     5
170
     0
171
     0
290
     0
174
     0
 93
        1
 44
0.0
173
     0
291
     1
 45
0.0
1001
ACAD
1000
AcDbSavedByObjectVersion
1070
     0
  0
DICTIONARYVAR
  5
DBBF
102
{ACAD_REACTORS
330
789B
102
}
330
789B
100
DictionaryVariables
280
     0
  1
1:1
  0
DICTIONARYVAR
  5
DBBE
102
{ACAD_REACTORS
330
789B
102
}
330
789B
100
DictionaryVariables
280
     0
  1
STANDARD
  0
DICTIONARYVAR
  5
DBBD
102
{ACAD_REACTORS
330
789B
102
}
330
789B
100
DictionaryVariables
280
     0
  1
STANDARD
  0
DICTIONARYVAR
  5
7F75
102
{ACAD_REACTORS
330
789B
102
}
330
789B
100
DictionaryVariables
280
     0
  1
1
  0
DICTIONARYVAR
  5
DBC0
102
{ACAD_REACTORS
330
789B
102
}
330
789B
100
DictionaryVariables
280
     0
  1
0
  0
DICTIONARYVAR
  5
789C
102
{ACAD_REACTORS
330
789B
102
}
330
789B
100
DictionaryVariables
280
     0
  1
96
  0
DICTIONARY
  5
DBC7
330
7F6D
100
AcDbDictionary
280
     1
281
     1
  3
ACAD_XREC_ROUNDTRIP
360
DBC8
  0
DICTIONARY
  5
DBC9
330
7F6E
100
AcDbDictionary
280
     1
281
     1
  3
ACAD_XREC_ROUNDTRIP
360
DBCA
  0
DICTIONARY
  5
DA31
330
DA30
100
AcDbDictionary
280
     1
281
     1
  3
ACAD_XREC_ROUNDTRIP
360
DBCC
  3
BUMPTILE
360
DA33
  3
DIFFUSETILE
360
DA32
  3
OPACITYTILE
360
DA36
  3
REFLECTIONTILE
360
DA35
  3
REFRACTIONTILE
360
DA37
  3
SPECULARTILE
360
DA34
  0
DICTIONARY
  5
DA29
330
DA28
100
AcDbDictionary
280
     1
281
     1
  3
ACAD_XREC_ROUNDTRIP
360
DBCB
  3
BUMPTILE
360
DA2B
  3
DIFFUSETILE
360
DA2A
  3
OPACITYTILE
360
DA2E
  3
REFLECTIONTILE
360
DA2D
  3
REFRACTIONTILE
360
DA2F
  3
SPECULARTILE
360
DA2C
  0
DICTIONARY
  5
DA39
330
DA38
100
AcDbDictionary
280
     1
281
     1
  3
ACAD_XREC_ROUNDTRIP
360
DBCD
  3
BUMPTILE
360
DA3B
  3
DIFFUSETILE
360
DA3A
  3
OPACITYTILE
360
DA3E
  3
REFLECTIONTILE
360
DA3D
  3
REFRACTIONTILE
360
DA3F
  3
SPECULARTILE
360
DA3C
  0
DICTIONARY
  5
DBC1
330
DA53
100
AcDbDictionary
280
     1
281
     1
  3
ACAD_ROUNDTRIP_2008_TABLESTYLE_CELLSTYLEMAP
360
DBC2
  3
ACAD_XREC_ROUNDTRIP
360
DBCE
  0
XRECORD
  5
DBC8
102
{ACAD_REACTORS
330
DBC7
102
}
330
DBC7
100
AcDbXrecord
280
     1
102
SHADEPLOT
 70
     0
102
SHADEPLOTRESLEVEL
 70
     2
102
SHADEPLOTCUSTOMDPI
 70
   300
  0
XRECORD
  5
DBCA
102
{ACAD_REACTORS
330
DBC9
102
}
330
DBC9
100
AcDbXrecord
280
     1
102
SHADEPLOT
 70
     0
102
SHADEPLOTRESLEVEL
 70
     2
102
SHADEPLOTCUSTOMDPI
 70
   300
  0
XRECORD
  5
DBCC
102
{ACAD_REACTORS
330
DA31
102
}
330
DA31
100
AcDbXrecord
280
     1
102
MATERIAL
148
0.0
149
0.0
149
0.0
 93
        0
 94
      127
282
     0
 72
     0
 77
     0
171
     0
175
     0
179
     0
273
     0
  0
XRECORD
  5
DA33
102
{ACAD_REACTORS
330
DA31
102
}
330
DA31
100
AcDbXrecord
280
     1
270
     1
271
     1
  0
XRECORD
  5
DA32
102
{ACAD_REACTORS
330
DA31
102
}
330
DA31
100
AcDbXrecord
280
     1
270
     1
271
     1
  0
XRECORD
  5
DA36
102
{ACAD_REACTORS
330
DA31
102
}
330
DA31
100
AcDbXrecord
280
     1
270
     1
271
     1
  0
XRECORD
  5
DA35
102
{ACAD_REACTORS
330
DA31
102
}
330
DA31
100
AcDbXrecord
280
     1
270
     1
271
     1
  0
XRECORD
  5
DA37
102
{ACAD_REACTORS
330
DA31
102
}
330
DA31
100
AcDbXrecord
280
     1
270
     1
271
     1
  0
XRECORD
  5
DA34
102
{ACAD_REACTORS
330
DA31
102
}
330
DA31
100
AcDbXrecord
280
     1
270
     1
271
     1
  0
XRECORD
  5
DBCB
102
{ACAD_REACTORS
330
DA29
102
}
330
DA29
100
AcDbXrecord
280
     1
102
MATERIAL
148
0.0
149
0.0
149
0.0
 93
        0
 94
      127
282
     0
 72
     0
 77
     0
171
     0
175
     0
179
     0
273
     0
  0
XRECORD
  5
DA2B
102
{ACAD_REACTORS
330
DA29
102
}
330
DA29
100
AcDbXrecord
280
     1
270
     1
271
     1
  0
XRECORD
  5
DA2A
102
{ACAD_REACTORS
330
DA29
102
}
330
DA29
100
AcDbXrecord
280
     1
270
     1
271
     1
  0
XRECORD
  5
DA2E
102
{ACAD_REACTORS
330
DA29
102
}
330
DA29
100
AcDbXrecord
280
     1
270
     1
271
     1
  0
XRECORD
  5
DA2D
102
{ACAD_REACTORS
330
DA29
102
}
330
DA29
100
AcDbXrecord
280
     1
270
     1
271
     1
  0
XRECORD
  5
DA2F
102
{ACAD_REACTORS
330
DA29
102
}
330
DA29
100
AcDbXrecord
280
     1
270
     1
271
     1
  0
XRECORD
  5
DA2C
102
{ACAD_REACTORS
330
DA29
102
}
330
DA29
100
AcDbXrecord
280
     1
270
     1
271
     1
  0
XRECORD
  5
DBCD
102
{ACAD_REACTORS
330
DA39
102
}
330
DA39
100
AcDbXrecord
280
     1
102
MATERIAL
148
0.0
149
0.0
149
0.0
 93
        0
 94
      127
282
     0
 72
     0
 77
     0
171
     0
175
     0
179
     0
273
     0
  0
XRECORD
  5
DA3B
102
{ACAD_REACTORS
330
DA39
102
}
330
DA39
100
AcDbXrecord
280
     1
270
     1
271
     1
  0
XRECORD
  5
DA3A
102
{ACAD_REACTORS
330
DA39
102
}
330
DA39
100
AcDbXrecord
280
     1
270
     1
271
     1
  0
XRECORD
  5
DA3E
102
{ACAD_REACTORS
330
DA39
102
}
330
DA39
100
AcDbXrecord
280
     1
270
     1
271
     1
  0
XRECORD
  5
DA3D
102
{ACAD_REACTORS
330
DA39
102
}
330
DA39
100
AcDbXrecord
280
     1
270
     1
271
     1
  0
XRECORD
  5
DA3F
102
{ACAD_REACTORS
330
DA39
102
}
330
DA39
100
AcDbXrecord
280
     1
270
     1
271
     1
  0
XRECORD
  5
DA3C
102
{ACAD_REACTORS
330
DA39
102
}
330
DA39
100
AcDbXrecord
280
     1
270
     1
271
     1
  0
CELLSTYLEMAP
  5
DBC2
102
{ACAD_REACTORS
330
DBC1
102
}
330
DBC1
100
AcDbCellStyleMap
 90
        3
300
CELLSTYLE
  1
TABLEFORMAT_BEGIN
 90
        5
170
     1
 91
        0
 92
    32768
 62
   257
 93
        1
300
CONTENTFORMAT
  1
CONTENTFORMAT_BEGIN
 90
        0
 91
        0
 92
      512
 93
        0
300

 40
0.0
140
1.0
 94
        5
 62
     0
340
7475
144
6.0
309
CONTENTFORMAT_END
171
     1
301
MARGIN
  1
CELLMARGIN_BEGIN
 40
1.5
 40
1.5
 40
1.5
 40
1.5
 40
4.5
 40
4.5
309
CELLMARGIN_END
 94
        6
 95
        1
302
GRIDFORMAT
  1
GRIDFORMAT_BEGIN
 90
        0
 91
        1
 62
     0
 92
       -2
340
0
 93
        0
 40
1.125
309
GRIDFORMAT_END
 95
        2
302
GRIDFORMAT
  1
GRIDFORMAT_BEGIN
 90
        0
 91
        1
 62
     0
 92
       -2
340
0
 93
        0
 40
1.125
309
GRIDFORMAT_END
 95
        4
302
GRIDFORMAT
  1
GRIDFORMAT_BEGIN
 90
        0
 91
        1
 62
     0
 92
       -2
340
0
 93
        0
 40
1.125
309
GRIDFORMAT_END
 95
        8
302
GRIDFORMAT
  1
GRIDFORMAT_BEGIN
 90
        0
 91
        1
 62
     0
 92
       -2
340
0
 93
        0
 40
1.125
309
GRIDFORMAT_END
 95
       16
302
GRIDFORMAT
  1
GRIDFORMAT_BEGIN
 90
        0
 91
        1
 62
     0
 92
       -2
340
0
 93
        0
 40
1.125
309
GRIDFORMAT_END
 95
       32
302
GRIDFORMAT
  1
GRIDFORMAT_BEGIN
 90
        0
 91
        1
 62
     0
 92
       -2
340
0
 93
        0
 40
1.125
309
GRIDFORMAT_END
309
TABLEFORMAT_END
  1
CELLSTYLE_BEGIN
 90
        1
 91
        1
300
_TITLE
309
CELLSTYLE_END
300
CELLSTYLE
  1
TABLEFORMAT_BEGIN
 90
        5
170
     1
 91
        0
 92
        0
 62
   257
 93
        1
300
CONTENTFORMAT
  1
CONTENTFORMAT_BEGIN
 90
        0
 91
        0
 92
      512
 93
        0
300

 40
0.0
140
1.0
 94
        5
 62
     0
340
7475
144
4.5
309
CONTENTFORMAT_END
171
     1
301
MARGIN
  1
CELLMARGIN_BEGIN
 40
1.5
 40
1.5
 40
1.5
 40
1.5
 40
4.5
 40
4.5
309
CELLMARGIN_END
 94
        6
 95
        1
302
GRIDFORMAT
  1
GRIDFORMAT_BEGIN
 90
        0
 91
        1
 62
     0
 92
       -2
340
0
 93
        0
 40
1.125
309
GRIDFORMAT_END
 95
        2
302
GRIDFORMAT
  1
GRIDFORMAT_BEGIN
 90
        0
 91
        1
 62
     0
 92
       -2
340
0
 93
        0
 40
1.125
309
GRIDFORMAT_END
 95
        4
302
GRIDFORMAT
  1
GRIDFORMAT_BEGIN
 90
        0
 91
        1
 62
     0
 92
       -2
340
0
 93
        0
 40
1.125
309
GRIDFORMAT_END
 95
        8
302
GRIDFORMAT
  1
GRIDFORMAT_BEGIN
 90
        0
 91
        1
 62
     0
 92
       -2
340
0
 93
        0
 40
1.125
309
GRIDFORMAT_END
 95
       16
302
GRIDFORMAT
  1
GRIDFORMAT_BEGIN
 90
        0
 91
        1
 62
     0
 92
       -2
340
0
 93
        0
 40
1.125
309
GRIDFORMAT_END
 95
       32
302
GRIDFORMAT
  1
GRIDFORMAT_BEGIN
 90
        0
 91
        1
 62
     0
 92
       -2
340
0
 93
        0
 40
1.125
309
GRIDFORMAT_END
309
TABLEFORMAT_END
  1
CELLSTYLE_BEGIN
 90
        2
 91
        1
300
_HEADER
309
CELLSTYLE_END
300
CELLSTYLE
  1
TABLEFORMAT_BEGIN
 90
        5
170
     1
 91
        0
 92
        0
 62
   257
 93
        1
300
CONTENTFORMAT
  1
CONTENTFORMAT_BEGIN
 90
        0
 91
        0
 92
      512
 93
        0
300

 40
0.0
140
1.0
 94
        2
 62
     0
340
7475
144
4.5
309
CONTENTFORMAT_END
171
     1
301
MARGIN
  1
CELLMARGIN_BEGIN
 40
1.5
 40
1.5
 40
1.5
 40
1.5
 40
4.5
 40
4.5
309
CELLMARGIN_END
 94
        6
 95
        1
302
GRIDFORMAT
  1
GRIDFORMAT_BEGIN
 90
        0
 91
        1
 62
     0
 92
       -2
340
0
 93
        0
 40
1.125
309
GRIDFORMAT_END
 95
        2
302
GRIDFORMAT
  1
GRIDFORMAT_BEGIN
 90
        0
 91
        1
 62
     0
 92
       -2
340
0
 93
        0
 40
1.125
309
GRIDFORMAT_END
 95
        4
302
GRIDFORMAT
  1
GRIDFORMAT_BEGIN
 90
        0
 91
        1
 62
     0
 92
       -2
340
0
 93
        0
 40
1.125
309
GRIDFORMAT_END
 95
        8
302
GRIDFORMAT
  1
GRIDFORMAT_BEGIN
 90
        0
 91
        1
 62
     0
 92
       -2
340
0
 93
        0
 40
1.125
309
GRIDFORMAT_END
 95
       16
302
GRIDFORMAT
  1
GRIDFORMAT_BEGIN
 90
        0
 91
        1
 62
     0
 92
       -2
340
0
 93
        0
 40
1.125
309
GRIDFORMAT_END
 95
       32
302
GRIDFORMAT
  1
GRIDFORMAT_BEGIN
 90
        0
 91
        1
 62
     0
 92
       -2
340
0
 93
        0
 40
1.125
309
GRIDFORMAT_END
309
TABLEFORMAT_END
  1
CELLSTYLE_BEGIN
 90
        3
 91
        2
300
_DATA
309
CELLSTYLE_END
  0
XRECORD
  5
DBCE
102
{ACAD_REACTORS
330
DBC1
102
}
330
DBC1
100
AcDbXrecord
280
     1
102
ACAD_ROUNDTRIP_PRE2007_TABLESTYLE
 90
      512
 91
        0
  1

 92
      512
 93
        0
  2

 94
      512
 95
        0
  3

  0
ENDSEC
  0
EOF
