  0
SECTION
  2
HEADER
  9
$ACADVER
  1
AC1015
  9
$ACADMAINTVER
 70
    13
  9
$DWGCODEPAGE
  3
ANSI_932
  9
$INSBASE
 10
0.0
 20
0.0
 30
0.0
  9
$EXTMIN
 10
-2.072222772425448
 20
-0.7571932061873668
 30
-0.0000000000000129
  9
$EXTMAX
 10
7425.33795184204
 20
5250.80253893531
 30
0.0000000000000023
  9
$LIMMIN
 10
0.0
 20
0.0
  9
$LIMMAX
 10
420.0
 20
297.0
  9
$ORTHOMODE
 70
     1
  9
$REGENMODE
 70
     1
  9
$FILLMODE
 70
     1
  9
$QTEXTMODE
 70
     0
  9
$MIRRTEXT
 70
     1
  9
$LTSCALE
 40
0.5
  9
$ATTMODE
 70
     1
  9
$TEXTSIZE
 40
2.799999999999999
  9
$TRACEWID
 40
1.0
  9
$TEXTSTYLE
  7
SANWA
  9
$CLAYER
  8
0
  9
$CELTYPE
  6
BYLAYER
  9
$CECOLOR
 62
   256
  9
$CELTSCALE
 40
25.0
  9
$DISPSILH
 70
     0
  9
$DIMSCALE
 40
25.0
  9
$DIMASZ
 40
1.5
  9
$DIMEXO
 40
1.0
  9
$DIMDLI
 40
5.0
  9
$DIMRND
 40
0.0
  9
$DIMDLE
 40
0.0
  9
$DIMEXE
 40
0.5
  9
$DIMTP
 40
0.0
  9
$DIMTM
 40
0.0
  9
$DIMTXT
 40
2.0
  9
$DIMCEN
 40
0.0
  9
$DIMTSZ
 40
0.0
  9
$DIMTOL
 70
     0
  9
$DIMLIM
 70
     0
  9
$DIMTIH
 70
     0
  9
$DIMTOH
 70
     0
  9
$DIMSE1
 70
     0
  9
$DIMSE2
 70
     0
  9
$DIMTAD
 70
     1
  9
$DIMZIN
 70
     8
  9
$DIMBLK
  1

  9
$DIMASO
 70
     1
  9
$DIMSHO
 70
     1
  9
$DIMPOST
  1

  9
$DIMAPOST
  1

  9
$DIMALT
 70
     0
  9
$DIMALTD
 70
     2
  9
$DIMALTF
 40
0.0394
  9
$DIMLFAC
 40
1.0
  9
$DIMTOFL
 70
     1
  9
$DIMTVP
 40
0.0
  9
$DIMTIX
 70
     1
  9
$DIMSOXD
 70
     0
  9
$DIMSAH
 70
     0
  9
$DIMBLK1
  1

  9
$DIMBLK2
  1

  9
$DIMSTYLE
  2
SANWA
  9
$DIMCLRD
 70
   256
  9
$DIMCLRE
 70
   256
  9
$DIMCLRT
 70
   256
  9
$DIMTFAC
 40
1.0
  9
$DIMGAP
 40
1.0
  9
$DIMJUST
 70
     0
  9
$DIMSD1
 70
     0
  9
$DIMSD2
 70
     0
  9
$DIMTOLJ
 70
     1
  9
$DIMTZIN
 70
     0
  9
$DIMALTZ
 70
     0
  9
$DIMALTTZ
 70
     0
  9
$DIMUPT
 70
     0
  9
$DIMDEC
 70
     4
  9
$DIMTDEC
 70
     4
  9
$DIMALTU
 70
     2
  9
$DIMALTTD
 70
     2
  9
$DIMTXSTY
  7
SANWA
  9
$DIMAUNIT
 70
     0
  9
$DIMADEC
 70
     0
  9
$DIMALTRND
 40
0.0
  9
$DIMAZIN
 70
     0
  9
$DIMDSEP
 70
    46
  9
$DIMATFIT
 70
     3
  9
$DIMFRAC
 70
     0
  9
$DIMLDRBLK
  1

  9
$DIMLUNIT
 70
     2
  9
$DIMLWD
 70
    -2
  9
$DIMLWE
 70
    -2
  9
$DIMTMOVE
 70
     0
  9
$LUNITS
 70
     2
  9
$LUPREC
 70
     4
  9
$SKETCHINC
 40
1.0
  9
$FILLETRAD
 40
50.0
  9
$AUNITS
 70
     0
  9
$AUPREC
 70
     0
  9
$MENU
  1
acad
  9
$ELEVATION
 40
0.0
  9
$PELEVATION
 40
0.0
  9
$THICKNESS
 40
0.0
  9
$LIMCHECK
 70
     0
  9
$CHAMFERA
 40
0.0
  9
$CHAMFERB
 40
0.0
  9
$CHAMFERC
 40
0.0
  9
$CHAMFERD
 40
0.0
  9
$SKPOLY
 70
     1
  9
$TDCREATE
 40
2451806.361679282
  9
$TDUCREATE
 40
2451805.986679282
  9
$TDUPDATE
 40
2454167.404169190
  9
$TDUUPDATE
 40
2454167.029169189
  9
$TDINDWG
 40
0.7836170023
  9
$TDUSRTIMER
 40
0.7836170023
  9
$USRTIMER
 70
     1
  9
$ANGBASE
 50
0.0
  9
$ANGDIR
 70
     0
  9
$PDMODE
 70
     0
  9
$PDSIZE
 40
0.0
  9
$PLINEWID
 40
0.0
  9
$SPLFRAME
 70
     0
  9
$SPLINETYPE
 70
     6
  9
$SPLINESEGS
 70
     8
  9
$HANDSEED
  5
CE98
  9
$SURFTAB1
 70
     6
  9
$SURFTAB2
 70
     6
  9
$SURFTYPE
 70
     6
  9
$SURFU
 70
     6
  9
$SURFV
 70
     6
  9
$UCSBASE
  2

  9
$UCSNAME
  2

  9
$UCSORG
 10
0.0
 20
0.0
 30
0.0
  9
$UCSXDIR
 10
1.0
 20
0.0
 30
0.0
  9
$UCSYDIR
 10
0.0
 20
1.0
 30
0.0
  9
$UCSORTHOREF
  2

  9
$UCSORTHOVIEW
 70
     0
  9
$UCSORGTOP
 10
0.0
 20
0.0
 30
0.0
  9
$UCSORGBOTTOM
 10
0.0
 20
0.0
 30
0.0
  9
$UCSORGLEFT
 10
0.0
 20
0.0
 30
0.0
  9
$UCSORGRIGHT
 10
0.0
 20
0.0
 30
0.0
  9
$UCSORGFRONT
 10
0.0
 20
0.0
 30
0.0
  9
$UCSORGBACK
 10
0.0
 20
0.0
 30
0.0
  9
$PUCSBASE
  2

  9
$PUCSNAME
  2

  9
$PUCSORG
 10
0.0
 20
0.0
 30
0.0
  9
$PUCSXDIR
 10
1.0
 20
0.0
 30
0.0
  9
$PUCSYDIR
 10
0.0
 20
1.0
 30
0.0
  9
$PUCSORTHOREF
  2

  9
$PUCSORTHOVIEW
 70
     0
  9
$PUCSORGTOP
 10
0.0
 20
0.0
 30
0.0
  9
$PUCSORGBOTTOM
 10
0.0
 20
0.0
 30
0.0
  9
$PUCSORGLEFT
 10
0.0
 20
0.0
 30
0.0
  9
$PUCSORGRIGHT
 10
0.0
 20
0.0
 30
0.0
  9
$PUCSORGFRONT
 10
0.0
 20
0.0
 30
0.0
  9
$PUCSORGBACK
 10
0.0
 20
0.0
 30
0.0
  9
$USERI1
 70
     0
  9
$USERI2
 70
     0
  9
$USERI3
 70
     0
  9
$USERI4
 70
     0
  9
$USERI5
 70
     0
  9
$USERR1
 40
0.0
  9
$USERR2
 40
0.0
  9
$USERR3
 40
0.0
  9
$USERR4
 40
0.0
  9
$USERR5
 40
0.0
  9
$WORLDVIEW
 70
     1
  9
$SHADEDGE
 70
     3
  9
$SHADEDIF
 70
    70
  9
$TILEMODE
 70
     1
  9
$MAXACTVP
 70
    48
  9
$PINSBASE
 10
0.0
 20
0.0
 30
0.0
  9
$PLIMCHECK
 70
     0
  9
$PEXTMIN
 10
1.000000000000000E+20
 20
1.000000000000000E+20
 30
1.000000000000000E+20
  9
$PEXTMAX
 10
-1.000000000000000E+20
 20
-1.000000000000000E+20
 30
-1.000000000000000E+20
  9
$PLIMMIN
 10
-117.3880621053552
 20
-1147.778930325621
  9
$PLIMMAX
 10
5873.875641303368
 20
3088.506753269061
  9
$UNITMODE
 70
     0
  9
$VISRETAIN
 70
     1
  9
$PLINEGEN
 70
     0
  9
$PSLTSCALE
 70
     1
  9
$TREEDEPTH
 70
  3020
  9
$CMLSTYLE
  2
STANDARD
  9
$CMLJUST
 70
     0
  9
$CMLSCALE
 40
1.0
  9
$PROXYGRAPHICS
 70
     1
  9
$MEASUREMENT
 70
     1
  9
$CELWEIGHT
370
    -1
  9
$ENDCAPS
280
     0
  9
$JOINSTYLE
280
     0
  9
$LWDISPLAY
290
     0
  9
$INSUNITS
 70
     0
  9
$HYPERLINKBASE
  1

  9
$STYLESHEET
  1
sanwa3.ctb
  9
$XEDIT
290
     1
  9
$CEPSNTYPE
380
     0
  9
$PSTYLEMODE
290
     1
  9
$FINGERPRINTGUID
  2
{FF69E217-7CBD-426C-8D1A-915AA093CE5F}
  9
$VERSIONGUID
  2
{D3E60F57-1EA0-4665-879D-ED76E50C8468}
  9
$EXTNAMES
290
     1
  9
$PSVPSCALE
 40
0.0
  9
$OLESTARTUP
290
     0
  0
ENDSEC
  0
SECTION
  2
CLASSES
  0
CLASS
  1
LWPOLYLINE
  2
AcDbPolyline
  3
AutoCAD 2000
 90
    32768
280
     0
281
     1
  0
CLASS
  1
DICTIONARYVAR
  2
AcDbDictionaryVar
  3
AutoCAD 2000
 90
        0
280
     0
281
     0
  0
CLASS
  1
HATCH
  2
AcDbHatch
  3
AutoCAD 2000
 90
    32768
280
     0
281
     1
  0
CLASS
  1
ACDBDICTIONARYWDFLT
  2
AcDbDictionaryWithDefault
  3
AutoCAD 2000
 90
        0
280
     0
281
     0
  0
CLASS
  1
ACDBPLACEHOLDER
  2
AcDbPlaceHolder
  3
AutoCAD 2000
 90
        0
280
     0
281
     0
  0
CLASS
  1
LAYOUT
  2
AcDbLayout
  3
AutoCAD 2000
 90
        0
280
     0
281
     0
  0
ENDSEC
  0
SECTION
  2
TABLES
  0
TABLE
  2
VPORT
  5
746D
330
0
100
AcDbSymbolTable
 70
     2
  0
VPORT
  5
CE97
330
746D
100
AcDbSymbolTableRecord
100
AcDbViewportTableRecord
  2
*Active
 70
     0
 10
0.0
 20
0.0
 11
1.0
 21
1.0
 12
3711.632828774167
 22
2625.022610355932
 13
0.0
 23
0.0
 14
10.0
 24
10.0
 15
10.0
 25
10.0
 16
0.0
 26
0.0
 36
1.0
 17
0.0
 27
0.0
 37
0.0
 40
5643.9524242287
 41
1.393129770992366
 42
50.0
 43
0.0
 44
0.0
 50
0.0
 51
0.0
 71
     0
 72
   100
 73
     1
 74
     0
 75
     0
 76
     0
 77
     0
 78
     0
281
     0
 65
     1
110
0.0
120
0.0
130
0.0
111
1.0
121
0.0
131
0.0
112
0.0
122
1.0
132
0.0
 79
     0
146
0.0
  0
ENDTAB
  0
TABLE
  2
LTYPE
  5
746A
330
0
100
AcDbSymbolTable
 70
     5
  0
LTYPE
  5
7477
330
746A
100
AcDbSymbolTableRecord
100
AcDbLinetypeTableRecord
  2
BYBLOCK
 70
     0
  3

 72
    65
 73
     0
 40
0.0
  0
LTYPE
  5
7478
330
746A
100
AcDbSymbolTableRecord
100
AcDbLinetypeTableRecord
  2
BYLAYER
 70
     0
  3

 72
    65
 73
     0
 40
0.0
  0
LTYPE
  5
7479
330
746A
100
AcDbSymbolTableRecord
100
AcDbLinetypeTableRecord
  2
CONTINUOUS
 70
     0
  3
Solid line
 72
    65
 73
     0
 40
0.0
  0
LTYPE
  5
7D54
330
746A
100
AcDbSymbolTableRecord
100
AcDbLinetypeTableRecord
  2
CENTER2
 70
     0
  3
Center (.5x) ___ _ ___ _ ___ _ ___ _ ___ _ ___
 72
    65
 73
     4
 40
28.57499999999999
 49
19.05
 74
     0
 49
-3.174999999999999
 74
     0
 49
3.174999999999999
 74
     0
 49
-3.174999999999999
 74
     0
  0
LTYPE
  5
7D55
330
746A
100
AcDbSymbolTableRecord
100
AcDbLinetypeTableRecord
  2
DOT
 70
     0
  3
Dot . . . . . . . . . . . . . . . . . . . . . .
 72
    65
 73
     2
 40
6.349999999999999
 49
0.0
 74
     0
 49
-6.349999999999999
 74
     0
  0
LTYPE
  5
7D56
330
746A
100
AcDbSymbolTableRecord
100
AcDbLinetypeTableRecord
  2
HIDDEN2
 70
     0
  3
Hidden (.5x) _ _ _ _ _ _ _ _ _ _ _ _ _ _ _ _ _
 72
    65
 73
     2
 40
4.762499999999999
 49
3.174999999999999
 74
     0
 49
-1.587499999999999
 74
     0
  0
LTYPE
  5
7D57
330
746A
100
AcDbSymbolTableRecord
100
AcDbLinetypeTableRecord
  2
PHANTOM2
 70
     0
  3
Phantom (.5x) ___ _ _ ___ _ _ ___ _ _ ___ _ _
 72
    65
 73
     6
 40
31.75
 49
15.875
 74
     0
 49
-3.174999999999999
 74
     0
 49
3.174999999999999
 74
     0
 49
-3.174999999999999
 74
     0
 49
3.174999999999999
 74
     0
 49
-3.174999999999999
 74
     0
  0
ENDTAB
  0
TABLE
  2
LAYER
  5
7467
330
0
100
AcDbSymbolTable
 70
     8
  0
LAYER
  5
7474
330
7467
100
AcDbSymbolTableRecord
100
AcDbLayerTableRecord
  2
0
 70
     0
 62
     7
  6
CONTINUOUS
370
    -3
390
7F6A
  0
LAYER
  5
7485
330
7467
100
AcDbSymbolTableRecord
100
AcDbLayerTableRecord
  2
DEFPOINTS
 70
     0
 62
     7
  6
CONTINUOUS
290
     0
370
    -3
390
7F6A
  0
LAYER
  5
7486
330
7467
100
AcDbSymbolTableRecord
100
AcDbLayerTableRecord
  2
OBJECT
 70
     0
 62
     7
  6
CONTINUOUS
370
    -3
390
7F6A
  0
LAYER
  5
7950
330
7467
100
AcDbSymbolTableRecord
100
AcDbLayerTableRecord
  2
枠
 70
     0
 62
     3
  6
CONTINUOUS
370
    -3
390
7F6A
  0
LAYER
  5
7D58
330
7467
100
AcDbSymbolTableRecord
100
AcDbLayerTableRecord
  2
寸法引出
 70
     0
 62
     2
  6
CONTINUOUS
370
    -3
390
7F6A
  0
LAYER
  5
7D59
330
7467
100
AcDbSymbolTableRecord
100
AcDbLayerTableRecord
  2
鉄筋
 70
     0
 62
     4
  6
CONTINUOUS
370
    -3
390
7F6A
  0
LAYER
  5
7D5A
330
7467
100
AcDbSymbolTableRecord
100
AcDbLayerTableRecord
  2
補助線
 70
     0
 62
     6
  6
CONTINUOUS
370
    -3
390
7F6A
  0
LAYER
  5
81DF
330
7467
100
AcDbSymbolTableRecord
100
AcDbLayerTableRecord
  2
ASHADE
 70
     0
 62
     7
  6
CONTINUOUS
370
    -3
390
7F6A
  0
ENDTAB
  0
TABLE
  2
STYLE
  5
7468
330
0
100
AcDbSymbolTable
 70
     5
  0
STYLE
  5
7475
330
7468
100
AcDbSymbolTableRecord
100
AcDbTextStyleTableRecord
  2
STANDARD
 70
     0
 40
0.0
 41
1.0
 50
0.0
 71
     0
 42
3.5
  3
txt
  4

  0
STYLE
  5
7481
330
7468
100
AcDbSymbolTableRecord
100
AcDbTextStyleTableRecord
  2
ADESK1
 70
     0
 40
0.0
 41
1.0
 50
0.0
 71
     0
 42
5.0
  3
romans
  4
bigfont
  0
STYLE
  5
7731
330
7468
100
AcDbSymbolTableRecord
100
AcDbTextStyleTableRecord
  2
SANWA
 70
     0
 40
0.0
 41
1.0
 50
0.0
 71
     0
 42
2.799999999999999
  3
MS Mincho.ttf
  4

1001
ACAD
1000
MS Mincho
1071
    32785
  0
STYLE
  5
7D45
330
7468
100
AcDbSymbolTableRecord
100
AcDbTextStyleTableRecord
  2

 70
     1
 40
0.0
 41
1.0
 50
0.0
 71
     0
 42
3.5
  3
ltypeshp.shx
  4

  0
STYLE
  5
81DC
330
7468
100
AcDbSymbolTableRecord
100
AcDbTextStyleTableRecord
  2
ASHADE
 70
     0
 40
0.2
 41
1.0
 50
0.0
 71
     0
 42
2.799999999999999
  3
txt.shx
  4
bigfont.shx
  0
ENDTAB
  0
TABLE
  2
VIEW
  5
746B
330
0
100
AcDbSymbolTable
 70
     0
  0
ENDTAB
  0
TABLE
  2
UCS
  5
746C
330
0
100
AcDbSymbolTable
 70
     0
  0
ENDTAB
  0
TABLE
  2
APPID
  5
746E
330
0
100
AcDbSymbolTable
 70
     6
  0
APPID
  5
7476
330
746E
100
AcDbSymbolTableRecord
100
AcDbRegAppTableRecord
  2
ACAD
 70
     0
  0
APPID
  5
81DD
330
746E
100
AcDbSymbolTableRecord
100
AcDbRegAppTableRecord
  2
AVE_RENDER
 70
     0
  0
APPID
  5
81DE
330
746E
100
AcDbSymbolTableRecord
100
AcDbRegAppTableRecord
  2
AVE_ENTITY_MATERIAL
 70
     0
  0
APPID
  5
81EB
330
746E
100
AcDbSymbolTableRecord
100
AcDbRegAppTableRecord
  2
AVE_FINISH
 70
     0
  0
APPID
  5
81EC
330
746E
100
AcDbSymbolTableRecord
100
AcDbRegAppTableRecord
  2
AVE_MATERIAL
 70
     0
  0
APPID
  5
81ED
330
746E
100
AcDbSymbolTableRecord
100
AcDbRegAppTableRecord
  2
AVE_GLOBAL
 70
     0
  0
ENDTAB
  0
TABLE
  2
DIMSTYLE
  5
746F
330
0
100
AcDbSymbolTable
 70
     4
100
AcDbDimStyleTable
 71
     1
340
796F
  0
DIMSTYLE
105
7484
330
746F
100
AcDbSymbolTableRecord
100
AcDbDimStyleTableRecord
  2
JIS
 70
     0
 41
2.5
 42
1.0
 43
7.0
 44
1.0
 73
     0
 74
     0
 77
     1
 78
     8
140
2.5
141
0.0
143
0.0394
147
0.0
172
     1
174
     1
176
     2
177
     2
178
     2
340
7731
  0
DIMSTYLE
105
796F
102
{ACAD_REACTORS
330
C0E1
330
C0E0
330
C0DF
330
C0DE
330
C0E3
330
C0E8
330
C0DD
330
C0DC
330
C00A
330
C009
330
C01A
330
C016
330
C020
330
C07F
330
C084
330
C09C
330
C09B
330
C09A
330
C099
330
C0B3
330
C0B2
330
C0B1
330
C0B0
330
C0B4
330
CD1D
102
}
330
746F
100
AcDbSymbolTableRecord
100
AcDbDimStyleTableRecord
  2
SANWA
 70
     0
 41
2.5
 42
1.0
 43
7.0
 44
1.0
 73
     0
 74
     0
 77
     1
 78
     8
140
2.5
141
0.0
143
0.0394
147
0.0
172
     1
174
     1
176
     2
177
     2
178
     2
340
7731
  0
DIMSTYLE
105
7C9D
330
746F
100
AcDbSymbolTableRecord
100
AcDbDimStyleTableRecord
  2
SANWA$4
 70
     0
 41
2.5
 42
1.0
 43
5.0
 44
1.0
 73
     0
 74
     0
 77
     1
 78
     8
140
2.5
141
0.0
143
0.0394
147
1.0
172
     1
174
     1
176
     2
177
     2
178
     2
289
     2
340
7731
  0
DIMSTYLE
105
7CB5
330
746F
100
AcDbSymbolTableRecord
100
AcDbDimStyleTableRecord
  2
SANWA$3
 70
     0
 41
2.5
 42
1.0
 43
7.0
 44
1.0
 73
     0
 74
     0
 77
     1
 78
     8
140
2.5
141
0.0
143
0.0394
147
0.0
172
     1
174
     1
176
     2
177
     2
178
     2
289
     0
340
7731
  0
ENDTAB
  0
TABLE
  2
BLOCK_RECORD
  5
7466
330
0
100
AcDbSymbolTable
 70
    92
  0
BLOCK_RECORD
  5
747D
330
7466
100
AcDbSymbolTableRecord
100
AcDbBlockTableRecord
  2
*MODEL_SPACE
340
7F6D
  0
BLOCK_RECORD
  5
747A
330
7466
100
AcDbSymbolTableRecord
100
AcDbBlockTableRecord
  2
*PAPER_SPACE
340
7F6E
  0
BLOCK_RECORD
  5
7493
330
7466
100
AcDbSymbolTableRecord
100
AcDbBlockTableRecord
  2
TITLE_BLOCK
340
0
  0
BLOCK_RECORD
  5
81E0
330
7466
100
AcDbSymbolTableRecord
100
AcDbBlockTableRecord
  2
AVE_RENDER
340
0
102
{BLKREFS
331
81E3
331
81E4
331
81E5
331
81E6
331
81E7
331
81E8
331
81E9
331
81EA
102
}
  0
BLOCK_RECORD
  5
81EE
330
7466
100
AcDbSymbolTableRecord
100
AcDbBlockTableRecord
  2
AVE_GLOBAL
340
0
102
{BLKREFS
331
81F1
102
}
  0
BLOCK_RECORD
  5
A252
330
7466
100
AcDbSymbolTableRecord
100
AcDbBlockTableRecord
  2
*D3
340
0
  0
BLOCK_RECORD
  5
A260
330
7466
100
AcDbSymbolTableRecord
100
AcDbBlockTableRecord
  2
*D4
340
0
  0
BLOCK_RECORD
  5
A26C
330
7466
100
AcDbSymbolTableRecord
100
AcDbBlockTableRecord
  2
*D5
340
0
  0
BLOCK_RECORD
  5
A278
330
7466
100
AcDbSymbolTableRecord
100
AcDbBlockTableRecord
  2
*D6
340
0
  0
BLOCK_RECORD
  5
A284
330
7466
100
AcDbSymbolTableRecord
100
AcDbBlockTableRecord
  2
*D7
340
0
  0
BLOCK_RECORD
  5
A841
330
7466
100
AcDbSymbolTableRecord
100
AcDbBlockTableRecord
  2
*D8
340
0
  0
BLOCK_RECORD
  5
A84F
330
7466
100
AcDbSymbolTableRecord
100
AcDbBlockTableRecord
  2
*D9
340
0
  0
BLOCK_RECORD
  5
A85B
330
7466
100
AcDbSymbolTableRecord
100
AcDbBlockTableRecord
  2
*D10
340
0
  0
BLOCK_RECORD
  5
A867
330
7466
100
AcDbSymbolTableRecord
100
AcDbBlockTableRecord
  2
*D11
340
0
  0
BLOCK_RECORD
  5
A873
330
7466
100
AcDbSymbolTableRecord
100
AcDbBlockTableRecord
  2
*D12
340
0
  0
BLOCK_RECORD
  5
A881
330
7466
100
AcDbSymbolTableRecord
100
AcDbBlockTableRecord
  2
*D13
340
0
  0
BLOCK_RECORD
  5
A88D
330
7466
100
AcDbSymbolTableRecord
100
AcDbBlockTableRecord
  2
*D14
340
0
  0
BLOCK_RECORD
  5
A89B
330
7466
100
AcDbSymbolTableRecord
100
AcDbBlockTableRecord
  2
*D15
340
0
  0
BLOCK_RECORD
  5
B5E5
330
7466
100
AcDbSymbolTableRecord
100
AcDbBlockTableRecord
  2
*D16
340
0
  0
BLOCK_RECORD
  5
B5F1
330
7466
100
AcDbSymbolTableRecord
100
AcDbBlockTableRecord
  2
*D17
340
0
  0
BLOCK_RECORD
  5
B5FF
330
7466
100
AcDbSymbolTableRecord
100
AcDbBlockTableRecord
  2
*D18
340
0
  0
BLOCK_RECORD
  5
B60B
330
7466
100
AcDbSymbolTableRecord
100
AcDbBlockTableRecord
  2
*D19
340
0
  0
BLOCK_RECORD
  5
B617
330
7466
100
AcDbSymbolTableRecord
100
AcDbBlockTableRecord
  2
*D20
340
0
  0
BLOCK_RECORD
  5
B623
330
7466
100
AcDbSymbolTableRecord
100
AcDbBlockTableRecord
  2
*D21
340
0
  0
BLOCK_RECORD
  5
B62F
330
7466
100
AcDbSymbolTableRecord
100
AcDbBlockTableRecord
  2
A$C2A7F6572
340
0
  0
BLOCK_RECORD
  5
B755
330
7466
100
AcDbSymbolTableRecord
100
AcDbBlockTableRecord
  2
*D23
340
0
  0
BLOCK_RECORD
  5
B764
330
7466
100
AcDbSymbolTableRecord
100
AcDbBlockTableRecord
  2
*D24
340
0
  0
BLOCK_RECORD
  5
B771
330
7466
100
AcDbSymbolTableRecord
100
AcDbBlockTableRecord
  2
*D25
340
0
  0
BLOCK_RECORD
  5
B780
330
7466
100
AcDbSymbolTableRecord
100
AcDbBlockTableRecord
  2
*D26
340
0
  0
BLOCK_RECORD
  5
B79A
330
7466
100
AcDbSymbolTableRecord
100
AcDbBlockTableRecord
  2
*D27
340
0
  0
BLOCK_RECORD
  5
B7B1
330
7466
100
AcDbSymbolTableRecord
100
AcDbBlockTableRecord
  2
*D28
340
0
  0
BLOCK_RECORD
  5
B7BE
330
7466
100
AcDbSymbolTableRecord
100
AcDbBlockTableRecord
  2
*D29
340
0
  0
BLOCK_RECORD
  5
B7CB
330
7466
100
AcDbSymbolTableRecord
100
AcDbBlockTableRecord
  2
*D30
340
0
  0
BLOCK_RECORD
  5
B7E8
330
7466
100
AcDbSymbolTableRecord
100
AcDbBlockTableRecord
  2
*D31
340
0
  0
BLOCK_RECORD
  5
B7F7
330
7466
100
AcDbSymbolTableRecord
100
AcDbBlockTableRecord
  2
*D32
340
0
  0
BLOCK_RECORD
  5
B804
330
7466
100
AcDbSymbolTableRecord
100
AcDbBlockTableRecord
  2
*D33
340
0
  0
BLOCK_RECORD
  5
BA21
330
7466
100
AcDbSymbolTableRecord
100
AcDbBlockTableRecord
  2
*D34
340
0
  0
BLOCK_RECORD
  5
BBF5
330
7466
100
AcDbSymbolTableRecord
100
AcDbBlockTableRecord
  2
*D35
340
0
  0
BLOCK_RECORD
  5
BC01
330
7466
100
AcDbSymbolTableRecord
100
AcDbBlockTableRecord
  2
*D36
340
0
  0
BLOCK_RECORD
  5
BC0F
330
7466
100
AcDbSymbolTableRecord
100
AcDbBlockTableRecord
  2
*D37
340
0
  0
BLOCK_RECORD
  5
BC1B
330
7466
100
AcDbSymbolTableRecord
100
AcDbBlockTableRecord
  2
*D38
340
0
  0
BLOCK_RECORD
  5
BC29
330
7466
100
AcDbSymbolTableRecord
100
AcDbBlockTableRecord
  2
*D39
340
0
  0
BLOCK_RECORD
  5
BC35
330
7466
100
AcDbSymbolTableRecord
100
AcDbBlockTableRecord
  2
*D40
340
0
  0
BLOCK_RECORD
  5
BC41
330
7466
100
AcDbSymbolTableRecord
100
AcDbBlockTableRecord
  2
*D41
340
0
  0
BLOCK_RECORD
  5
BC4D
330
7466
100
AcDbSymbolTableRecord
100
AcDbBlockTableRecord
  2
*D42
340
0
  0
BLOCK_RECORD
  5
BC59
330
7466
100
AcDbSymbolTableRecord
100
AcDbBlockTableRecord
  2
*D43
340
0
  0
BLOCK_RECORD
  5
BC65
330
7466
100
AcDbSymbolTableRecord
100
AcDbBlockTableRecord
  2
*D44
340
0
  0
BLOCK_RECORD
  5
BC73
330
7466
100
AcDbSymbolTableRecord
100
AcDbBlockTableRecord
  2
*D45
340
0
  0
BLOCK_RECORD
  5
BC7F
330
7466
100
AcDbSymbolTableRecord
100
AcDbBlockTableRecord
  2
*D46
340
0
  0
BLOCK_RECORD
  5
BC8D
330
7466
100
AcDbSymbolTableRecord
100
AcDbBlockTableRecord
  2
*D47
340
0
  0
BLOCK_RECORD
  5
BC99
330
7466
100
AcDbSymbolTableRecord
100
AcDbBlockTableRecord
  2
*D48
340
0
  0
BLOCK_RECORD
  5
BCA5
330
7466
100
AcDbSymbolTableRecord
100
AcDbBlockTableRecord
  2
*D49
340
0
  0
BLOCK_RECORD
  5
BCB1
330
7466
100
AcDbSymbolTableRecord
100
AcDbBlockTableRecord
  2
*D50
340
0
  0
BLOCK_RECORD
  5
BCBF
330
7466
100
AcDbSymbolTableRecord
100
AcDbBlockTableRecord
  2
*D51
340
0
  0
BLOCK_RECORD
  5
BCCB
330
7466
100
AcDbSymbolTableRecord
100
AcDbBlockTableRecord
  2
*D52
340
0
  0
BLOCK_RECORD
  5
BCD9
330
7466
100
AcDbSymbolTableRecord
100
AcDbBlockTableRecord
  2
*D53
340
0
  0
BLOCK_RECORD
  5
BCE7
330
7466
100
AcDbSymbolTableRecord
100
AcDbBlockTableRecord
  2
*D54
340
0
  0
BLOCK_RECORD
  5
BCF3
330
7466
100
AcDbSymbolTableRecord
100
AcDbBlockTableRecord
  2
*D55
340
0
  0
BLOCK_RECORD
  5
BCFF
330
7466
100
AcDbSymbolTableRecord
100
AcDbBlockTableRecord
  2
*D56
340
0
  0
BLOCK_RECORD
  5
BD0D
330
7466
100
AcDbSymbolTableRecord
100
AcDbBlockTableRecord
  2
*D57
340
0
  0
BLOCK_RECORD
  5
BD19
330
7466
100
AcDbSymbolTableRecord
100
AcDbBlockTableRecord
  2
*D58
340
0
  0
BLOCK_RECORD
  5
BD25
330
7466
100
AcDbSymbolTableRecord
100
AcDbBlockTableRecord
  2
*D59
340
0
  0
BLOCK_RECORD
  5
C10F
330
7466
100
AcDbSymbolTableRecord
100
AcDbBlockTableRecord
  2
*D60
340
0
  0
BLOCK_RECORD
  5
C11B
330
7466
100
AcDbSymbolTableRecord
100
AcDbBlockTableRecord
  2
*D61
340
0
  0
BLOCK_RECORD
  5
C127
330
7466
100
AcDbSymbolTableRecord
100
AcDbBlockTableRecord
  2
*D62
340
0
  0
BLOCK_RECORD
  5
C133
330
7466
100
AcDbSymbolTableRecord
100
AcDbBlockTableRecord
  2
*D63
340
0
  0
BLOCK_RECORD
  5
C141
330
7466
100
AcDbSymbolTableRecord
100
AcDbBlockTableRecord
  2
*D64
340
0
  0
BLOCK_RECORD
  5
C14F
330
7466
100
AcDbSymbolTableRecord
100
AcDbBlockTableRecord
  2
*D65
340
0
  0
BLOCK_RECORD
  5
C15B
330
7466
100
AcDbSymbolTableRecord
100
AcDbBlockTableRecord
  2
*D66
340
0
  0
BLOCK_RECORD
  5
C167
330
7466
100
AcDbSymbolTableRecord
100
AcDbBlockTableRecord
  2
*D67
340
0
  0
BLOCK_RECORD
  5
C175
330
7466
100
AcDbSymbolTableRecord
100
AcDbBlockTableRecord
  2
*D68
340
0
  0
BLOCK_RECORD
  5
C181
330
7466
100
AcDbSymbolTableRecord
100
AcDbBlockTableRecord
  2
*D69
340
0
  0
BLOCK_RECORD
  5
C18D
330
7466
100
AcDbSymbolTableRecord
100
AcDbBlockTableRecord
  2
*D70
340
0
  0
BLOCK_RECORD
  5
C199
330
7466
100
AcDbSymbolTableRecord
100
AcDbBlockTableRecord
  2
*D71
340
0
  0
BLOCK_RECORD
  5
C1A5
330
7466
100
AcDbSymbolTableRecord
100
AcDbBlockTableRecord
  2
*D72
340
0
  0
BLOCK_RECORD
  5
C1B3
330
7466
100
AcDbSymbolTableRecord
100
AcDbBlockTableRecord
  2
*D73
340
0
  0
BLOCK_RECORD
  5
C1BF
330
7466
100
AcDbSymbolTableRecord
100
AcDbBlockTableRecord
  2
*D74
340
0
  0
BLOCK_RECORD
  5
C1CD
330
7466
100
AcDbSymbolTableRecord
100
AcDbBlockTableRecord
  2
*D75
340
0
  0
BLOCK_RECORD
  5
C1DB
330
7466
100
AcDbSymbolTableRecord
100
AcDbBlockTableRecord
  2
*D76
340
0
  0
BLOCK_RECORD
  5
C1E9
330
7466
100
AcDbSymbolTableRecord
100
AcDbBlockTableRecord
  2
*D77
340
0
  0
BLOCK_RECORD
  5
C1F5
330
7466
100
AcDbSymbolTableRecord
100
AcDbBlockTableRecord
  2
*D78
340
0
  0
BLOCK_RECORD
  5
C203
330
7466
100
AcDbSymbolTableRecord
100
AcDbBlockTableRecord
  2
*D79
340
0
  0
BLOCK_RECORD
  5
C20F
330
7466
100
AcDbSymbolTableRecord
100
AcDbBlockTableRecord
  2
*D80
340
0
  0
BLOCK_RECORD
  5
C21D
330
7466
100
AcDbSymbolTableRecord
100
AcDbBlockTableRecord
  2
*D81
340
0
  0
BLOCK_RECORD
  5
C229
330
7466
100
AcDbSymbolTableRecord
100
AcDbBlockTableRecord
  2
*D82
340
0
  0
BLOCK_RECORD
  5
C243
330
7466
100
AcDbSymbolTableRecord
100
AcDbBlockTableRecord
  2
*D83
340
0
  0
BLOCK_RECORD
  5
C8D4
330
7466
100
AcDbSymbolTableRecord
100
AcDbBlockTableRecord
  2
*D84
340
0
  0
BLOCK_RECORD
  5
C8E0
330
7466
100
AcDbSymbolTableRecord
100
AcDbBlockTableRecord
  2
*D85
340
0
  0
BLOCK_RECORD
  5
CC8A
330
7466
100
AcDbSymbolTableRecord
100
AcDbBlockTableRecord
  2
*D86
340
0
  0
BLOCK_RECORD
  5
CC97
330
7466
100
AcDbSymbolTableRecord
100
AcDbBlockTableRecord
  2
*D87
340
0
  0
BLOCK_RECORD
  5
CCA4
330
7466
100
AcDbSymbolTableRecord
100
AcDbBlockTableRecord
  2
*D88
340
0
  0
BLOCK_RECORD
  5
CCB1
330
7466
100
AcDbSymbolTableRecord
100
AcDbBlockTableRecord
  2
*D89
340
0
  0
BLOCK_RECORD
  5
CCC0
330
7466
100
AcDbSymbolTableRecord
100
AcDbBlockTableRecord
  2
*D90
340
0
  0
BLOCK_RECORD
  5
CD1E
330
7466
100
AcDbSymbolTableRecord
100
AcDbBlockTableRecord
  2
*D91
340
0
  0
ENDTAB
  0
ENDSEC
  0
SECTION
  2
BLOCKS
  0
BLOCK
  5
7489
330
747D
100
AcDbEntity
  8
0
100
AcDbBlockBegin
  2
*MODEL_SPACE
 70
     0
 10
0.0
 20
0.0
 30
0.0
  3
*MODEL_SPACE
  1

  0
ENDBLK
  5
748A
330
747D
100
AcDbEntity
  8
0
100
AcDbBlockEnd
  0
BLOCK
  5
7487
330
747A
100
AcDbEntity
 67
     1
  8
0
100
AcDbBlockBegin
  2
*PAPER_SPACE
 70
     2
 10
0.0
 20
0.0
 30
0.0
  3
*PAPER_SPACE
  1

  0
ENDBLK
  5
7488
330
747A
100
AcDbEntity
 67
     1
  8
0
100
AcDbBlockEnd
  0
BLOCK
  5
7494
330
7493
100
AcDbEntity
  8
0
100
AcDbBlockBegin
  2
TITLE_BLOCK
 70
     2
 10
0.0
 20
0.0
 30
0.0
  3
TITLE_BLOCK
  1

  0
LINE
  5
7495
330
7493
100
AcDbEntity
  8
0
 62
     0
100
AcDbLine
 10
402.7943262411347
 20
16.00000000000008
 30
0.0
 11
410.0
 21
16.00000000000008
 31
0.0
  0
LINE
  5
7496
330
7493
100
AcDbEntity
  8
0
 62
     0
100
AcDbLine
 10
410.0
 20
10.0
 30
0.0
 11
410.0
 21
49.00000000000036
 31
0.0
  0
LINE
  5
7497
330
7493
100
AcDbEntity
  8
0
 62
     0
100
AcDbLine
 10
410.0
 20
49.00000000000036
 30
0.0
 11
410.0
 21
10.0
 31
0.0
  0
LINE
  5
7498
330
7493
100
AcDbEntity
  8
0
 62
     0
100
AcDbLine
 10
402.7943262411347
 20
22.00000000000012
 30
0.0
 11
402.7943262411347
 21
10.0
 31
0.0
  0
LINE
  5
7499
330
7493
100
AcDbEntity
  8
0
 62
     0
100
AcDbLine
 10
336.1418439716306
 20
49.00000000000036
 30
0.0
 11
336.1418439716306
 21
22.00000000000012
 31
0.0
  0
LINE
  5
749A
330
7493
100
AcDbEntity
  8
0
 62
     0
100
AcDbLine
 10
325.3333333333325
 20
37.00000000000024
 30
0.0
 11
325.3333333333325
 21
25.00000000000012
 31
0.0
  0
LINE
  5
749B
330
7493
100
AcDbEntity
  8
0
 62
     0
100
AcDbLine
 10
318.1276595744673
 20
49.00000000000036
 30
0.0
 11
318.1276595744673
 21
25.00000000000012
 31
0.0
  0
LINE
  5
749C
330
7493
100
AcDbEntity
  8
0
 62
     0
100
AcDbLine
 10
318.1276595744673
 20
25.00000000000012
 30
0.0
 11
348.7517730496447
 21
25.00000000000012
 31
0.0
  0
LINE
  5
749D
330
7493
100
AcDbEntity
  8
0
 62
     0
100
AcDbLine
 10
280.2978723404241
 20
28.00000000000015
 30
0.0
 11
348.7517730496447
 21
28.00000000000015
 31
0.0
  0
LINE
  5
749E
330
7493
100
AcDbEntity
  8
0
 62
     0
100
AcDbLine
 10
280.2978723404241
 20
31.0000000000002
 30
0.0
 11
348.7517730496447
 21
31.0000000000002
 31
0.0
  0
LINE
  5
749F
330
7493
100
AcDbEntity
  8
0
 62
     0
100
AcDbLine
 10
280.2978723404241
 20
34.00000000000024
 30
0.0
 11
348.7517730496447
 21
34.00000000000024
 31
0.0
  0
LINE
  5
74A0
330
7493
100
AcDbEntity
  8
0
 62
     0
100
AcDbLine
 10
280.2978723404241
 20
19.00000000000007
 30
0.0
 11
318.1276595744673
 21
19.00000000000012
 31
0.0
  0
LINE
  5
74A1
330
7493
100
AcDbEntity
  8
0
 62
     0
100
AcDbLine
 10
280.2978723404241
 20
22.00000000000007
 30
0.0
 11
318.1276595744673
 21
22.00000000000012
 31
0.0
  0
LINE
  5
74A2
330
7493
100
AcDbEntity
  8
0
 62
     0
100
AcDbLine
 10
280.2978723404241
 20
25.00000000000012
 30
0.0
 11
318.1276595744673
 21
25.00000000000012
 31
0.0
  0
TEXT
  5
74A3
330
7493
100
AcDbEntity
  8
0
 62
     0
100
AcDbText
 10
342.2447163844405
 20
10.55220101068186
 30
0.0
 40
1.791674070777747
  1
照査
  7
ADESK1
 72
     1
 11
344.1558353932701
 21
10.55220101068186
 31
0.0
100
AcDbText
  0
TEXT
  5
74A4
330
7493
100
AcDbEntity
  8
0
 62
     0
100
AcDbText
 10
332.2960689314087
 20
10.48329012996929
 30
0.0
 40
1.791674070777747
  1
設計
  7
ADESK1
 72
     1
 11
334.2071879402383
 21
10.48329012996929
 31
0.0
100
AcDbText
  0
TEXT
  5
74A5
330
7493
100
AcDbEntity
  8
0
 62
     0
100
AcDbText
 10
321.7174935280942
 20
10.48329012996929
 30
0.0
 40
1.791674070777747
  1
製図
  7
ADESK1
 72
     1
 11
323.5688900678979
 21
10.48329012996929
 31
0.0
100
AcDbText
  0
LINE
  5
74A6
330
7493
100
AcDbEntity
  8
0
 62
     0
100
AcDbLine
 10
280.2978723404241
 20
10.0
 30
0.0
 11
280.2978723404241
 21
13.00000000000004
 31
0.0
  0
LINE
  5
74A7
330
7493
100
AcDbEntity
  8
0
 62
     0
100
AcDbLine
 10
280.2978723404241
 20
16.00000000000008
 30
0.0
 11
318.1276595744673
 21
16.00000000000008
 31
0.0
  0
LINE
  5
74A8
330
7493
100
AcDbEntity
  8
0
 62
     0
100
AcDbLine
 10
339.4042553191484
 20
22.00000000000007
 30
0.0
 11
339.4042553191484
 21
10.0
 31
0.0
  0
LINE
  5
74A9
330
7493
100
AcDbEntity
  8
0
 62
     0
100
AcDbLine
 10
328.7659574468077
 20
22.00000000000007
 30
0.0
 11
328.7659574468077
 21
10.0
 31
0.0
  0
LINE
  5
74AA
330
7493
100
AcDbEntity
  8
0
 62
     0
100
AcDbLine
 10
348.7517730496447
 20
49.00000000000036
 30
0.0
 11
348.7517730496447
 21
10.0
 31
0.0
  0
LINE
  5
74AB
330
7493
100
AcDbEntity
  8
0
 62
     0
100
AcDbLine
 10
280.2978723404241
 20
49.00000000000036
 30
0.0
 11
280.2978723404241
 21
10.0
 31
0.0
  0
LINE
  5
74AC
330
7493
100
AcDbEntity
  8
0
 62
     0
100
AcDbLine
 10
318.1276595744673
 20
25.00000000000012
 30
0.0
 11
318.1276595744673
 21
10.0
 31
0.0
  0
LINE
  5
74AD
330
7493
100
AcDbEntity
  8
0
 62
     0
100
AcDbLine
 10
312.7234042553184
 20
37.00000000000024
 30
0.0
 11
312.7234042553184
 21
10.0
 31
0.0
  0
LINE
  5
74AE
330
7493
100
AcDbEntity
  8
0
 62
     0
100
AcDbLine
 10
285.702127659573
 20
37.00000000000024
 30
0.0
 11
285.702127659573
 21
10.0
 31
0.0
  0
LINE
  5
74AF
330
7493
100
AcDbEntity
  8
0
 62
     0
100
AcDbLine
 10
303.7163120567365
 20
37.00000000000024
 30
0.0
 11
303.7163120567365
 21
10.0
 31
0.0
  0
LINE
  5
74B0
330
7493
100
AcDbEntity
  8
0
 62
     0
100
AcDbLine
 10
410.0
 20
49.00000000000036
 30
0.0
 11
280.2978723404241
 21
49.00000000000036
 31
0.0
  0
LINE
  5
74B1
330
7493
100
AcDbEntity
  8
0
 62
     0
100
AcDbLine
 10
280.2978723404241
 20
10.0
 30
0.0
 11
410.0
 21
10.0
 31
0.0
  0
LINE
  5
74B2
330
7493
100
AcDbEntity
  8
0
 62
     0
100
AcDbLine
 10
318.1276595744673
 20
22.00000000000012
 30
0.0
 11
410.0
 21
22.00000000000012
 31
0.0
  0
LINE
  5
74B3
330
7493
100
AcDbEntity
  8
0
 62
     0
100
AcDbLine
 10
280.2978723404241
 20
37.00000000000024
 30
0.0
 11
410.0
 21
37.00000000000024
 31
0.0
  0
LINE
  5
74B4
330
7493
100
AcDbEntity
  8
0
 62
     0
100
AcDbLine
 10
280.2978723404241
 20
13.00000000000004
 30
0.0
 11
410.0
 21
13.00000000000004
 31
0.0
  0
LINE
  5
74B5
330
7493
100
AcDbEntity
  8
0
 62
     0
100
AcDbLine
 10
280.2978723404241
 20
49.00000000000036
 30
0.0
 11
410.0
 21
49.00000000000036
 31
0.0
  0
TEXT
  5
74B6
330
7493
100
AcDbEntity
  8
0
100
AcDbText
 10
411.3708251683467
 20
33.08333333333334
 30
0.0
 40
3.0
  1
F
  7
ADESK1
 72
     1
 11
412.8708251683468
 21
33.08333333333334
 31
0.0
100
AcDbText
  0
TEXT
  5
74B7
330
7493
100
AcDbEntity
  8
0
100
AcDbText
 10
411.3708251683467
 20
79.25
 30
0.0
 40
3.0
  1
E
  7
ADESK1
 72
     1
 11
412.8708251683468
 21
79.25
 31
0.0
100
AcDbText
  0
TEXT
  5
74B8
330
7493
100
AcDbEntity
  8
0
100
AcDbText
 10
411.2993965969182
 20
125.4166666666666
 30
0.0
 40
3.0
  1
D
  7
ADESK1
 72
     1
 11
412.8708251683468
 21
125.4166666666666
 31
0.0
100
AcDbText
  0
TEXT
  5
74B9
330
7493
100
AcDbEntity
  8
0
100
AcDbText
 10
411.3708251683467
 20
171.5833333333333
 30
0.0
 40
3.0
  1
C
  7
ADESK1
 72
     1
 11
412.8708251683468
 21
171.5833333333333
 31
0.0
100
AcDbText
  0
TEXT
  5
74BA
330
7493
100
AcDbEntity
  8
0
100
AcDbText
 10
411.2993965969182
 20
217.7499999999999
 30
0.0
 40
3.0
  1
B
  7
ADESK1
 72
     1
 11
412.8708251683468
 21
217.7499999999999
 31
0.0
100
AcDbText
  0
TEXT
  5
74BB
330
7493
100
AcDbEntity
  8
0
100
AcDbText
 10
411.5851108826324
 20
263.9166666666666
 30
0.0
 40
3.0
  1
A
  7
ADESK1
 72
     1
 11
412.8708251683468
 21
263.9166666666666
 31
0.0
100
AcDbText
  0
TEXT
  5
74BC
330
7493
100
AcDbEntity
  8
0
100
AcDbText
 10
384.5089285714285
 20
6.019997240728748
 30
0.0
 40
3.0
  1
8
  7
ADESK1
 72
     1
 11
385.9375
 21
6.019997240728748
 31
0.0
100
AcDbText
  0
TEXT
  5
74BD
330
7493
100
AcDbEntity
  8
0
100
AcDbText
 10
336.3839285714285
 20
6.019997240728748
 30
0.0
 40
3.0
  1
7
  7
ADESK1
 72
     1
 11
337.8125
 21
6.019997240728748
 31
0.0
100
AcDbText
  0
TEXT
  5
74BE
330
7493
100
AcDbEntity
  8
0
100
AcDbText
 10
288.1874999999999
 20
6.019997240728748
 30
0.0
 40
3.0
  1
6
  7
ADESK1
 72
     1
 11
289.6875
 21
6.019997240728748
 31
0.0
100
AcDbText
  0
TEXT
  5
74BF
330
7493
100
AcDbEntity
  8
0
100
AcDbText
 10
240.1339285714285
 20
6.019997240728748
 30
0.0
 40
3.0
  1
5
  7
ADESK1
 72
     1
 11
241.5624999999999
 21
6.019997240728748
 31
0.0
100
AcDbText
  0
TEXT
  5
74C0
330
7493
100
AcDbEntity
  8
0
100
AcDbText
 10
191.9375
 20
6.019997240728748
 30
0.0
 40
3.0
  1
4
  7
ADESK1
 72
     1
 11
193.4375
 21
6.019997240728748
 31
0.0
100
AcDbText
  0
TEXT
  5
74C1
330
7493
100
AcDbEntity
  8
0
100
AcDbText
 10
143.8839285714285
 20
6.019997240728748
 30
0.0
 40
3.0
  1
3
  7
ADESK1
 72
     1
 11
145.3125
 21
6.019997240728748
 31
0.0
100
AcDbText
  0
TEXT
  5
74C2
330
7493
100
AcDbEntity
  8
0
100
AcDbText
 10
95.75892857142857
 20
6.019997240728748
 30
0.0
 40
3.0
  1
2
  7
ADESK1
 72
     1
 11
97.1875
 21
6.019997240728748
 31
0.0
100
AcDbText
  0
TEXT
  5
74C3
330
7493
100
AcDbEntity
  8
0
100
AcDbText
 10
47.84821428571429
 20
6.019997240728748
 30
0.0
 40
3.0
  1
1
  7
ADESK1
 72
     1
 11
49.0625
 21
6.019997240728748
 31
0.0
100
AcDbText
  0
TEXT
  5
74C4
330
7493
100
AcDbEntity
  8
0
100
AcDbText
 10
21.10716135953389
 20
33.08333333333334
 30
0.0
 40
3.0
  1
F
  7
ADESK1
 72
     1
 11
22.60716135953389
 21
33.08333333333334
 31
0.0
100
AcDbText
  0
TEXT
  5
74C5
330
7493
100
AcDbEntity
  8
0
100
AcDbText
 10
21.10716135953389
 20
79.25
 30
0.0
 40
3.0
  1
E
  7
ADESK1
 72
     1
 11
22.60716135953389
 21
79.25
 31
0.0
100
AcDbText
  0
TEXT
  5
74C6
330
7493
100
AcDbEntity
  8
0
100
AcDbText
 10
21.03573278810532
 20
125.4166666666666
 30
0.0
 40
3.0
  1
D
  7
ADESK1
 72
     1
 11
22.60716135953389
 21
125.4166666666666
 31
0.0
100
AcDbText
  0
TEXT
  5
74C7
330
7493
100
AcDbEntity
  8
0
100
AcDbText
 10
21.10716135953389
 20
171.5833333333333
 30
0.0
 40
3.0
  1
C
  7
ADESK1
 72
     1
 11
22.60716135953389
 21
171.5833333333333
 31
0.0
100
AcDbText
  0
TEXT
  5
74C8
330
7493
100
AcDbEntity
  8
0
100
AcDbText
 10
21.03573278810532
 20
217.7499999999999
 30
0.0
 40
3.0
  1
B
  7
ADESK1
 72
     1
 11
22.60716135953389
 21
217.7499999999999
 31
0.0
100
AcDbText
  0
TEXT
  5
74C9
330
7493
100
AcDbEntity
  8
0
100
AcDbText
 10
384.5089285714285
 20
288.0
 30
0.0
 40
3.0
  1
8
  7
ADESK1
 72
     1
 11
385.9375
 21
288.0
 31
0.0
100
AcDbText
  0
TEXT
  5
74CA
330
7493
100
AcDbEntity
  8
0
100
AcDbText
 10
336.3839285714285
 20
288.0
 30
0.0
 40
3.0
  1
7
  7
ADESK1
 72
     1
 11
337.8125
 21
288.0
 31
0.0
100
AcDbText
  0
TEXT
  5
74CB
330
7493
100
AcDbEntity
  8
0
100
AcDbText
 10
288.1874999999999
 20
288.0
 30
0.0
 40
3.0
  1
6
  7
ADESK1
 72
     1
 11
289.6875
 21
288.0
 31
0.0
100
AcDbText
  0
TEXT
  5
74CC
330
7493
100
AcDbEntity
  8
0
100
AcDbText
 10
240.1339285714285
 20
288.0
 30
0.0
 40
3.0
  1
5
  7
ADESK1
 72
     1
 11
241.5624999999999
 21
288.0
 31
0.0
100
AcDbText
  0
TEXT
  5
74CD
330
7493
100
AcDbEntity
  8
0
100
AcDbText
 10
191.9375
 20
288.0
 30
0.0
 40
3.0
  1
4
  7
ADESK1
 72
     1
 11
193.4375
 21
288.0
 31
0.0
100
AcDbText
  0
TEXT
  5
74CE
330
7493
100
AcDbEntity
  8
0
100
AcDbText
 10
143.8839285714285
 20
288.0
 30
0.0
 40
3.0
  1
3
  7
ADESK1
 72
     1
 11
145.3125
 21
288.0
 31
0.0
100
AcDbText
  0
TEXT
  5
74CF
330
7493
100
AcDbEntity
  8
0
100
AcDbText
 10
95.75892857142857
 20
288.0
 30
0.0
 40
3.0
  1
2
  7
ADESK1
 72
     1
 11
97.1875
 21
288.0
 31
0.0
100
AcDbText
  0
TEXT
  5
74D0
330
7493
100
AcDbEntity
  8
0
100
AcDbText
 10
21.32144707381961
 20
263.9166666666666
 30
0.0
 40
3.0
  1
A
  7
ADESK1
 72
     1
 11
22.60716135953389
 21
263.9166666666666
 31
0.0
100
AcDbText
  0
TEXT
  5
74D1
330
7493
100
AcDbEntity
  8
0
100
AcDbText
 10
47.84821428571429
 20
288.0
 30
0.0
 40
3.0
  1
1
  7
ADESK1
 72
     1
 11
49.0625
 21
288.0
 31
0.0
100
AcDbText
  0
LINE
  5
74D2
330
7493
100
AcDbEntity
  8
0
100
AcDbLine
 10
73.125
 20
287.0
 30
0.0
 11
73.125
 21
292.0
 31
0.0
  0
LINE
  5
74D3
330
7493
100
AcDbEntity
  8
0
100
AcDbLine
 10
121.25
 20
287.0
 30
0.0
 11
121.25
 21
292.0
 31
0.0
  0
LINE
  5
74D4
330
7493
100
AcDbEntity
  8
0
100
AcDbLine
 10
169.375
 20
287.0
 30
0.0
 11
169.375
 21
292.0
 31
0.0
  0
LINE
  5
74D5
330
7493
100
AcDbEntity
  8
0
100
AcDbLine
 10
217.5
 20
287.0
 30
0.0
 11
217.5
 21
292.0
 31
0.0
  0
LINE
  5
74D6
330
7493
100
AcDbEntity
  8
0
100
AcDbLine
 10
265.625
 20
287.0
 30
0.0
 11
265.625
 21
292.0
 31
0.0
  0
LINE
  5
74D7
330
7493
100
AcDbEntity
  8
0
100
AcDbLine
 10
313.75
 20
287.0
 30
0.0
 11
313.75
 21
292.0
 31
0.0
  0
LINE
  5
74D8
330
7493
100
AcDbEntity
  8
0
100
AcDbLine
 10
361.8749999999999
 20
287.0
 30
0.0
 11
361.8749999999999
 21
292.0
 31
0.0
  0
LINE
  5
74D9
330
7493
100
AcDbEntity
  8
0
100
AcDbLine
 10
361.8749999999999
 20
10.0
 30
0.0
 11
361.8749999999999
 21
5.0
 31
0.0
  0
LINE
  5
74DA
330
7493
100
AcDbEntity
  8
0
100
AcDbLine
 10
313.75
 20
10.0
 30
0.0
 11
313.75
 21
5.0
 31
0.0
  0
LINE
  5
74DB
330
7493
100
AcDbEntity
  8
0
100
AcDbLine
 10
265.625
 20
10.0
 30
0.0
 11
265.625
 21
5.0
 31
0.0
  0
LINE
  5
74DC
330
7493
100
AcDbEntity
  8
0
100
AcDbLine
 10
217.5
 20
10.0
 30
0.0
 11
217.5
 21
5.0
 31
0.0
  0
LINE
  5
74DD
330
7493
100
AcDbEntity
  8
0
100
AcDbLine
 10
169.375
 20
10.0
 30
0.0
 11
169.375
 21
5.0
 31
0.0
  0
LINE
  5
74DE
330
7493
100
AcDbEntity
  8
0
100
AcDbLine
 10
121.25
 20
10.0
 30
0.0
 11
121.25
 21
5.0
 31
0.0
  0
LINE
  5
74DF
330
7493
100
AcDbEntity
  8
0
100
AcDbLine
 10
73.125
 20
10.0
 30
0.0
 11
73.125
 21
5.0
 31
0.0
  0
LINE
  5
74E0
330
7493
100
AcDbEntity
  8
0
100
AcDbLine
 10
410.0
 20
240.8333333333333
 30
0.0
 11
415.0
 21
240.8333333333333
 31
0.0
  0
LINE
  5
74E1
330
7493
100
AcDbEntity
  8
0
100
AcDbLine
 10
410.0
 20
194.6666666666667
 30
0.0
 11
415.0
 21
194.6666666666667
 31
0.0
  0
LINE
  5
74E2
330
7493
100
AcDbEntity
  8
0
100
AcDbLine
 10
410.0
 20
148.5
 30
0.0
 11
415.0
 21
148.5
 31
0.0
  0
LINE
  5
74E3
330
7493
100
AcDbEntity
  8
0
100
AcDbLine
 10
410.0
 20
102.3333333333333
 30
0.0
 11
415.0
 21
102.3333333333333
 31
0.0
  0
LINE
  5
74E4
330
7493
100
AcDbEntity
  8
0
100
AcDbLine
 10
410.0
 20
56.16666666666668
 30
0.0
 11
415.0
 21
56.16666666666668
 31
0.0
  0
LINE
  5
74E5
330
7493
100
AcDbEntity
  8
0
100
AcDbLine
 10
25.0
 20
56.16666666666667
 30
0.0
 11
20.0
 21
56.16666666666667
 31
0.0
  0
LINE
  5
74E6
330
7493
100
AcDbEntity
  8
0
100
AcDbLine
 10
25.0
 20
102.3333333333333
 30
0.0
 11
20.0
 21
102.3333333333333
 31
0.0
  0
LINE
  5
74E7
330
7493
100
AcDbEntity
  8
0
100
AcDbLine
 10
25.0
 20
148.5
 30
0.0
 11
20.0
 21
148.5
 31
0.0
  0
LINE
  5
74E8
330
7493
100
AcDbEntity
  8
0
100
AcDbLine
 10
25.0
 20
194.6666666666666
 30
0.0
 11
20.0
 21
194.6666666666666
 31
0.0
  0
LINE
  5
74E9
330
7493
100
AcDbEntity
  8
0
100
AcDbLine
 10
25.0
 20
240.8333333333333
 30
0.0
 11
20.0
 21
240.8333333333333
 31
0.0
  0
TEXT
  5
74EA
330
7493
100
AcDbEntity
  8
0
100
AcDbText
 10
1.0
 20
1.0
 30
0.0
 40
3.0
  1
この図枠はサンプルです。社内の規格やプロッタの出力範囲に合わせて適当に変更してご利用ください。
  7
ADESK1
100
AcDbText
  0
LINE
  5
74EB
330
7493
100
AcDbEntity
  8
0
100
AcDbLine
 10
25.0
 20
148.5
 30
0.0
 11
0.0
 21
148.5
 31
0.0
  0
LINE
  5
74EC
330
7493
100
AcDbEntity
  8
0
100
AcDbLine
 10
410.0
 20
148.5
 30
0.0
 11
420.0
 21
148.5
 31
0.0
  0
LINE
  5
74ED
330
7493
100
AcDbEntity
  8
0
100
AcDbLine
 10
217.5
 20
287.0
 30
0.0
 11
217.5
 21
297.0
 31
0.0
  0
LINE
  5
74EE
330
7493
100
AcDbEntity
  8
0
100
AcDbLine
 10
217.5
 20
10.0
 30
0.0
 11
217.5
 21
0.0
 31
0.0
  0
LINE
  5
74EF
330
7493
100
AcDbEntity
  8
OBJECT
100
AcDbLine
 10
130.0
 20
40.0
 30
0.0
 11
130.0
 21
10.0
 31
0.0
  0
LINE
  5
74F0
330
7493
100
AcDbEntity
  8
OBJECT
100
AcDbLine
 10
120.0
 20
10.0
 30
0.0
 11
120.0
 21
40.0
 31
0.0
  0
LINE
  5
74F1
330
7493
100
AcDbEntity
  8
OBJECT
100
AcDbLine
 10
44.5
 20
37.0
 30
0.0
 11
45.49999999999999
 21
37.0
 31
0.0
  0
LINE
  5
74F2
330
7493
100
AcDbEntity
  8
OBJECT
100
AcDbLine
 10
44.5
 20
31.0
 30
0.0
 11
45.49999999999999
 21
31.0
 31
0.0
  0
LINE
  5
74F3
330
7493
100
AcDbEntity
  8
OBJECT
100
AcDbLine
 10
39.5
 20
37.0
 30
0.0
 11
40.49999999999999
 21
37.0
 31
0.0
  0
LINE
  5
74F4
330
7493
100
AcDbEntity
  8
OBJECT
100
AcDbLine
 10
39.5
 20
31.0
 30
0.0
 11
40.49999999999999
 21
31.0
 31
0.0
  0
LINE
  5
74F5
330
7493
100
AcDbEntity
  8
OBJECT
100
AcDbLine
 10
44.5
 20
25.0
 30
0.0
 11
45.49999999999999
 21
25.0
 31
0.0
  0
LINE
  5
74F6
330
7493
100
AcDbEntity
  8
OBJECT
100
AcDbLine
 10
39.5
 20
25.0
 30
0.0
 11
40.49999999999999
 21
25.0
 31
0.0
  0
LINE
  5
74F7
330
7493
100
AcDbEntity
  8
OBJECT
100
AcDbLine
 10
44.5
 20
19.0
 30
0.0
 11
45.49999999999999
 21
19.0
 31
0.0
  0
LINE
  5
74F8
330
7493
100
AcDbEntity
  8
OBJECT
100
AcDbLine
 10
39.5
 20
19.0
 30
0.0
 11
40.49999999999999
 21
19.0
 31
0.0
  0
LINE
  5
74F9
330
7493
100
AcDbEntity
  8
OBJECT
100
AcDbLine
 10
28.0
 20
29.535898
 30
0.0
 11
30.0
 21
33.0
 31
0.0
  0
LINE
  5
74FA
330
7493
100
AcDbEntity
  8
OBJECT
100
AcDbLine
 10
28.0
 20
29.535898
 30
0.0
 11
32.0
 21
29.535898
 31
0.0
  0
LINE
  5
74FB
330
7493
100
AcDbEntity
  8
OBJECT
100
AcDbLine
 10
32.0
 20
29.535898
 30
0.0
 11
30.0
 21
33.0
 31
0.0
  0
LINE
  5
74FC
330
7493
100
AcDbEntity
  8
OBJECT
100
AcDbLine
 10
28.0
 20
35.53589799999999
 30
0.0
 11
32.0
 21
35.53589799999999
 31
0.0
  0
LINE
  5
74FD
330
7493
100
AcDbEntity
  8
OBJECT
100
AcDbLine
 10
32.0
 20
35.53589799999999
 30
0.0
 11
30.0
 21
39.0
 31
0.0
  0
LINE
  5
74FE
330
7493
100
AcDbEntity
  8
OBJECT
100
AcDbLine
 10
28.0
 20
35.53589799999999
 30
0.0
 11
30.0
 21
39.0
 31
0.0
  0
LINE
  5
74FF
330
7493
100
AcDbEntity
  8
OBJECT
100
AcDbLine
 10
28.0
 20
23.53589799999999
 30
0.0
 11
30.0
 21
26.99999999999999
 31
0.0
  0
LINE
  5
7500
330
7493
100
AcDbEntity
  8
OBJECT
100
AcDbLine
 10
28.0
 20
23.53589799999999
 30
0.0
 11
32.0
 21
23.53589799999999
 31
0.0
  0
LINE
  5
7501
330
7493
100
AcDbEntity
  8
OBJECT
100
AcDbLine
 10
32.0
 20
23.53589799999999
 30
0.0
 11
30.0
 21
26.99999999999999
 31
0.0
  0
LINE
  5
7502
330
7493
100
AcDbEntity
  8
OBJECT
100
AcDbLine
 10
28.0
 20
17.535898
 30
0.0
 11
30.0
 21
20.99999999999999
 31
0.0
  0
LINE
  5
7503
330
7493
100
AcDbEntity
  8
OBJECT
100
AcDbLine
 10
28.0
 20
17.535898
 30
0.0
 11
32.0
 21
17.535898
 31
0.0
  0
LINE
  5
7504
330
7493
100
AcDbEntity
  8
OBJECT
100
AcDbLine
 10
32.0
 20
17.535898
 30
0.0
 11
30.0
 21
20.99999999999999
 31
0.0
  0
LINE
  5
7505
330
7493
100
AcDbEntity
  8
OBJECT
100
AcDbLine
 10
44.5
 20
13.0
 30
0.0
 11
45.49999999999999
 21
13.0
 31
0.0
  0
LINE
  5
7506
330
7493
100
AcDbEntity
  8
OBJECT
100
AcDbLine
 10
39.5
 20
13.0
 30
0.0
 11
40.49999999999999
 21
13.0
 31
0.0
  0
LINE
  5
7507
330
7493
100
AcDbEntity
  8
OBJECT
100
AcDbLine
 10
28.0
 20
11.53589799999999
 30
0.0
 11
32.0
 21
11.53589799999999
 31
0.0
  0
LINE
  5
7508
330
7493
100
AcDbEntity
  8
OBJECT
100
AcDbLine
 10
80.0
 20
10.0
 30
0.0
 11
80.0
 21
40.0
 31
0.0
  0
LINE
  5
7509
330
7493
100
AcDbEntity
  8
OBJECT
100
AcDbLine
 10
50.0
 20
10.0
 30
0.0
 11
50.0
 21
40.0
 31
0.0
  0
LINE
  5
750A
330
7493
100
AcDbEntity
  8
OBJECT
100
AcDbLine
 10
35.0
 20
10.0
 30
0.0
 11
35.0
 21
40.0
 31
0.0
  0
LINE
  5
750B
330
7493
100
AcDbEntity
  8
OBJECT
100
AcDbLine
 10
32.0
 20
11.53589799999999
 30
0.0
 11
30.0
 21
15.0
 31
0.0
  0
LINE
  5
750C
330
7493
100
AcDbEntity
  8
OBJECT
100
AcDbLine
 10
28.0
 20
11.53589799999999
 30
0.0
 11
30.0
 21
15.0
 31
0.0
  0
LINE
  5
750D
330
7493
100
AcDbEntity
  8
OBJECT
100
AcDbLine
 10
130.0
 20
40.0
 30
0.0
 11
25.0
 21
40.0
 31
0.0
  0
LINE
  5
750E
330
7493
100
AcDbEntity
  8
OBJECT
100
AcDbLine
 10
130.0
 20
34.0
 30
0.0
 11
25.0
 21
34.0
 31
0.0
  0
LINE
  5
750F
330
7493
100
AcDbEntity
  8
OBJECT
100
AcDbLine
 10
130.0
 20
28.0
 30
0.0
 11
25.0
 21
28.0
 31
0.0
  0
LINE
  5
7510
330
7493
100
AcDbEntity
  8
OBJECT
100
AcDbLine
 10
130.0
 20
22.0
 30
0.0
 11
25.0
 21
22.0
 31
0.0
  0
LINE
  5
7511
330
7493
100
AcDbEntity
  8
OBJECT
100
AcDbLine
 10
130.0
 20
16.0
 30
0.0
 11
25.0
 21
16.0
 31
0.0
  0
ATTDEF
  5
7512
330
7493
100
AcDbEntity
  8
0
 62
     0
100
AcDbText
 10
19.0
 20
118.0
 30
0.0
 40
3.0
  1

 50
90.0
  7
ADESK1
100
AcDbAttributeDefinition
  3

  2
FNAME
 70
     8
  0
ATTDEF
  5
7513
330
7493
100
AcDbEntity
  8
0
 62
     0
100
AcDbText
 10
19.0
 20
70.0
 30
0.0
 40
3.0
  1

 50
90.0
  7
ADESK1
100
AcDbAttributeDefinition
  3

  2
REVDATE
 70
     8
  0
ATTDEF
  5
7514
330
7493
100
AcDbEntity
  8
0
 62
     0
100
AcDbText
 10
19.0
 20
10.0
 30
0.0
 40
3.0
  1

 50
90.0
  7
ADESK1
100
AcDbAttributeDefinition
  3

  2
USER
 70
     8
  0
LINE
  5
7515
330
7493
100
AcDbEntity
  8
0
100
AcDbLine
 10
410.0
 20
297.0
 30
0.0
 11
420.0
 21
297.0
 31
0.0
  0
LINE
  5
7516
330
7493
100
AcDbEntity
  8
0
100
AcDbLine
 10
420.0
 20
10.0
 30
0.0
 11
420.0
 21
0.0
 31
0.0
  0
LINE
  5
7517
330
7493
100
AcDbEntity
  8
0
100
AcDbLine
 10
25.0
 20
0.0
 30
0.0
 11
0.0
 21
0.0
 31
0.0
  0
LINE
  5
7518
330
7493
100
AcDbEntity
  8
0
100
AcDbLine
 10
0.0
 20
287.0
 30
0.0
 11
0.0
 21
297.0
 31
0.0
  0
LINE
  5
7519
330
7493
100
AcDbEntity
  8
0
100
AcDbLine
 10
25.0
 20
287.0
 30
0.0
 11
410.0
 21
287.0
 31
0.0
  0
LINE
  5
751A
330
7493
100
AcDbEntity
  8
0
100
AcDbLine
 10
410.0
 20
287.0
 30
0.0
 11
410.0
 21
10.0
 31
0.0
  0
LINE
  5
751B
330
7493
100
AcDbEntity
  8
0
100
AcDbLine
 10
410.0
 20
10.0
 30
0.0
 11
25.0
 21
10.0
 31
0.0
  0
LINE
  5
751C
330
7493
100
AcDbEntity
  8
0
100
AcDbLine
 10
25.0
 20
10.0
 30
0.0
 11
25.0
 21
287.0
 31
0.0
  0
LINE
  5
751D
330
7493
100
AcDbEntity
  8
0
100
AcDbLine
 10
420.0
 20
0.0
 30
0.0
 11
410.0
 21
0.0
 31
0.0
  0
LINE
  5
751E
330
7493
100
AcDbEntity
  8
0
100
AcDbLine
 10
420.0
 20
297.0
 30
0.0
 11
420.0
 21
287.0
 31
0.0
  0
LINE
  5
751F
330
7493
100
AcDbEntity
  8
0
100
AcDbLine
 10
0.0
 20
297.0
 30
0.0
 11
25.0
 21
297.0
 31
0.0
  0
LINE
  5
7520
330
7493
100
AcDbEntity
  8
0
100
AcDbLine
 10
0.0
 20
0.0
 30
0.0
 11
0.0
 21
10.0
 31
0.0
  0
ENDBLK
  5
7521
330
7493
100
AcDbEntity
  8
0
100
AcDbBlockEnd
  0
BLOCK
  5
81E1
330
81E0
100
AcDbEntity
  8
ASHADE
 48
15.0
100
AcDbBlockBegin
  2
AVE_RENDER
 70
     0
 10
0.0
 20
0.0
 30
0.0
  3
AVE_RENDER
  1
AVE_RENDER
  0
ENDBLK
  5
81E2
330
81E0
100
AcDbEntity
  8
0
 48
15.0
100
AcDbBlockEnd
  0
BLOCK
  5
81EF
330
81EE
100
AcDbEntity
  8
ASHADE
 48
15.0
100
AcDbBlockBegin
  2
AVE_GLOBAL
 70
     0
 10
0.0
 20
0.0
 30
0.0
  3
AVE_GLOBAL
  1
AVE_GLOBAL
  0
ENDBLK
  5
81F0
330
81EE
100
AcDbEntity
  8
0
 48
15.0
100
AcDbBlockEnd
  0
BLOCK
  5
A25E
330
A252
100
AcDbEntity
  8
0
 48
25.0
100
AcDbBlockBegin
  2
*D3
 70
     1
 10
0.0
 20
0.0
 30
0.0
  3
*D3
  1

  0
LINE
  5
B9F8
330
A252
100
AcDbEntity
  8
寸法引出
 48
25.0
370
    -2
100
AcDbLine
 10
3090.801922098719
 20
1089.965222670045
 30
0.0
 11
3090.801922098719
 21
1163.960115885747
 31
0.0
  0
LINE
  5
B9F9
330
A252
100
AcDbEntity
  8
寸法引出
 48
25.0
370
    -2
100
AcDbLine
 10
3096.801922098719
 20
1095.965222670045
 30
0.0
 11
3096.801922098719
 21
1163.960115885747
 31
0.0
  0
LINE
  5
B9FA
330
A252
100
AcDbEntity
  8
寸法引出
 48
25.0
370
    -2
100
AcDbLine
 10
3053.301922098718
 20
1151.460115885747
 30
0.0
 11
3015.801922098718
 21
1151.460115885747
 31
0.0
  0
LINE
  5
B9FB
330
A252
100
AcDbEntity
  8
寸法引出
 48
25.0
370
    -2
100
AcDbLine
 10
3134.301922098719
 20
1151.460115885747
 30
0.0
 11
3171.801922098719
 21
1151.460115885747
 31
0.0
  0
LINE
  5
B9FC
330
A252
100
AcDbEntity
  8
寸法引出
 48
25.0
370
    -2
100
AcDbLine
 10
3090.801922098719
 20
1151.460115885747
 30
0.0
 11
3096.801922098719
 21
1151.460115885747
 31
0.0
  0
SOLID
  5
B9FD
330
A252
100
AcDbEntity
  8
寸法引出
 48
25.0
100
AcDbTrace
 10
3053.301922098718
 20
1157.710115885747
 30
0.0
 11
3053.301922098718
 21
1145.210115885747
 31
0.0
 12
3090.801922098719
 22
1151.460115885747
 32
0.0
 13
3090.801922098719
 23
1151.460115885747
 33
0.0
  0
SOLID
  5
B9FE
330
A252
100
AcDbEntity
  8
寸法引出
 48
25.0
100
AcDbTrace
 10
3134.301922098719
 20
1157.710115885747
 30
0.0
 11
3134.301922098719
 21
1145.210115885747
 31
0.0
 12
3096.801922098719
 22
1151.460115885747
 32
0.0
 13
3096.801922098719
 23
1151.460115885747
 33
0.0
  0
MTEXT
  5
B9FF
330
A252
100
AcDbEntity
  8
寸法引出
 48
25.0
100
AcDbMText
 10
3093.801922098719
 20
1201.460115885747
 30
0.0
 40
50.0
 41
0.0
 71
     5
 72
     1
  1
\A1;2
  7
SANWA
 73
     1
 44
1.0
  0
POINT
  5
BA00
330
A252
100
AcDbEntity
  8
DEFPOINTS
 62
     0
 48
25.0
100
AcDbPoint
 10
3090.801922098719
 20
1064.965222670045
 30
0.0
  0
POINT
  5
BA01
330
A252
100
AcDbEntity
  8
DEFPOINTS
 62
     0
 48
25.0
100
AcDbPoint
 10
3096.801922098719
 20
1070.965222670045
 30
0.0
  0
POINT
  5
BA02
330
A252
100
AcDbEntity
  8
DEFPOINTS
 62
     0
 48
25.0
100
AcDbPoint
 10
3096.801922098719
 20
1151.460115885747
 30
0.0
  0
ENDBLK
  5
A25F
330
A252
100
AcDbEntity
  8
0
 48
25.0
100
AcDbBlockEnd
  0
BLOCK
  5
A26A
330
A260
100
AcDbEntity
  8
0
 48
25.0
100
AcDbBlockBegin
  2
*D4
 70
     1
 10
0.0
 20
0.0
 30
0.0
  3
*D4
  1

  0
LINE
  5
B9EF
330
A260
100
AcDbEntity
  8
寸法引出
 48
25.0
370
    -2
100
AcDbLine
 10
2835.801922098719
 20
1095.965222670045
 30
0.0
 11
2835.801922098719
 21
1163.960115885747
 31
0.0
  0
LINE
  5
B9F0
330
A260
100
AcDbEntity
  8
寸法引出
 48
25.0
370
    -2
100
AcDbLine
 10
3090.801922098719
 20
1089.965222670045
 30
0.0
 11
3090.801922098719
 21
1163.960115885747
 31
0.0
  0
LINE
  5
B9F1
330
A260
100
AcDbEntity
  8
寸法引出
 48
25.0
370
    -2
100
AcDbLine
 10
2873.301922098718
 20
1151.460115885747
 30
0.0
 11
3053.301922098718
 21
1151.460115885747
 31
0.0
  0
SOLID
  5
B9F2
330
A260
100
AcDbEntity
  8
寸法引出
 48
25.0
100
AcDbTrace
 10
2873.301922098718
 20
1157.710115885747
 30
0.0
 11
2873.301922098718
 21
1145.210115885747
 31
0.0
 12
2835.801922098719
 22
1151.460115885747
 32
0.0
 13
2835.801922098719
 23
1151.460115885747
 33
0.0
  0
SOLID
  5
B9F3
330
A260
100
AcDbEntity
  8
寸法引出
 48
25.0
100
AcDbTrace
 10
3053.301922098718
 20
1157.710115885747
 30
0.0
 11
3053.301922098718
 21
1145.210115885747
 31
0.0
 12
3090.801922098719
 22
1151.460115885747
 32
0.0
 13
3090.801922098719
 23
1151.460115885747
 33
0.0
  0
MTEXT
  5
B9F4
330
A260
100
AcDbEntity
  8
寸法引出
 48
25.0
100
AcDbMText
 10
2963.301922098719
 20
1201.460115885747
 30
0.0
 40
50.0
 41
0.0
 71
     5
 72
     1
  1
\A1;85
  7
SANWA
 73
     1
 44
1.0
  0
POINT
  5
B9F5
330
A260
100
AcDbEntity
  8
DEFPOINTS
 62
     0
 48
25.0
100
AcDbPoint
 10
2835.801922098719
 20
1070.965222670045
 30
0.0
  0
POINT
  5
B9F6
330
A260
100
AcDbEntity
  8
DEFPOINTS
 62
     0
 48
25.0
100
AcDbPoint
 10
3090.801922098719
 20
1064.965222670045
 30
0.0
  0
POINT
  5
B9F7
330
A260
100
AcDbEntity
  8
DEFPOINTS
 62
     0
 48
25.0
100
AcDbPoint
 10
3090.801922098719
 20
1151.460115885747
 30
0.0
  0
ENDBLK
  5
A26B
330
A260
100
AcDbEntity
  8
0
 48
25.0
100
AcDbBlockEnd
  0
BLOCK
  5
A276
330
A26C
100
AcDbEntity
  8
0
 48
25.0
100
AcDbBlockBegin
  2
*D5
 70
     1
 10
0.0
 20
0.0
 30
0.0
  3
*D5
  1

  0
LINE
  5
BA03
330
A26C
100
AcDbEntity
  8
寸法引出
 48
25.0
370
    -2
100
AcDbLine
 10
2835.801922098719
 20
898.9652226700455
 30
0.0
 11
2835.801922098719
 21
810.7434378907365
 31
0.0
  0
LINE
  5
BA04
330
A26C
100
AcDbEntity
  8
寸法引出
 48
25.0
370
    -2
100
AcDbLine
 10
2985.801922098719
 20
972.4652226700454
 30
0.0
 11
2985.801922098719
 21
810.7434378907365
 31
0.0
  0
LINE
  5
BA05
330
A26C
100
AcDbEntity
  8
寸法引出
 48
25.0
370
    -2
100
AcDbLine
 10
2873.301922098718
 20
823.2434378907365
 30
0.0
 11
2948.301922098718
 21
823.2434378907365
 31
0.0
  0
SOLID
  5
BA06
330
A26C
100
AcDbEntity
  8
寸法引出
 48
25.0
100
AcDbTrace
 10
2873.301922098718
 20
829.4934378907365
 30
0.0
 11
2873.301922098718
 21
816.9934378907365
 31
0.0
 12
2835.801922098719
 22
823.2434378907365
 32
0.0
 13
2835.801922098719
 23
823.2434378907365
 33
0.0
  0
SOLID
  5
BA07
330
A26C
100
AcDbEntity
  8
寸法引出
 48
25.0
100
AcDbTrace
 10
2948.301922098718
 20
829.4934378907365
 30
0.0
 11
2948.301922098718
 21
816.9934378907365
 31
0.0
 12
2985.801922098719
 22
823.2434378907365
 32
0.0
 13
2985.801922098719
 23
823.2434378907365
 33
0.0
  0
MTEXT
  5
BA08
330
A26C
100
AcDbEntity
  8
寸法引出
 48
25.0
100
AcDbMText
 10
2910.801922098718
 20
873.2434378907365
 30
0.0
 40
50.0
 41
0.0
 71
     5
 72
     1
  1
\A1;50
  7
SANWA
 73
     1
 44
1.0
  0
POINT
  5
BA09
330
A26C
100
AcDbEntity
  8
DEFPOINTS
 62
     0
 48
25.0
100
AcDbPoint
 10
2835.801922098719
 20
923.9652226700455
 30
0.0
  0
POINT
  5
BA0A
330
A26C
100
AcDbEntity
  8
DEFPOINTS
 62
     0
 48
25.0
100
AcDbPoint
 10
2985.801922098719
 20
997.4652226700454
 30
0.0
  0
POINT
  5
BA0B
330
A26C
100
AcDbEntity
  8
DEFPOINTS
 62
     0
 48
25.0
100
AcDbPoint
 10
2985.801922098719
 20
823.2434378907365
 30
0.0
  0
ENDBLK
  5
A277
330
A26C
100
AcDbEntity
  8
0
 48
25.0
100
AcDbBlockEnd
  0
BLOCK
  5
A282
330
A278
100
AcDbEntity
  8
0
 48
25.0
100
AcDbBlockBegin
  2
*D6
 70
     1
 10
0.0
 20
0.0
 30
0.0
  3
*D6
  1

  0
LINE
  5
BA0C
330
A278
100
AcDbEntity
  8
寸法引出
 48
25.0
370
    -2
100
AcDbLine
 10
3115.801922098724
 20
929.9652226700455
 30
0.0
 11
3341.901680851369
 21
929.9652226700453
 31
0.0
  0
LINE
  5
BA0D
330
A278
100
AcDbEntity
  8
寸法引出
 48
25.0
370
    -2
100
AcDbLine
 10
3115.801922098718
 20
1064.965222670045
 30
0.0
 11
3341.901680851369
 21
1064.965222670045
 31
0.0
  0
LINE
  5
BA0E
330
A278
100
AcDbEntity
  8
寸法引出
 48
25.0
370
    -2
100
AcDbLine
 10
3329.401680851369
 20
967.4652226700453
 30
0.0
 11
3329.401680851369
 21
1027.465222670045
 31
0.0
  0
SOLID
  5
BA0F
330
A278
100
AcDbEntity
  8
寸法引出
 48
25.0
100
AcDbTrace
 10
3323.151680851369
 20
967.4652226700455
 30
0.0
 11
3335.651680851369
 21
967.4652226700453
 31
0.0
 12
3329.401680851369
 22
929.9652226700453
 32
0.0
 13
3329.401680851369
 23
929.9652226700453
 33
0.0
  0
SOLID
  5
BA10
330
A278
100
AcDbEntity
  8
寸法引出
 48
25.0
100
AcDbTrace
 10
3323.151680851369
 20
1027.465222670045
 30
0.0
 11
3335.651680851369
 21
1027.465222670045
 31
0.0
 12
3329.401680851369
 22
1064.965222670045
 32
0.0
 13
3329.401680851369
 23
1064.965222670045
 33
0.0
  0
MTEXT
  5
BA11
330
A278
100
AcDbEntity
  8
寸法引出
 48
25.0
100
AcDbMText
 10
3279.401680851369
 20
997.465222670046
 30
0.0
 40
50.0
 41
0.0
 71
     5
 72
     1
  1
\A1;45
  7
SANWA
 11
0.0000000000000001
 21
1.0
 31
0.0
 73
     1
 44
1.0
  0
POINT
  5
BA12
330
A278
100
AcDbEntity
  8
DEFPOINTS
 62
     0
 48
25.0
100
AcDbPoint
 10
3090.801922098724
 20
929.9652226700455
 30
0.0
  0
POINT
  5
BA13
330
A278
100
AcDbEntity
  8
DEFPOINTS
 62
     0
 48
25.0
100
AcDbPoint
 10
3090.801922098719
 20
1064.965222670045
 30
0.0
  0
POINT
  5
BA14
330
A278
100
AcDbEntity
  8
DEFPOINTS
 62
     0
 48
25.0
100
AcDbPoint
 10
3329.401680851369
 20
1064.965222670045
 30
0.0
  0
ENDBLK
  5
A283
330
A278
100
AcDbEntity
  8
0
 48
25.0
100
AcDbBlockEnd
  0
BLOCK
  5
A290
330
A284
100
AcDbEntity
  8
0
 48
25.0
100
AcDbBlockBegin
  2
*D7
 70
     1
 10
0.0
 20
0.0
 30
0.0
  3
*D7
  1

  0
LINE
  5
BA15
330
A284
100
AcDbEntity
  8
寸法引出
 48
25.0
370
    -2
100
AcDbLine
 10
3768.532093839043
 20
898.9652226700455
 30
0.0
 11
3768.532093839043
 21
799.7532168526849
 31
0.0
  0
LINE
  5
BA16
330
A284
100
AcDbEntity
  8
寸法引出
 48
25.0
370
    -2
100
AcDbLine
 10
3778.132093839046
 20
904.9652226700455
 30
0.0
 11
3778.132093839046
 21
799.7532168526849
 31
0.0
  0
LINE
  5
BA17
330
A284
100
AcDbEntity
  8
寸法引出
 48
25.0
370
    -2
100
AcDbLine
 10
3731.032093839043
 20
812.253216852685
 30
0.0
 11
3693.532093839043
 21
812.253216852685
 31
0.0
  0
LINE
  5
BA18
330
A284
100
AcDbEntity
  8
寸法引出
 48
25.0
370
    -2
100
AcDbLine
 10
3815.632093839045
 20
812.253216852685
 30
0.0
 11
3853.132093839045
 21
812.253216852685
 31
0.0
  0
LINE
  5
BA19
330
A284
100
AcDbEntity
  8
寸法引出
 48
25.0
370
    -2
100
AcDbLine
 10
3768.532093839043
 20
812.253216852685
 30
0.0
 11
3778.132093839046
 21
812.253216852685
 31
0.0
  0
SOLID
  5
BA1A
330
A284
100
AcDbEntity
  8
寸法引出
 48
25.0
100
AcDbTrace
 10
3731.032093839043
 20
818.503216852685
 30
0.0
 11
3731.032093839043
 21
806.003216852685
 31
0.0
 12
3768.532093839043
 22
812.253216852685
 32
0.0
 13
3768.532093839043
 23
812.253216852685
 33
0.0
  0
SOLID
  5
BA1B
330
A284
100
AcDbEntity
  8
寸法引出
 48
25.0
100
AcDbTrace
 10
3815.632093839045
 20
818.503216852685
 30
0.0
 11
3815.632093839045
 21
806.003216852685
 31
0.0
 12
3778.132093839046
 22
812.253216852685
 32
0.0
 13
3778.132093839046
 23
812.253216852685
 33
0.0
  0
MTEXT
  5
BA1C
330
A284
100
AcDbEntity
  8
寸法引出
 48
25.0
100
AcDbMText
 10
3773.332093839044
 20
862.253216852685
 30
0.0
 40
50.0
 41
0.0
 71
     5
 72
     1
  1
\A1;3.2
  7
SANWA
 73
     1
 44
1.0
  0
POINT
  5
BA1D
330
A284
100
AcDbEntity
  8
DEFPOINTS
 62
     0
 48
25.0
100
AcDbPoint
 10
3768.532093839043
 20
923.9652226700455
 30
0.0
  0
POINT
  5
BA1E
330
A284
100
AcDbEntity
  8
DEFPOINTS
 62
     0
 48
25.0
100
AcDbPoint
 10
3778.132093839046
 20
929.9652226700455
 30
0.0
  0
POINT
  5
BA1F
330
A284
100
AcDbEntity
  8
DEFPOINTS
 62
     0
 48
25.0
100
AcDbPoint
 10
3778.132093839046
 20
812.253216852685
 30
0.0
  0
ENDBLK
  5
A291
330
A284
100
AcDbEntity
  8
0
 48
25.0
100
AcDbBlockEnd
  0
BLOCK
  5
A84D
330
A841
100
AcDbEntity
  8
0
 48
25.0
100
AcDbBlockBegin
  2
*D8
 70
     1
 10
0.0
 20
0.0
 30
0.0
  3
*D8
  1

  0
LINE
  5
BAAC
330
A841
100
AcDbEntity
  8
寸法引出
 48
25.0
370
    -2
100
AcDbLine
 10
5115.639854366065
 20
3410.075433033267
 30
0.0
 11
5115.639854366065
 21
3543.86004506298
 31
0.0
  0
LINE
  5
BAAD
330
A841
100
AcDbEntity
  8
寸法引出
 48
25.0
370
    -2
100
AcDbLine
 10
5235.639854366065
 20
3410.075433033267
 30
0.0
 11
5235.639854366065
 21
3543.86004506298
 31
0.0
  0
LINE
  5
BAAE
330
A841
100
AcDbEntity
  8
寸法引出
 48
25.0
370
    -2
100
AcDbLine
 10
5078.139854366066
 20
3531.36004506298
 30
0.0
 11
5040.639854366066
 21
3531.36004506298
 31
0.0
  0
LINE
  5
BAAF
330
A841
100
AcDbEntity
  8
寸法引出
 48
25.0
370
    -2
100
AcDbLine
 10
5273.139854366065
 20
3531.36004506298
 30
0.0
 11
5310.639854366066
 21
3531.36004506298
 31
0.0
  0
LINE
  5
BAB0
330
A841
100
AcDbEntity
  8
寸法引出
 48
25.0
370
    -2
100
AcDbLine
 10
5115.639854366065
 20
3531.36004506298
 30
0.0
 11
5235.639854366065
 21
3531.36004506298
 31
0.0
  0
SOLID
  5
BAB1
330
A841
100
AcDbEntity
  8
寸法引出
 48
25.0
100
AcDbTrace
 10
5078.139854366066
 20
3537.610045062979
 30
0.0
 11
5078.139854366066
 21
3525.11004506298
 31
0.0
 12
5115.639854366065
 22
3531.36004506298
 32
0.0
 13
5115.639854366065
 23
3531.36004506298
 33
0.0
  0
SOLID
  5
BAB2
330
A841
100
AcDbEntity
  8
寸法引出
 48
25.0
100
AcDbTrace
 10
5273.139854366065
 20
3537.610045062979
 30
0.0
 11
5273.139854366065
 21
3525.11004506298
 31
0.0
 12
5235.639854366065
 22
3531.36004506298
 32
0.0
 13
5235.639854366065
 23
3531.36004506298
 33
0.0
  0
MTEXT
  5
BAB3
330
A841
100
AcDbEntity
  8
寸法引出
 48
25.0
100
AcDbMText
 10
5175.639854366065
 20
3581.36004506298
 30
0.0
 40
50.0
 41
0.0
 71
     5
 72
     1
  1
\A1;120
  7
SANWA
 73
     1
 44
1.0
  0
POINT
  5
BAB4
330
A841
100
AcDbEntity
  8
DEFPOINTS
 62
     0
 48
25.0
100
AcDbPoint
 10
5115.639854366065
 20
3385.075433033267
 30
0.0
  0
POINT
  5
BAB5
330
A841
100
AcDbEntity
  8
DEFPOINTS
 62
     0
 48
25.0
100
AcDbPoint
 10
5235.639854366065
 20
3385.075433033267
 30
0.0
  0
POINT
  5
BAB6
330
A841
100
AcDbEntity
  8
DEFPOINTS
 62
     0
 48
25.0
100
AcDbPoint
 10
5235.639854366065
 20
3531.36004506298
 30
0.0
  0
ENDBLK
  5
A84E
330
A841
100
AcDbEntity
  8
0
 48
25.0
100
AcDbBlockEnd
  0
BLOCK
  5
A859
330
A84F
100
AcDbEntity
  8
0
 48
25.0
100
AcDbBlockBegin
  2
*D9
 70
     1
 10
0.0
 20
0.0
 30
0.0
  3
*D9
  1

  0
LINE
  5
BAA3
330
A84F
100
AcDbEntity
  8
寸法引出
 48
25.0
370
    -2
100
AcDbLine
 10
5235.639854366065
 20
3410.075433033267
 30
0.0
 11
5235.639854366065
 21
3543.86004506298
 31
0.0
  0
LINE
  5
BAA4
330
A84F
100
AcDbEntity
  8
寸法引出
 48
25.0
370
    -2
100
AcDbLine
 10
5995.639854366065
 20
3410.075433033267
 30
0.0
 11
5995.639854366065
 21
3543.86004506298
 31
0.0
  0
LINE
  5
BAA5
330
A84F
100
AcDbEntity
  8
寸法引出
 48
25.0
370
    -2
100
AcDbLine
 10
5273.139854366065
 20
3531.36004506298
 30
0.0
 11
5958.139854366065
 21
3531.36004506298
 31
0.0
  0
SOLID
  5
BAA6
330
A84F
100
AcDbEntity
  8
寸法引出
 48
25.0
100
AcDbTrace
 10
5273.139854366065
 20
3537.610045062979
 30
0.0
 11
5273.139854366065
 21
3525.11004506298
 31
0.0
 12
5235.639854366065
 22
3531.36004506298
 32
0.0
 13
5235.639854366065
 23
3531.36004506298
 33
0.0
  0
SOLID
  5
BAA7
330
A84F
100
AcDbEntity
  8
寸法引出
 48
25.0
100
AcDbTrace
 10
5958.139854366065
 20
3537.610045062979
 30
0.0
 11
5958.139854366065
 21
3525.11004506298
 31
0.0
 12
5995.639854366065
 22
3531.36004506298
 32
0.0
 13
5995.639854366065
 23
3531.36004506298
 33
0.0
  0
MTEXT
  5
BAA8
330
A84F
100
AcDbEntity
  8
寸法引出
 48
25.0
100
AcDbMText
 10
5615.639854366065
 20
3581.36004506298
 30
0.0
 40
50.0
 41
0.0
 71
     5
 72
     1
  1
\A1;760
  7
SANWA
 73
     1
 44
1.0
  0
POINT
  5
BAA9
330
A84F
100
AcDbEntity
  8
DEFPOINTS
 62
     0
 48
25.0
100
AcDbPoint
 10
5235.639854366065
 20
3385.075433033267
 30
0.0
  0
POINT
  5
BAAA
330
A84F
100
AcDbEntity
  8
DEFPOINTS
 62
     0
 48
25.0
100
AcDbPoint
 10
5995.639854366065
 20
3385.075433033267
 30
0.0
  0
POINT
  5
BAAB
330
A84F
100
AcDbEntity
  8
DEFPOINTS
 62
     0
 48
25.0
100
AcDbPoint
 10
5995.639854366065
 20
3531.36004506298
 30
0.0
  0
ENDBLK
  5
A85A
330
A84F
100
AcDbEntity
  8
0
 48
25.0
100
AcDbBlockEnd
  0
BLOCK
  5
A865
330
A85B
100
AcDbEntity
  8
0
 48
25.0
100
AcDbBlockBegin
  2
*D10
 70
     1
 10
0.0
 20
0.0
 30
0.0
  3
*D10
  1

  0
LINE
  5
BACB
330
A85B
100
AcDbEntity
  8
寸法引出
 48
25.0
370
    -2
100
AcDbLine
 10
5995.639854366065
 20
3410.075433033267
 30
0.0
 11
5995.639854366065
 21
3543.86004506298
 31
0.0
  0
LINE
  5
BACC
330
A85B
100
AcDbEntity
  8
寸法引出
 48
25.0
370
    -2
100
AcDbLine
 10
6235.639854366065
 20
3410.075433033267
 30
0.0
 11
6235.639854366065
 21
3543.86004506298
 31
0.0
  0
LINE
  5
BACD
330
A85B
100
AcDbEntity
  8
寸法引出
 48
25.0
370
    -2
100
AcDbLine
 10
6033.139854366066
 20
3531.36004506298
 30
0.0
 11
6198.139854366065
 21
3531.36004506298
 31
0.0
  0
SOLID
  5
BACE
330
A85B
100
AcDbEntity
  8
寸法引出
 48
25.0
100
AcDbTrace
 10
6033.139854366066
 20
3537.610045062979
 30
0.0
 11
6033.139854366066
 21
3525.11004506298
 31
0.0
 12
5995.639854366065
 22
3531.36004506298
 32
0.0
 13
5995.639854366065
 23
3531.36004506298
 33
0.0
  0
SOLID
  5
BACF
330
A85B
100
AcDbEntity
  8
寸法引出
 48
25.0
100
AcDbTrace
 10
6198.139854366065
 20
3537.610045062979
 30
0.0
 11
6198.139854366065
 21
3525.11004506298
 31
0.0
 12
6235.639854366065
 22
3531.36004506298
 32
0.0
 13
6235.639854366065
 23
3531.36004506298
 33
0.0
  0
MTEXT
  5
BAD0
330
A85B
100
AcDbEntity
  8
寸法引出
 48
25.0
100
AcDbMText
 10
6115.639854366065
 20
3581.36004506298
 30
0.0
 40
50.0
 41
0.0
 71
     5
 72
     1
  1
\A1;240
  7
SANWA
 73
     1
 44
1.0
  0
POINT
  5
BAD1
330
A85B
100
AcDbEntity
  8
DEFPOINTS
 62
     0
 48
25.0
100
AcDbPoint
 10
5995.639854366065
 20
3385.075433033267
 30
0.0
  0
POINT
  5
BAD2
330
A85B
100
AcDbEntity
  8
DEFPOINTS
 62
     0
 48
25.0
100
AcDbPoint
 10
6235.639854366065
 20
3385.075433033267
 30
0.0
  0
POINT
  5
BAD3
330
A85B
100
AcDbEntity
  8
DEFPOINTS
 62
     0
 48
25.0
100
AcDbPoint
 10
6235.639854366065
 20
3531.36004506298
 30
0.0
  0
ENDBLK
  5
A866
330
A85B
100
AcDbEntity
  8
0
 48
25.0
100
AcDbBlockEnd
  0
BLOCK
  5
A871
330
A867
100
AcDbEntity
  8
0
 48
25.0
100
AcDbBlockBegin
  2
*D11
 70
     1
 10
0.0
 20
0.0
 30
0.0
  3
*D11
  1

  0
LINE
  5
BA9A
330
A867
100
AcDbEntity
  8
寸法引出
 48
25.0
370
    -2
100
AcDbLine
 10
6235.639854366065
 20
3410.075433033267
 30
0.0
 11
6235.639854366065
 21
3543.86004506298
 31
0.0
  0
LINE
  5
BA9B
330
A867
100
AcDbEntity
  8
寸法引出
 48
25.0
370
    -2
100
AcDbLine
 10
6995.639854366065
 20
3410.075433033267
 30
0.0
 11
6995.639854366065
 21
3543.86004506298
 31
0.0
  0
LINE
  5
BA9C
330
A867
100
AcDbEntity
  8
寸法引出
 48
25.0
370
    -2
100
AcDbLine
 10
6273.139854366065
 20
3531.36004506298
 30
0.0
 11
6958.139854366065
 21
3531.36004506298
 31
0.0
  0
SOLID
  5
BA9D
330
A867
100
AcDbEntity
  8
寸法引出
 48
25.0
100
AcDbTrace
 10
6273.139854366065
 20
3537.610045062979
 30
0.0
 11
6273.139854366065
 21
3525.11004506298
 31
0.0
 12
6235.639854366065
 22
3531.36004506298
 32
0.0
 13
6235.639854366065
 23
3531.36004506298
 33
0.0
  0
SOLID
  5
BA9E
330
A867
100
AcDbEntity
  8
寸法引出
 48
25.0
100
AcDbTrace
 10
6958.139854366065
 20
3537.610045062979
 30
0.0
 11
6958.139854366065
 21
3525.11004506298
 31
0.0
 12
6995.639854366065
 22
3531.36004506298
 32
0.0
 13
6995.639854366065
 23
3531.36004506298
 33
0.0
  0
MTEXT
  5
BA9F
330
A867
100
AcDbEntity
  8
寸法引出
 48
25.0
100
AcDbMText
 10
6615.639854366065
 20
3581.36004506298
 30
0.0
 40
50.0
 41
0.0
 71
     5
 72
     1
  1
\A1;760
  7
SANWA
 73
     1
 44
1.0
  0
POINT
  5
BAA0
330
A867
100
AcDbEntity
  8
DEFPOINTS
 62
     0
 48
25.0
100
AcDbPoint
 10
6235.639854366065
 20
3385.075433033267
 30
0.0
  0
POINT
  5
BAA1
330
A867
100
AcDbEntity
  8
DEFPOINTS
 62
     0
 48
25.0
100
AcDbPoint
 10
6995.639854366065
 20
3385.075433033267
 30
0.0
  0
POINT
  5
BAA2
330
A867
100
AcDbEntity
  8
DEFPOINTS
 62
     0
 48
25.0
100
AcDbPoint
 10
6995.639854366065
 20
3531.36004506298
 30
0.0
  0
ENDBLK
  5
A872
330
A867
100
AcDbEntity
  8
0
 48
25.0
100
AcDbBlockEnd
  0
BLOCK
  5
A87F
330
A873
100
AcDbEntity
  8
0
 48
25.0
100
AcDbBlockBegin
  2
*D12
 70
     1
 10
0.0
 20
0.0
 30
0.0
  3
*D12
  1

  0
LINE
  5
BAD4
330
A873
100
AcDbEntity
  8
寸法引出
 48
25.0
370
    -2
100
AcDbLine
 10
6995.639854366065
 20
3410.075433033267
 30
0.0
 11
6995.639854366065
 21
3543.86004506298
 31
0.0
  0
LINE
  5
BAD5
330
A873
100
AcDbEntity
  8
寸法引出
 48
25.0
370
    -2
100
AcDbLine
 10
7115.639854366065
 20
3410.075433033267
 30
0.0
 11
7115.639854366065
 21
3543.86004506298
 31
0.0
  0
LINE
  5
BAD6
330
A873
100
AcDbEntity
  8
寸法引出
 48
25.0
370
    -2
100
AcDbLine
 10
6958.139854366065
 20
3531.36004506298
 30
0.0
 11
6920.639854366065
 21
3531.36004506298
 31
0.0
  0
LINE
  5
BAD7
330
A873
100
AcDbEntity
  8
寸法引出
 48
25.0
370
    -2
100
AcDbLine
 10
7153.139854366066
 20
3531.36004506298
 30
0.0
 11
7190.639854366065
 21
3531.36004506298
 31
0.0
  0
LINE
  5
BAD8
330
A873
100
AcDbEntity
  8
寸法引出
 48
25.0
370
    -2
100
AcDbLine
 10
6995.639854366065
 20
3531.36004506298
 30
0.0
 11
7115.639854366065
 21
3531.36004506298
 31
0.0
  0
SOLID
  5
BAD9
330
A873
100
AcDbEntity
  8
寸法引出
 48
25.0
100
AcDbTrace
 10
6958.139854366065
 20
3537.610045062979
 30
0.0
 11
6958.139854366065
 21
3525.11004506298
 31
0.0
 12
6995.639854366065
 22
3531.36004506298
 32
0.0
 13
6995.639854366065
 23
3531.36004506298
 33
0.0
  0
SOLID
  5
BADA
330
A873
100
AcDbEntity
  8
寸法引出
 48
25.0
100
AcDbTrace
 10
7153.139854366066
 20
3537.610045062979
 30
0.0
 11
7153.139854366066
 21
3525.11004506298
 31
0.0
 12
7115.639854366065
 22
3531.36004506298
 32
0.0
 13
7115.639854366065
 23
3531.36004506298
 33
0.0
  0
MTEXT
  5
BADB
330
A873
100
AcDbEntity
  8
寸法引出
 48
25.0
100
AcDbMText
 10
7055.639854366065
 20
3581.36004506298
 30
0.0
 40
50.0
 41
0.0
 71
     5
 72
     1
  1
\A1;120
  7
SANWA
 73
     1
 44
1.0
  0
POINT
  5
BADC
330
A873
100
AcDbEntity
  8
DEFPOINTS
 62
     0
 48
25.0
100
AcDbPoint
 10
6995.639854366065
 20
3385.075433033267
 30
0.0
  0
POINT
  5
BADD
330
A873
100
AcDbEntity
  8
DEFPOINTS
 62
     0
 48
25.0
100
AcDbPoint
 10
7115.639854366065
 20
3385.075433033267
 30
0.0
  0
POINT
  5
BADE
330
A873
100
AcDbEntity
  8
DEFPOINTS
 62
     0
 48
25.0
100
AcDbPoint
 10
7115.639854366065
 20
3531.36004506298
 30
0.0
  0
ENDBLK
  5
A880
330
A873
100
AcDbEntity
  8
0
 48
25.0
100
AcDbBlockEnd
  0
BLOCK
  5
A88B
330
A881
100
AcDbEntity
  8
0
 48
25.0
100
AcDbBlockBegin
  2
*D13
 70
     1
 10
0.0
 20
0.0
 30
0.0
  3
*D13
  1

  0
LINE
  5
BA91
330
A881
100
AcDbEntity
  8
寸法引出
 48
25.0
370
    -2
100
AcDbLine
 10
5115.639854366065
 20
3410.075433033267
 30
0.0
 11
5115.639854366065
 21
3666.988116559731
 31
0.0
  0
LINE
  5
BA92
330
A881
100
AcDbEntity
  8
寸法引出
 48
25.0
370
    -2
100
AcDbLine
 10
7115.639854366065
 20
3410.075433033267
 30
0.0
 11
7115.639854366065
 21
3666.988116559731
 31
0.0
  0
LINE
  5
BA93
330
A881
100
AcDbEntity
  8
寸法引出
 48
25.0
370
    -2
100
AcDbLine
 10
5153.139854366066
 20
3654.488116559731
 30
0.0
 11
7078.139854366066
 21
3654.488116559731
 31
0.0
  0
SOLID
  5
BA94
330
A881
100
AcDbEntity
  8
寸法引出
 48
25.0
100
AcDbTrace
 10
5153.139854366066
 20
3660.738116559731
 30
0.0
 11
5153.139854366066
 21
3648.238116559731
 31
0.0
 12
5115.639854366065
 22
3654.488116559731
 32
0.0
 13
5115.639854366065
 23
3654.488116559731
 33
0.0
  0
SOLID
  5
BA95
330
A881
100
AcDbEntity
  8
寸法引出
 48
25.0
100
AcDbTrace
 10
7078.139854366066
 20
3660.738116559731
 30
0.0
 11
7078.139854366066
 21
3648.238116559731
 31
0.0
 12
7115.639854366065
 22
3654.488116559731
 32
0.0
 13
7115.639854366065
 23
3654.488116559731
 33
0.0
  0
MTEXT
  5
BA96
330
A881
100
AcDbEntity
  8
寸法引出
 48
25.0
100
AcDbMText
 10
6115.639854366065
 20
3704.488116559731
 30
0.0
 40
50.0
 41
0.0
 71
     5
 72
     1
  1
\A1;2000
  7
SANWA
 73
     1
 44
1.0
  0
POINT
  5
BA97
330
A881
100
AcDbEntity
  8
DEFPOINTS
 62
     0
 48
25.0
100
AcDbPoint
 10
5115.639854366065
 20
3385.075433033267
 30
0.0
  0
POINT
  5
BA98
330
A881
100
AcDbEntity
  8
DEFPOINTS
 62
     0
 48
25.0
100
AcDbPoint
 10
7115.639854366065
 20
3385.075433033267
 30
0.0
  0
POINT
  5
BA99
330
A881
100
AcDbEntity
  8
DEFPOINTS
 62
     0
 48
25.0
100
AcDbPoint
 10
7115.639854366065
 20
3654.488116559731
 30
0.0
  0
ENDBLK
  5
A88C
330
A881
100
AcDbEntity
  8
0
 48
25.0
100
AcDbBlockEnd
  0
BLOCK
  5
A899
330
A88D
100
AcDbEntity
  8
0
 48
25.0
100
AcDbBlockBegin
  2
*D14
 70
     1
 10
0.0
 20
0.0
 30
0.0
  3
*D14
  1

  0
LINE
  5
BAB7
330
A88D
100
AcDbEntity
  8
寸法引出
 48
25.0
370
    -2
100
AcDbLine
 10
5115.639854366065
 20
3185.575433033267
 30
0.0
 11
5115.639854366065
 21
3087.500440027505
 31
0.0
  0
LINE
  5
BAB8
330
A88D
100
AcDbEntity
  8
寸法引出
 48
25.0
370
    -2
100
AcDbLine
 10
5165.639854366066
 20
3210.075433033267
 30
0.0
 11
5165.639854366066
 21
3087.500440027505
 31
0.0
  0
LINE
  5
BAB9
330
A88D
100
AcDbEntity
  8
寸法引出
 48
25.0
370
    -2
100
AcDbLine
 10
5078.139854366066
 20
3100.000440027505
 30
0.0
 11
5040.639854366066
 21
3100.000440027505
 31
0.0
  0
LINE
  5
BABA
330
A88D
100
AcDbEntity
  8
寸法引出
 48
25.0
370
    -2
100
AcDbLine
 10
5203.139854366066
 20
3100.000440027505
 30
0.0
 11
5240.639854366065
 21
3100.000440027505
 31
0.0
  0
LINE
  5
BABB
330
A88D
100
AcDbEntity
  8
寸法引出
 48
25.0
370
    -2
100
AcDbLine
 10
5115.639854366065
 20
3100.000440027505
 30
0.0
 11
5165.639854366066
 21
3100.000440027505
 31
0.0
  0
SOLID
  5
BABC
330
A88D
100
AcDbEntity
  8
寸法引出
 48
25.0
100
AcDbTrace
 10
5078.139854366066
 20
3106.250440027505
 30
0.0
 11
5078.139854366066
 21
3093.750440027505
 31
0.0
 12
5115.639854366065
 22
3100.000440027505
 32
0.0
 13
5115.639854366065
 23
3100.000440027505
 33
0.0
  0
SOLID
  5
BABD
330
A88D
100
AcDbEntity
  8
寸法引出
 48
25.0
100
AcDbTrace
 10
5203.139854366066
 20
3106.250440027505
 30
0.0
 11
5203.139854366066
 21
3093.750440027505
 31
0.0
 12
5165.639854366066
 22
3100.000440027505
 32
0.0
 13
5165.639854366066
 23
3100.000440027505
 33
0.0
  0
MTEXT
  5
BABE
330
A88D
100
AcDbEntity
  8
寸法引出
 48
25.0
100
AcDbMText
 10
5140.639854366066
 20
3150.000440027505
 30
0.0
 40
50.0
 41
0.0
 71
     5
 72
     1
  1
\A1;50
  7
SANWA
 73
     1
 44
1.0
  0
POINT
  5
BABF
330
A88D
100
AcDbEntity
  8
DEFPOINTS
 62
     0
 48
25.0
100
AcDbPoint
 10
5115.639854366065
 20
3210.575433033267
 30
0.0
  0
POINT
  5
BAC0
330
A88D
100
AcDbEntity
  8
DEFPOINTS
 62
     0
 48
25.0
100
AcDbPoint
 10
5165.639854366066
 20
3235.075433033268
 30
0.0
  0
POINT
  5
BAC1
330
A88D
100
AcDbEntity
  8
DEFPOINTS
 62
     0
 48
25.0
100
AcDbPoint
 10
5165.639854366066
 20
3100.000440027505
 30
0.0
  0
ENDBLK
  5
A89A
330
A88D
100
AcDbEntity
  8
0
 48
25.0
100
AcDbBlockEnd
  0
BLOCK
  5
A8A5
330
A89B
100
AcDbEntity
  8
0
 48
25.0
100
AcDbBlockBegin
  2
*D15
 70
     1
 10
0.0
 20
0.0
 30
0.0
  3
*D15
  1

  0
LINE
  5
BAC2
330
A89B
100
AcDbEntity
  8
寸法引出
 48
25.0
370
    -2
100
AcDbLine
 10
5090.639854366066
 20
3235.075433033268
 30
0.0
 11
4975.907497085096
 21
3235.075433033268
 31
0.0
  0
LINE
  5
BAC3
330
A89B
100
AcDbEntity
  8
寸法引出
 48
25.0
370
    -2
100
AcDbLine
 10
5090.639854366066
 20
3385.075433033267
 30
0.0
 11
4975.907497085096
 21
3385.075433033267
 31
0.0
  0
LINE
  5
BAC4
330
A89B
100
AcDbEntity
  8
寸法引出
 48
25.0
370
    -2
100
AcDbLine
 10
4988.407497085096
 20
3272.575433033267
 30
0.0
 11
4988.407497085096
 21
3347.575433033267
 31
0.0
  0
SOLID
  5
BAC5
330
A89B
100
AcDbEntity
  8
寸法引出
 48
25.0
100
AcDbTrace
 10
4982.157497085096
 20
3272.575433033267
 30
0.0
 11
4994.657497085096
 21
3272.575433033267
 31
0.0
 12
4988.407497085096
 22
3235.075433033268
 32
0.0
 13
4988.407497085096
 23
3235.075433033268
 33
0.0
  0
SOLID
  5
BAC6
330
A89B
100
AcDbEntity
  8
寸法引出
 48
25.0
100
AcDbTrace
 10
4982.157497085096
 20
3347.575433033267
 30
0.0
 11
4994.657497085096
 21
3347.575433033267
 31
0.0
 12
4988.407497085096
 22
3385.075433033267
 32
0.0
 13
4988.407497085096
 23
3385.075433033267
 33
0.0
  0
MTEXT
  5
BAC7
330
A89B
100
AcDbEntity
  8
寸法引出
 48
25.0
100
AcDbMText
 10
4938.407497085095
 20
3310.075433033267
 30
0.0
 40
50.0
 41
0.0
 71
     5
 72
     1
  1
\A1;150
  7
SANWA
 11
0.0000000000000001
 21
1.0
 31
0.0
 73
     1
 44
1.0
  0
POINT
  5
BAC8
330
A89B
100
AcDbEntity
  8
DEFPOINTS
 62
     0
 48
25.0
100
AcDbPoint
 10
5115.639854366065
 20
3235.075433033268
 30
0.0
  0
POINT
  5
BAC9
330
A89B
100
AcDbEntity
  8
DEFPOINTS
 62
     0
 48
25.0
100
AcDbPoint
 10
5115.639854366065
 20
3385.075433033267
 30
0.0
  0
POINT
  5
BACA
330
A89B
100
AcDbEntity
  8
DEFPOINTS
 62
     0
 48
25.0
100
AcDbPoint
 10
4988.407497085096
 20
3385.075433033267
 30
0.0
  0
ENDBLK
  5
A8A6
330
A89B
100
AcDbEntity
  8
0
 48
25.0
100
AcDbBlockEnd
  0
BLOCK
  5
B5EF
330
B5E5
100
AcDbEntity
  8
0
 48
15.0
100
AcDbBlockBegin
  2
*D16
 70
     1
 10
0.0
 20
0.0
 30
0.0
  3
*D16
  1

  0
LINE
  5
B5E6
330
B5E5
100
AcDbEntity
  8
寸法引出
 48
15.0
370
    -2
100
AcDbLine
 10
6973.274595131051
 20
7531.629990087882
 30
0.0
 11
7004.415281902786
 21
7531.629990087882
 31
0.0
  0
LINE
  5
B5E7
330
B5E5
100
AcDbEntity
  8
寸法引出
 48
15.0
370
    -2
100
AcDbLine
 10
6885.712134144798
 20
8331.629990087884
 30
0.0
 11
7004.415281902786
 21
8331.629990087884
 31
0.0
  0
LINE
  5
B5E8
330
B5E5
100
AcDbEntity
  8
寸法引出
 48
15.0
370
    -2
100
AcDbLine
 10
6991.915281902786
 20
7569.129990087882
 30
0.0
 11
6991.915281902786
 21
8294.129990087885
 31
0.0
  0
SOLID
  5
B5E9
330
B5E5
100
AcDbEntity
  8
寸法引出
 48
15.0
100
AcDbTrace
 10
6985.665281902786
 20
7569.129990087882
 30
0.0
 11
6998.165281902785
 21
7569.129990087882
 31
0.0
 12
6991.915281902786
 22
7531.629990087882
 32
0.0
 13
6991.915281902786
 23
7531.629990087882
 33
0.0
  0
SOLID
  5
B5EA
330
B5E5
100
AcDbEntity
  8
寸法引出
 48
15.0
100
AcDbTrace
 10
6985.665281902786
 20
8294.129990087885
 30
0.0
 11
6998.165281902785
 21
8294.129990087885
 31
0.0
 12
6991.915281902786
 22
8331.629990087884
 32
0.0
 13
6991.915281902786
 23
8331.629990087884
 33
0.0
  0
MTEXT
  5
B5EB
330
B5E5
100
AcDbEntity
  8
寸法引出
 48
15.0
100
AcDbMText
 10
6941.915281902784
 20
7931.629990087884
 30
0.0
 40
50.0
 41
0.0
 71
     5
 72
     1
  1
\A1;800
  7
SANWA
 11
0.0000000000000001
 21
1.0
 31
0.0
 73
     1
 44
1.0
  0
POINT
  5
B5EC
330
B5E5
100
AcDbEntity
  8
DEFPOINTS
 62
     0
 48
15.0
100
AcDbPoint
 10
6948.27459513105
 20
7531.629990087882
 30
0.0
  0
POINT
  5
B5ED
330
B5E5
100
AcDbEntity
  8
DEFPOINTS
 62
     0
 48
15.0
100
AcDbPoint
 10
6860.712134144797
 20
8331.629990087884
 30
0.0
  0
POINT
  5
B5EE
330
B5E5
100
AcDbEntity
  8
DEFPOINTS
 62
     0
 48
15.0
100
AcDbPoint
 10
6991.915281902786
 20
8331.629990087884
 30
0.0
  0
ENDBLK
  5
B5F0
330
B5E5
100
AcDbEntity
  8
0
 48
15.0
100
AcDbBlockEnd
  0
BLOCK
  5
B5FD
330
B5F1
100
AcDbEntity
  8
0
 48
15.0
100
AcDbBlockBegin
  2
*D17
 70
     1
 10
0.0
 20
0.0
 30
0.0
  3
*D17
  1

  0
LINE
  5
B5F2
330
B5F1
100
AcDbEntity
  8
寸法引出
 48
15.0
370
    -2
100
AcDbLine
 10
6885.712134144798
 20
8331.629990087884
 30
0.0
 11
7004.415281902786
 21
8331.629990087884
 31
0.0
  0
LINE
  5
B5F3
330
B5F1
100
AcDbEntity
  8
寸法引出
 48
15.0
370
    -2
100
AcDbLine
 10
6885.712134144798
 20
8431.629990087884
 30
0.0
 11
7004.415281902786
 21
8431.629990087884
 31
0.0
  0
LINE
  5
B5F4
330
B5F1
100
AcDbEntity
  8
寸法引出
 48
15.0
370
    -2
100
AcDbLine
 10
6991.915281902786
 20
8294.129990087885
 30
0.0
 11
6991.915281902786
 21
8256.629990087885
 31
0.0
  0
LINE
  5
B5F5
330
B5F1
100
AcDbEntity
  8
寸法引出
 48
15.0
370
    -2
100
AcDbLine
 10
6991.915281902786
 20
8469.129990087884
 30
0.0
 11
6991.915281902786
 21
8506.629990087885
 31
0.0
  0
LINE
  5
B5F6
330
B5F1
100
AcDbEntity
  8
寸法引出
 48
15.0
370
    -2
100
AcDbLine
 10
6991.915281902786
 20
8331.629990087884
 30
0.0
 11
6991.915281902786
 21
8431.629990087884
 31
0.0
  0
SOLID
  5
B5F7
330
B5F1
100
AcDbEntity
  8
寸法引出
 48
15.0
100
AcDbTrace
 10
6985.665281902786
 20
8294.129990087885
 30
0.0
 11
6998.165281902785
 21
8294.129990087885
 31
0.0
 12
6991.915281902786
 22
8331.629990087884
 32
0.0
 13
6991.915281902786
 23
8331.629990087884
 33
0.0
  0
SOLID
  5
B5F8
330
B5F1
100
AcDbEntity
  8
寸法引出
 48
15.0
100
AcDbTrace
 10
6985.665281902786
 20
8469.129990087884
 30
0.0
 11
6998.165281902785
 21
8469.129990087884
 31
0.0
 12
6991.915281902786
 22
8431.629990087884
 32
0.0
 13
6991.915281902786
 23
8431.629990087884
 33
0.0
  0
MTEXT
  5
B5F9
330
B5F1
100
AcDbEntity
  8
寸法引出
 48
15.0
100
AcDbMText
 10
6941.915281902784
 20
8381.629990087885
 30
0.0
 40
50.0
 41
0.0
 71
     5
 72
     1
  1
\A1;100
  7
SANWA
 11
0.0000000000000001
 21
1.0
 31
0.0
 73
     1
 44
1.0
  0
POINT
  5
B5FA
330
B5F1
100
AcDbEntity
  8
DEFPOINTS
 62
     0
 48
15.0
100
AcDbPoint
 10
6860.712134144797
 20
8331.629990087884
 30
0.0
  0
POINT
  5
B5FB
330
B5F1
100
AcDbEntity
  8
DEFPOINTS
 62
     0
 48
15.0
100
AcDbPoint
 10
6860.712134144797
 20
8431.629990087884
 30
0.0
  0
POINT
  5
B5FC
330
B5F1
100
AcDbEntity
  8
DEFPOINTS
 62
     0
 48
15.0
100
AcDbPoint
 10
6991.915281902786
 20
8431.629990087884
 30
0.0
  0
ENDBLK
  5
B5FE
330
B5F1
100
AcDbEntity
  8
0
 48
15.0
100
AcDbBlockEnd
  0
BLOCK
  5
B609
330
B5FF
100
AcDbEntity
  8
0
 48
15.0
100
AcDbBlockBegin
  2
*D18
 70
     1
 10
0.0
 20
0.0
 30
0.0
  3
*D18
  1

  0
LINE
  5
B600
330
B5FF
100
AcDbEntity
  8
寸法引出
 48
15.0
370
    -2
100
AcDbLine
 10
6973.274595131049
 20
7531.629990087882
 30
0.0
 11
7081.18475167752
 21
7531.629990087882
 31
0.0
  0
LINE
  5
B601
330
B5FF
100
AcDbEntity
  8
寸法引出
 48
15.0
370
    -2
100
AcDbLine
 10
6885.712134144798
 20
8431.629990087884
 30
0.0
 11
7081.18475167752
 21
8431.629990087884
 31
0.0
  0
LINE
  5
B602
330
B5FF
100
AcDbEntity
  8
寸法引出
 48
15.0
370
    -2
100
AcDbLine
 10
7068.68475167752
 20
7569.129990087882
 30
0.0
 11
7068.68475167752
 21
8394.129990087884
 31
0.0
  0
SOLID
  5
B603
330
B5FF
100
AcDbEntity
  8
寸法引出
 48
15.0
100
AcDbTrace
 10
7062.43475167752
 20
7569.129990087882
 30
0.0
 11
7074.93475167752
 21
7569.129990087882
 31
0.0
 12
7068.68475167752
 22
7531.629990087882
 32
0.0
 13
7068.68475167752
 23
7531.629990087882
 33
0.0
  0
SOLID
  5
B604
330
B5FF
100
AcDbEntity
  8
寸法引出
 48
15.0
100
AcDbTrace
 10
7062.43475167752
 20
8394.129990087884
 30
0.0
 11
7074.93475167752
 21
8394.129990087884
 31
0.0
 12
7068.68475167752
 22
8431.629990087884
 32
0.0
 13
7068.68475167752
 23
8431.629990087884
 33
0.0
  0
MTEXT
  5
B605
330
B5FF
100
AcDbEntity
  8
寸法引出
 48
15.0
100
AcDbMText
 10
7018.68475167752
 20
7981.629990087885
 30
0.0
 40
50.0
 41
0.0
 71
     5
 72
     1
  1
\A1;900
  7
SANWA
 11
0.0000000000000001
 21
1.0
 31
0.0
 73
     1
 44
1.0
  0
POINT
  5
B606
330
B5FF
100
AcDbEntity
  8
DEFPOINTS
 62
     0
 48
15.0
100
AcDbPoint
 10
6948.274595131049
 20
7531.629990087882
 30
0.0
  0
POINT
  5
B607
330
B5FF
100
AcDbEntity
  8
DEFPOINTS
 62
     0
 48
15.0
100
AcDbPoint
 10
6860.712134144797
 20
8431.629990087884
 30
0.0
  0
POINT
  5
B608
330
B5FF
100
AcDbEntity
  8
DEFPOINTS
 62
     0
 48
15.0
100
AcDbPoint
 10
7068.68475167752
 20
8431.629990087884
 30
0.0
  0
ENDBLK
  5
B60A
330
B5FF
100
AcDbEntity
  8
0
 48
15.0
100
AcDbBlockEnd
  0
BLOCK
  5
B615
330
B60B
100
AcDbEntity
  8
0
 48
15.0
100
AcDbBlockBegin
  2
*D19
 70
     1
 10
0.0
 20
0.0
 30
0.0
  3
*D19
  1

  0
LINE
  5
B60C
330
B60B
100
AcDbEntity
  8
寸法引出
 48
15.0
370
    -2
100
AcDbLine
 10
6860.712134144797
 20
8456.629990087884
 30
0.0
 11
6860.712134144797
 21
8536.895361818416
 31
0.0
  0
LINE
  5
B60D
330
B60B
100
AcDbEntity
  8
寸法引出
 48
15.0
370
    -2
100
AcDbLine
 10
7160.712134144798
 20
8456.629990087884
 30
0.0
 11
7160.712134144798
 21
8536.895361818416
 31
0.0
  0
LINE
  5
B60E
330
B60B
100
AcDbEntity
  8
寸法引出
 48
15.0
370
    -2
100
AcDbLine
 10
6898.212134144798
 20
8524.395361818417
 30
0.0
 11
7123.212134144798
 21
8524.395361818417
 31
0.0
  0
SOLID
  5
B60F
330
B60B
100
AcDbEntity
  8
寸法引出
 48
15.0
100
AcDbTrace
 10
6898.212134144798
 20
8530.645361818416
 30
0.0
 11
6898.212134144798
 21
8518.145361818417
 31
0.0
 12
6860.712134144797
 22
8524.395361818417
 32
0.0
 13
6860.712134144797
 23
8524.395361818417
 33
0.0
  0
SOLID
  5
B610
330
B60B
100
AcDbEntity
  8
寸法引出
 48
15.0
100
AcDbTrace
 10
7123.212134144798
 20
8530.645361818416
 30
0.0
 11
7123.212134144798
 21
8518.145361818417
 31
0.0
 12
7160.712134144798
 22
8524.395361818417
 32
0.0
 13
7160.712134144798
 23
8524.395361818417
 33
0.0
  0
MTEXT
  5
B611
330
B60B
100
AcDbEntity
  8
寸法引出
 48
15.0
100
AcDbMText
 10
7010.712134144798
 20
8574.395361818416
 30
0.0
 40
50.0
 41
0.0
 71
     5
 72
     1
  1
\A1;300
  7
SANWA
 73
     1
 44
1.0
  0
POINT
  5
B612
330
B60B
100
AcDbEntity
  8
DEFPOINTS
 62
     0
 48
15.0
100
AcDbPoint
 10
6860.712134144797
 20
8431.629990087884
 30
0.0
  0
POINT
  5
B613
330
B60B
100
AcDbEntity
  8
DEFPOINTS
 62
     0
 48
15.0
100
AcDbPoint
 10
7160.712134144798
 20
8431.629990087884
 30
0.0
  0
POINT
  5
B614
330
B60B
100
AcDbEntity
  8
DEFPOINTS
 62
     0
 48
15.0
100
AcDbPoint
 10
7160.712134144798
 20
8524.395361818417
 30
0.0
  0
ENDBLK
  5
B616
330
B60B
100
AcDbEntity
  8
0
 48
15.0
100
AcDbBlockEnd
  0
BLOCK
  5
B621
330
B617
100
AcDbEntity
  8
0
 48
15.0
100
AcDbBlockBegin
  2
*D20
 70
     1
 10
0.0
 20
0.0
 30
0.0
  3
*D20
  1

  0
LINE
  5
B618
330
B617
100
AcDbEntity
  8
寸法引出
 48
15.0
370
    -2
100
AcDbLine
 10
6810.712134144798
 20
8456.629990087884
 30
0.0
 11
6810.712134144798
 21
8647.401181367939
 31
0.0
  0
LINE
  5
B619
330
B617
100
AcDbEntity
  8
寸法引出
 48
15.0
370
    -2
100
AcDbLine
 10
7210.712134144798
 20
8456.629990087884
 30
0.0
 11
7210.712134144798
 21
8647.401181367939
 31
0.0
  0
LINE
  5
B61A
330
B617
100
AcDbEntity
  8
寸法引出
 48
15.0
370
    -2
100
AcDbLine
 10
6848.212134144798
 20
8634.90118136794
 30
0.0
 11
7173.212134144797
 21
8634.90118136794
 31
0.0
  0
SOLID
  5
B61B
330
B617
100
AcDbEntity
  8
寸法引出
 48
15.0
100
AcDbTrace
 10
6848.212134144798
 20
8641.15118136794
 30
0.0
 11
6848.212134144798
 21
8628.65118136794
 31
0.0
 12
6810.712134144798
 22
8634.90118136794
 32
0.0
 13
6810.712134144798
 23
8634.90118136794
 33
0.0
  0
SOLID
  5
B61C
330
B617
100
AcDbEntity
  8
寸法引出
 48
15.0
100
AcDbTrace
 10
7173.212134144797
 20
8641.15118136794
 30
0.0
 11
7173.212134144797
 21
8628.65118136794
 31
0.0
 12
7210.712134144798
 22
8634.90118136794
 32
0.0
 13
7210.712134144798
 23
8634.90118136794
 33
0.0
  0
MTEXT
  5
B61D
330
B617
100
AcDbEntity
  8
寸法引出
 48
15.0
100
AcDbMText
 10
7010.712134144798
 20
8684.901181367939
 30
0.0
 40
50.0
 41
0.0
 71
     5
 72
     1
  1
\A1;400
  7
SANWA
 73
     1
 44
1.0
  0
POINT
  5
B61E
330
B617
100
AcDbEntity
  8
DEFPOINTS
 62
     0
 48
15.0
100
AcDbPoint
 10
6810.712134144798
 20
8431.629990087884
 30
0.0
  0
POINT
  5
B61F
330
B617
100
AcDbEntity
  8
DEFPOINTS
 62
     0
 48
15.0
100
AcDbPoint
 10
7210.712134144798
 20
8431.629990087884
 30
0.0
  0
POINT
  5
B620
330
B617
100
AcDbEntity
  8
DEFPOINTS
 62
     0
 48
15.0
100
AcDbPoint
 10
7210.712134144798
 20
8634.90118136794
 30
0.0
  0
ENDBLK
  5
B622
330
B617
100
AcDbEntity
  8
0
 48
15.0
100
AcDbBlockEnd
  0
BLOCK
  5
B62D
330
B623
100
AcDbEntity
  8
0
 48
15.0
100
AcDbBlockBegin
  2
*D21
 70
     1
 10
0.0
 20
0.0
 30
0.0
  3
*D21
  1

  0
LINE
  5
B624
330
B623
100
AcDbEntity
  8
寸法引出
 48
15.0
370
    -2
100
AcDbLine
 10
7185.712134144798
 20
7381.629990087882
 30
0.0
 11
7371.715787046937
 21
7381.629990087882
 31
0.0
  0
LINE
  5
B625
330
B623
100
AcDbEntity
  8
寸法引出
 48
15.0
370
    -2
100
AcDbLine
 10
7235.712134144797
 20
8431.629990087884
 30
0.0
 11
7371.715787046937
 21
8431.629990087884
 31
0.0
  0
LINE
  5
B626
330
B623
100
AcDbEntity
  8
寸法引出
 48
15.0
370
    -2
100
AcDbLine
 10
7359.215787046938
 20
7419.129990087881
 30
0.0
 11
7359.215787046938
 21
8394.129990087884
 31
0.0
  0
SOLID
  5
B627
330
B623
100
AcDbEntity
  8
寸法引出
 48
15.0
100
AcDbTrace
 10
7352.965787046938
 20
7419.129990087881
 30
0.0
 11
7365.465787046938
 21
7419.129990087881
 31
0.0
 12
7359.215787046938
 22
7381.629990087882
 32
0.0
 13
7359.215787046938
 23
7381.629990087882
 33
0.0
  0
SOLID
  5
B628
330
B623
100
AcDbEntity
  8
寸法引出
 48
15.0
100
AcDbTrace
 10
7352.965787046938
 20
8394.129990087884
 30
0.0
 11
7365.465787046938
 21
8394.129990087884
 31
0.0
 12
7359.215787046938
 22
8431.629990087884
 32
0.0
 13
7359.215787046938
 23
8431.629990087884
 33
0.0
  0
MTEXT
  5
B629
330
B623
100
AcDbEntity
  8
寸法引出
 48
15.0
100
AcDbMText
 10
7309.215787046937
 20
7906.629990087885
 30
0.0
 40
50.0
 41
0.0
 71
     5
 72
     1
  1
\A1;1050
  7
SANWA
 11
0.0000000000000001
 21
1.0
 31
0.0
 73
     1
 44
1.0
  0
POINT
  5
B62A
330
B623
100
AcDbEntity
  8
DEFPOINTS
 62
     0
 48
15.0
100
AcDbPoint
 10
7160.712134144798
 20
7381.629990087882
 30
0.0
  0
POINT
  5
B62B
330
B623
100
AcDbEntity
  8
DEFPOINTS
 62
     0
 48
15.0
100
AcDbPoint
 10
7210.712134144798
 20
8431.629990087884
 30
0.0
  0
POINT
  5
B62C
330
B623
100
AcDbEntity
  8
DEFPOINTS
 62
     0
 48
15.0
100
AcDbPoint
 10
7359.215787046938
 20
8431.629990087884
 30
0.0
  0
ENDBLK
  5
B62E
330
B623
100
AcDbEntity
  8
0
 48
15.0
100
AcDbBlockEnd
  0
BLOCK
  5
B645
330
B62F
100
AcDbEntity
  8
0
 48
25.0
100
AcDbBlockBegin
  2
A$C2A7F6572
 70
     0
 10
0.0
 20
0.0
 30
0.0
  3
A$C2A7F6572
  1

  0
DIMENSION
  5
B630
330
B62F
100
AcDbEntity
  8
寸法引出
 48
15.0
100
AcDbDimension
  2
*D20
 10
532.7046336285029
 20
1633.75853985067
 30
0.0
 11
332.7046336285029
 21
1683.75853985067
 31
0.0
 12
-6678.007500516294
 22
-7001.142641517268
 32
0.0
 71
     5
 42
400.0
  3
SANWA
100
AcDbAlignedDimension
 13
132.7046336285029
 23
1430.487348570615
 33
0.0
 14
532.7046336285029
 24
1430.487348570615
 34
0.0
100
AcDbRotatedDimension
1001
ACAD
1000
DSTYLE
1002
{
1070
    40
1040
25.0
1070
    41
1040
1.5
1070
    43
1040
5.0
1070
    44
1040
0.5
1070
   140
1040
2.0
1070
   147
1040
1.0
1070
   176
1070
   256
1070
   177
1070
   256
1070
   178
1070
   256
1002
}
  0
DIMENSION
  5
B631
330
B62F
100
AcDbEntity
  8
寸法引出
 48
15.0
100
AcDbDimension
  2
*D19
 10
482.7046336285029
 20
1523.252720301148
 30
0.0
 11
332.7046336285029
 21
1573.252720301148
 31
0.0
 12
-6678.007500516294
 22
-7001.142641517268
 32
0.0
 71
     5
 42
300.0
  3
SANWA
100
AcDbAlignedDimension
 13
182.7046336285029
 23
1430.487348570615
 33
0.0
 14
482.7046336285029
 24
1430.487348570615
 34
0.0
100
AcDbRotatedDimension
1001
ACAD
1000
DSTYLE
1002
{
1070
    40
1040
25.0
1070
    41
1040
1.5
1070
    43
1040
5.0
1070
    44
1040
0.5
1070
   140
1040
2.0
1070
   147
1040
1.0
1070
   176
1070
   256
1070
   177
1070
   256
1070
   178
1070
   256
1002
}
  0
MTEXT
  5
B632
330
B62F
100
AcDbEntity
  8
寸法引出
 48
15.0
100
AcDbMText
 10
382.0571102726644
 20
132.8144646556593
 30
0.0
 40
200.0
 41
0.0
 71
     5
 72
     1
  1
902kg
  7
SANWA
 73
     1
 44
1.0
  0
DIMENSION
  5
B633
330
B62F
100
AcDbEntity
  8
寸法引出
 48
15.0
100
AcDbDimension
  2
*D18
 10
390.6772511612262
 20
1430.487348570615
 30
0.0
 11
340.6772511612253
 21
980.4873485706165
 31
0.0
 12
-6678.007500516294
 22
-7001.142641517268
 32
0.0
 71
     5
 42
900.0000000000017
  3
SANWA
100
AcDbAlignedDimension
 13
270.2670946147545
 23
530.4873485706139
 33
0.0
 14
182.7046336285029
 24
1430.487348570615
 34
0.0
 50
90.0
100
AcDbRotatedDimension
1001
ACAD
1000
DSTYLE
1002
{
1070
    40
1040
25.0
1070
    41
1040
1.5
1070
    43
1040
5.0
1070
    44
1040
0.5
1070
   140
1040
2.0
1070
   147
1040
1.0
1070
   176
1070
   256
1070
   177
1070
   256
1070
   178
1070
   256
1002
}
  0
DIMENSION
  5
B634
330
B62F
100
AcDbEntity
  8
寸法引出
 48
15.0
100
AcDbDimension
  2
*D17
 10
313.9077813864905
 20
1430.487348570615
 30
0.0
 11
263.9077813864896
 21
1380.487348570617
 31
0.0
 12
-6678.007500516294
 22
-7001.142641517268
 32
0.0
 71
     5
 42
100.0
  3
SANWA
100
AcDbAlignedDimension
 13
182.7046336285029
 23
1330.487348570615
 33
0.0
 14
182.7046336285029
 24
1430.487348570615
 34
0.0
 50
90.0
100
AcDbRotatedDimension
1001
ACAD
1000
DSTYLE
1002
{
1070
   279
1070
     1
1070
    40
1040
25.0
1070
    41
1040
1.5
1070
    43
1040
5.0
1070
    44
1040
0.5
1070
   140
1040
2.0
1070
   147
1040
1.0
1070
   176
1070
   256
1070
   177
1070
   256
1070
   178
1070
   256
1002
}
  0
DIMENSION
  5
B635
330
B62F
100
AcDbEntity
  8
寸法引出
 48
15.0
100
AcDbDimension
  2
*D16
 10
313.9077813864905
 20
1330.487348570615
 30
0.0
 11
263.9077813864896
 21
930.4873485706165
 31
0.0
 12
-6678.007500516294
 22
-7001.142641517268
 32
0.0
 71
     5
 42
800.0000000000017
  3
SANWA
100
AcDbAlignedDimension
 13
270.2670946147554
 23
530.4873485706139
 33
0.0
 14
182.7046336285029
 24
1330.487348570615
 34
0.0
 50
90.0
100
AcDbRotatedDimension
1001
ACAD
1000
DSTYLE
1002
{
1070
    40
1040
25.0
1070
    41
1040
1.5
1070
    43
1040
5.0
1070
    44
1040
0.5
1070
   140
1040
2.0
1070
   147
1040
1.0
1070
   176
1070
   256
1070
   177
1070
   256
1070
   178
1070
   256
1002
}
  0
LINE
  5
B636
330
B62F
100
AcDbEntity
  8
0
 48
15.0
100
AcDbLine
 10
182.7046336285029
 20
1330.487348570615
 30
0.0
 11
220.3294776708626
 21
577.9904677234189
 31
0.0
  0
LINE
  5
B637
330
B62F
100
AcDbEntity
  8
0
 48
15.0
100
AcDbLine
 10
182.7046336285038
 20
380.4873485706139
 30
0.0
 11
482.7046336285039
 21
380.4873485706139
 31
0.0
  0
LINE
  5
B638
330
B62F
100
AcDbEntity
  8
0
 48
15.0
100
AcDbLine
 10
132.7046336285029
 20
1430.487348570615
 30
0.0
 11
132.7046336285029
 21
430.4873485706139
 31
0.0
  0
LINE
  5
B639
330
B62F
100
AcDbEntity
  8
0
 48
15.0
100
AcDbLine
 10
182.7046336285029
 20
380.4873485706139
 30
0.0
 11
132.7046336285029
 21
430.4873485706139
 31
0.0
  0
LINE
  5
B63A
330
B62F
100
AcDbEntity
  8
0
 48
15.0
100
AcDbLine
 10
182.7046336285029
 20
1330.487348570615
 30
0.0
 11
182.7046336285029
 21
1430.487348570615
 31
0.0
  0
LINE
  5
B63B
330
B62F
100
AcDbEntity
  8
0
 48
15.0
100
AcDbLine
 10
132.7046336285029
 20
1430.487348570615
 30
0.0
 11
182.7046336285029
 21
1430.487348570615
 31
0.0
  0
DIMENSION
  5
B63C
330
B62F
100
AcDbEntity
  8
寸法引出
 48
15.0
100
AcDbDimension
  2
*D21
 10
681.2082865306438
 20
1430.487348570615
 30
0.0
 11
631.2082865306429
 21
905.4873485706165
 31
0.0
 12
-6678.007500516294
 22
-7001.142641517268
 32
0.0
 71
     5
 42
1050.000000000001
  3
SANWA
100
AcDbAlignedDimension
 13
482.7046336285039
 23
380.4873485706139
 33
0.0
 14
532.7046336285029
 24
1430.487348570615
 34
0.0
 50
90.0
100
AcDbRotatedDimension
1001
ACAD
1000
DSTYLE
1002
{
1070
    40
1040
25.0
1070
    41
1040
1.5
1070
    43
1040
5.0
1070
    44
1040
0.5
1070
   140
1040
2.0
1070
   147
1040
1.0
1070
   176
1070
   256
1070
   177
1070
   256
1070
   178
1070
   256
1002
}
  0
LINE
  5
B63D
330
B62F
100
AcDbEntity
  8
0
 48
15.0
100
AcDbLine
 10
445.0797895861433
 20
577.9904677234172
 30
0.0
 11
482.7046336285029
 21
1330.487348570615
 31
0.0
  0
LINE
  5
B63E
330
B62F
100
AcDbEntity
  8
0
 48
15.0
100
AcDbLine
 10
532.7046336285029
 20
1430.487348570615
 30
0.0
 11
532.7046336285029
 21
430.4873485706139
 31
0.0
  0
LINE
  5
B63F
330
B62F
100
AcDbEntity
  8
0
 48
15.0
100
AcDbLine
 10
482.7046336285029
 20
380.4873485706139
 30
0.0
 11
532.7046336285029
 21
430.4873485706139
 31
0.0
  0
ARC
  5
B640
330
B62F
100
AcDbEntity
  8
0
 48
15.0
100
AcDbCircle
 10
395.1421726422504
 20
580.4873485706139
 30
0.0
 40
50.0
100
AcDbArc
 50
270.0
 51
357.1375947739012
  0
ARC
  5
B641
330
B62F
100
AcDbEntity
  8
0
 48
15.0
100
AcDbCircle
 10
270.2670946147554
 20
580.4873485706139
 30
0.0
 40
50.0
100
AcDbArc
 50
182.8624052260987
 51
270.0
  0
LINE
  5
B642
330
B62F
100
AcDbEntity
  8
0
 48
15.0
100
AcDbLine
 10
270.2670946147554
 20
530.4873485706139
 30
0.0
 11
395.1421726422504
 21
530.4873485706139
 31
0.0
  0
LINE
  5
B643
330
B62F
100
AcDbEntity
  8
0
 48
15.0
100
AcDbLine
 10
482.7046336285029
 20
1430.487348570615
 30
0.0
 11
532.7046336285029
 21
1430.487348570615
 31
0.0
  0
LINE
  5
B644
330
B62F
100
AcDbEntity
  8
0
 48
15.0
100
AcDbLine
 10
482.7046336285029
 20
1330.487348570615
 30
0.0
 11
482.7046336285029
 21
1430.487348570615
 31
0.0
  0
ENDBLK
  5
B646
330
B62F
100
AcDbEntity
  8
0
 48
25.0
100
AcDbBlockEnd
  0
BLOCK
  5
B761
330
B755
100
AcDbEntity
  8
0
 48
25.0
100
AcDbBlockBegin
  2
*D23
 70
     1
 10
0.0
 20
0.0
 30
0.0
  3
*D23
  1

  0
LINE
  5
BA6B
330
B755
100
AcDbEntity
  8
寸法引出
 48
25.0
370
    -2
100
AcDbLine
 10
3151.732136260601
 20
3410.075433033269
 30
0.0
 11
3151.732136260601
 21
3548.760908641621
 31
0.0
  0
LINE
  5
BA6C
330
B755
100
AcDbEntity
  8
寸法引出
 48
25.0
370
    -2
100
AcDbLine
 10
3201.732136260601
 20
3410.075433033269
 30
0.0
 11
3201.732136260601
 21
3548.760908641621
 31
0.0
  0
LINE
  5
BA6D
330
B755
100
AcDbEntity
  8
寸法引出
 48
25.0
370
    -2
100
AcDbLine
 10
3114.2321362606
 20
3536.260908641621
 30
0.0
 11
3076.7321362606
 21
3536.260908641621
 31
0.0
  0
LINE
  5
BA6E
330
B755
100
AcDbEntity
  8
寸法引出
 48
25.0
370
    -2
100
AcDbLine
 10
3239.232136260601
 20
3536.260908641621
 30
0.0
 11
3276.732136260601
 21
3536.260908641621
 31
0.0
  0
LINE
  5
BA6F
330
B755
100
AcDbEntity
  8
寸法引出
 48
25.0
370
    -2
100
AcDbLine
 10
3151.732136260601
 20
3536.260908641621
 30
0.0
 11
3201.732136260601
 21
3536.260908641621
 31
0.0
  0
SOLID
  5
BA70
330
B755
100
AcDbEntity
  8
寸法引出
 48
25.0
100
AcDbTrace
 10
3114.2321362606
 20
3542.510908641621
 30
0.0
 11
3114.2321362606
 21
3530.010908641621
 31
0.0
 12
3151.732136260601
 22
3536.260908641621
 32
0.0
 13
3151.732136260601
 23
3536.260908641621
 33
0.0
  0
SOLID
  5
BA71
330
B755
100
AcDbEntity
  8
寸法引出
 48
25.0
100
AcDbTrace
 10
3239.232136260601
 20
3542.510908641621
 30
0.0
 11
3239.232136260601
 21
3530.010908641621
 31
0.0
 12
3201.732136260601
 22
3536.260908641621
 32
0.0
 13
3201.732136260601
 23
3536.260908641621
 33
0.0
  0
MTEXT
  5
BA72
330
B755
100
AcDbEntity
  8
寸法引出
 48
25.0
100
AcDbMText
 10
3176.7321362606
 20
3586.260908641621
 30
0.0
 40
50.0
 41
0.0
 71
     5
 72
     1
  1
\A1;50
  7
SANWA
 73
     1
 44
1.0
  0
POINT
  5
BA73
330
B755
100
AcDbEntity
  8
DEFPOINTS
 62
     0
 48
25.0
100
AcDbPoint
 10
3151.732136260601
 20
3385.075433033269
 30
0.0
  0
POINT
  5
BA74
330
B755
100
AcDbEntity
  8
DEFPOINTS
 62
     0
 48
25.0
100
AcDbPoint
 10
3201.732136260601
 20
3385.075433033269
 30
0.0
  0
POINT
  5
BA75
330
B755
100
AcDbEntity
  8
DEFPOINTS
 62
     0
 48
25.0
100
AcDbPoint
 10
3201.732136260601
 20
3536.260908641621
 30
0.0
  0
ENDBLK
  5
B762
330
B755
100
AcDbEntity
  8
0
 48
25.0
100
AcDbBlockEnd
  0
BLOCK
  5
B76E
330
B764
100
AcDbEntity
  8
0
 48
25.0
100
AcDbBlockBegin
  2
*D24
 70
     1
 10
0.0
 20
0.0
 30
0.0
  3
*D24
  1

  0
LINE
  5
BA59
330
B764
100
AcDbEntity
  8
寸法引出
 48
25.0
370
    -2
100
AcDbLine
 10
3201.732136260601
 20
3410.075433033269
 30
0.0
 11
3201.732136260601
 21
3548.760908641621
 31
0.0
  0
LINE
  5
BA5A
330
B764
100
AcDbEntity
  8
寸法引出
 48
25.0
370
    -2
100
AcDbLine
 10
3501.732136260601
 20
3410.075433033269
 30
0.0
 11
3501.732136260601
 21
3548.760908641621
 31
0.0
  0
LINE
  5
BA5B
330
B764
100
AcDbEntity
  8
寸法引出
 48
25.0
370
    -2
100
AcDbLine
 10
3239.232136260601
 20
3536.260908641621
 30
0.0
 11
3464.232136260601
 21
3536.260908641621
 31
0.0
  0
SOLID
  5
BA5C
330
B764
100
AcDbEntity
  8
寸法引出
 48
25.0
100
AcDbTrace
 10
3239.232136260601
 20
3542.510908641621
 30
0.0
 11
3239.232136260601
 21
3530.010908641621
 31
0.0
 12
3201.732136260601
 22
3536.260908641621
 32
0.0
 13
3201.732136260601
 23
3536.260908641621
 33
0.0
  0
SOLID
  5
BA5D
330
B764
100
AcDbEntity
  8
寸法引出
 48
25.0
100
AcDbTrace
 10
3464.232136260601
 20
3542.510908641621
 30
0.0
 11
3464.232136260601
 21
3530.010908641621
 31
0.0
 12
3501.732136260601
 22
3536.260908641621
 32
0.0
 13
3501.732136260601
 23
3536.260908641621
 33
0.0
  0
MTEXT
  5
BA5E
330
B764
100
AcDbEntity
  8
寸法引出
 48
25.0
100
AcDbMText
 10
3351.732136260601
 20
3586.260908641621
 30
0.0
 40
50.0
 41
0.0
 71
     5
 72
     1
  1
\A1;300
  7
SANWA
 73
     1
 44
1.0
  0
POINT
  5
BA5F
330
B764
100
AcDbEntity
  8
DEFPOINTS
 62
     0
 48
25.0
100
AcDbPoint
 10
3201.732136260601
 20
3385.075433033269
 30
0.0
  0
POINT
  5
BA60
330
B764
100
AcDbEntity
  8
DEFPOINTS
 62
     0
 48
25.0
100
AcDbPoint
 10
3501.732136260601
 20
3385.075433033269
 30
0.0
  0
POINT
  5
BA61
330
B764
100
AcDbEntity
  8
DEFPOINTS
 62
     0
 48
25.0
100
AcDbPoint
 10
3501.732136260601
 20
3536.260908641621
 30
0.0
  0
ENDBLK
  5
B76F
330
B764
100
AcDbEntity
  8
0
 48
25.0
100
AcDbBlockEnd
  0
BLOCK
  5
B77D
330
B771
100
AcDbEntity
  8
0
 48
25.0
100
AcDbBlockBegin
  2
*D25
 70
     1
 10
0.0
 20
0.0
 30
0.0
  3
*D25
  1

  0
LINE
  5
BA4E
330
B771
100
AcDbEntity
  8
寸法引出
 48
25.0
370
    -2
100
AcDbLine
 10
3501.732136260601
 20
3410.075433033269
 30
0.0
 11
3501.732136260601
 21
3548.760908641621
 31
0.0
  0
LINE
  5
BA4F
330
B771
100
AcDbEntity
  8
寸法引出
 48
25.0
370
    -2
100
AcDbLine
 10
3551.732136260601
 20
3410.075433033269
 30
0.0
 11
3551.732136260601
 21
3548.760908641621
 31
0.0
  0
LINE
  5
BA50
330
B771
100
AcDbEntity
  8
寸法引出
 48
25.0
370
    -2
100
AcDbLine
 10
3464.232136260601
 20
3536.260908641621
 30
0.0
 11
3426.732136260601
 21
3536.260908641621
 31
0.0
  0
LINE
  5
BA51
330
B771
100
AcDbEntity
  8
寸法引出
 48
25.0
370
    -2
100
AcDbLine
 10
3589.232136260601
 20
3536.260908641621
 30
0.0
 11
3626.732136260601
 21
3536.260908641621
 31
0.0
  0
LINE
  5
BA52
330
B771
100
AcDbEntity
  8
寸法引出
 48
25.0
370
    -2
100
AcDbLine
 10
3501.732136260601
 20
3536.260908641621
 30
0.0
 11
3551.732136260601
 21
3536.260908641621
 31
0.0
  0
SOLID
  5
BA53
330
B771
100
AcDbEntity
  8
寸法引出
 48
25.0
100
AcDbTrace
 10
3464.232136260601
 20
3542.510908641621
 30
0.0
 11
3464.232136260601
 21
3530.010908641621
 31
0.0
 12
3501.732136260601
 22
3536.260908641621
 32
0.0
 13
3501.732136260601
 23
3536.260908641621
 33
0.0
  0
SOLID
  5
BA54
330
B771
100
AcDbEntity
  8
寸法引出
 48
25.0
100
AcDbTrace
 10
3589.232136260601
 20
3542.510908641621
 30
0.0
 11
3589.232136260601
 21
3530.010908641621
 31
0.0
 12
3551.732136260601
 22
3536.260908641621
 32
0.0
 13
3551.732136260601
 23
3536.260908641621
 33
0.0
  0
MTEXT
  5
BA55
330
B771
100
AcDbEntity
  8
寸法引出
 48
25.0
100
AcDbMText
 10
3526.732136260601
 20
3586.260908641621
 30
0.0
 40
50.0
 41
0.0
 71
     5
 72
     1
  1
\A1;50
  7
SANWA
 73
     1
 44
1.0
  0
POINT
  5
BA56
330
B771
100
AcDbEntity
  8
DEFPOINTS
 62
     0
 48
25.0
100
AcDbPoint
 10
3501.732136260601
 20
3385.075433033269
 30
0.0
  0
POINT
  5
BA57
330
B771
100
AcDbEntity
  8
DEFPOINTS
 62
     0
 48
25.0
100
AcDbPoint
 10
3551.732136260601
 20
3385.075433033269
 30
0.0
  0
POINT
  5
BA58
330
B771
100
AcDbEntity
  8
DEFPOINTS
 62
     0
 48
25.0
100
AcDbPoint
 10
3551.732136260601
 20
3536.260908641621
 30
0.0
  0
ENDBLK
  5
B77E
330
B771
100
AcDbEntity
  8
0
 48
25.0
100
AcDbBlockEnd
  0
BLOCK
  5
B78A
330
B780
100
AcDbEntity
  8
0
 48
25.0
100
AcDbBlockBegin
  2
*D26
 70
     1
 10
0.0
 20
0.0
 30
0.0
  3
*D26
  1

  0
LINE
  5
BA62
330
B780
100
AcDbEntity
  8
寸法引出
 48
25.0
370
    -2
100
AcDbLine
 10
3151.732136260601
 20
3410.075433033269
 30
0.0
 11
3151.732136260601
 21
3679.322907439602
 31
0.0
  0
LINE
  5
BA63
330
B780
100
AcDbEntity
  8
寸法引出
 48
25.0
370
    -2
100
AcDbLine
 10
3551.732136260601
 20
3410.075433033269
 30
0.0
 11
3551.732136260601
 21
3679.322907439602
 31
0.0
  0
LINE
  5
BA64
330
B780
100
AcDbEntity
  8
寸法引出
 48
25.0
370
    -2
100
AcDbLine
 10
3189.232136260601
 20
3666.822907439602
 30
0.0
 11
3514.232136260601
 21
3666.822907439602
 31
0.0
  0
SOLID
  5
BA65
330
B780
100
AcDbEntity
  8
寸法引出
 48
25.0
100
AcDbTrace
 10
3189.232136260601
 20
3673.072907439602
 30
0.0
 11
3189.232136260601
 21
3660.572907439602
 31
0.0
 12
3151.732136260601
 22
3666.822907439602
 32
0.0
 13
3151.732136260601
 23
3666.822907439602
 33
0.0
  0
SOLID
  5
BA66
330
B780
100
AcDbEntity
  8
寸法引出
 48
25.0
100
AcDbTrace
 10
3514.232136260601
 20
3673.072907439602
 30
0.0
 11
3514.232136260601
 21
3660.572907439602
 31
0.0
 12
3551.732136260601
 22
3666.822907439602
 32
0.0
 13
3551.732136260601
 23
3666.822907439602
 33
0.0
  0
MTEXT
  5
BA67
330
B780
100
AcDbEntity
  8
寸法引出
 48
25.0
100
AcDbMText
 10
3351.732136260601
 20
3716.822907439602
 30
0.0
 40
50.0
 41
0.0
 71
     5
 72
     1
  1
\A1;400
  7
SANWA
 73
     1
 44
1.0
  0
POINT
  5
BA68
330
B780
100
AcDbEntity
  8
DEFPOINTS
 62
     0
 48
25.0
100
AcDbPoint
 10
3151.732136260601
 20
3385.075433033269
 30
0.0
  0
POINT
  5
BA69
330
B780
100
AcDbEntity
  8
DEFPOINTS
 62
     0
 48
25.0
100
AcDbPoint
 10
3551.732136260601
 20
3385.075433033269
 30
0.0
  0
POINT
  5
BA6A
330
B780
100
AcDbEntity
  8
DEFPOINTS
 62
     0
 48
25.0
100
AcDbPoint
 10
3551.732136260601
 20
3666.822907439602
 30
0.0
  0
ENDBLK
  5
B78B
330
B780
100
AcDbEntity
  8
0
 48
25.0
100
AcDbBlockEnd
  0
BLOCK
  5
B7A4
330
B79A
100
AcDbEntity
  8
0
 48
25.0
100
AcDbBlockBegin
  2
*D27
 70
     1
 10
0.0
 20
0.0
 30
0.0
  3
*D27
  1

  0
LINE
  5
BA88
330
B79A
100
AcDbEntity
  8
寸法引出
 48
25.0
370
    -2
100
AcDbLine
 10
3126.732136260601
 20
3385.075433033269
 30
0.0
 11
3004.23715789152
 21
3385.07543303327
 31
0.0
  0
LINE
  5
BA89
330
B79A
100
AcDbEntity
  8
寸法引出
 48
25.0
370
    -2
100
AcDbLine
 10
3126.732136260601
 20
3235.075433033269
 30
0.0
 11
3004.23715789152
 21
3235.075433033269
 31
0.0
  0
LINE
  5
BA8A
330
B79A
100
AcDbEntity
  8
寸法引出
 48
25.0
370
    -2
100
AcDbLine
 10
3016.73715789152
 20
3347.57543303327
 30
0.0
 11
3016.73715789152
 21
3272.575433033269
 31
0.0
  0
SOLID
  5
BA8B
330
B79A
100
AcDbEntity
  8
寸法引出
 48
25.0
100
AcDbTrace
 10
3010.48715789152
 20
3347.57543303327
 30
0.0
 11
3022.98715789152
 21
3347.57543303327
 31
0.0
 12
3016.73715789152
 22
3385.07543303327
 32
0.0
 13
3016.73715789152
 23
3385.07543303327
 33
0.0
  0
SOLID
  5
BA8C
330
B79A
100
AcDbEntity
  8
寸法引出
 48
25.0
100
AcDbTrace
 10
3010.48715789152
 20
3272.575433033269
 30
0.0
 11
3022.98715789152
 21
3272.575433033269
 31
0.0
 12
3016.73715789152
 22
3235.075433033269
 32
0.0
 13
3016.73715789152
 23
3235.075433033269
 33
0.0
  0
MTEXT
  5
BA8D
330
B79A
100
AcDbEntity
  8
寸法引出
 48
25.0
100
AcDbMText
 10
2966.737157891519
 20
3310.07543303327
 30
0.0
 40
50.0
 41
0.0
 71
     5
 72
     1
  1
\A1;150
  7
SANWA
 11
0.0000000000000001
 21
1.0
 31
0.0
 73
     1
 44
1.0
  0
POINT
  5
BA8E
330
B79A
100
AcDbEntity
  8
DEFPOINTS
 62
     0
 48
25.0
100
AcDbPoint
 10
3151.732136260601
 20
3385.075433033269
 30
0.0
  0
POINT
  5
BA8F
330
B79A
100
AcDbEntity
  8
DEFPOINTS
 62
     0
 48
25.0
100
AcDbPoint
 10
3151.732136260601
 20
3235.075433033269
 30
0.0
  0
POINT
  5
BA90
330
B79A
100
AcDbEntity
  8
DEFPOINTS
 62
     0
 48
25.0
100
AcDbPoint
 10
3016.73715789152
 20
3235.075433033269
 30
0.0
  0
ENDBLK
  5
B7A5
330
B79A
100
AcDbEntity
  8
0
 48
25.0
100
AcDbBlockEnd
  0
BLOCK
  5
B7BB
330
B7B1
100
AcDbEntity
  8
0
 48
25.0
100
AcDbBlockBegin
  2
*D28
 70
     1
 10
0.0
 20
0.0
 30
0.0
  3
*D28
  1

  0
LINE
  5
BA45
330
B7B1
100
AcDbEntity
  8
寸法引出
 48
25.0
370
    -2
100
AcDbLine
 10
3576.732136260601
 20
3385.075433033269
 30
0.0
 11
3695.97500750274
 21
3385.075433033269
 31
0.0
  0
LINE
  5
BA46
330
B7B1
100
AcDbEntity
  8
寸法引出
 48
25.0
370
    -2
100
AcDbLine
 10
3576.732136260601
 20
2385.075433033267
 30
0.0
 11
3695.97500750274
 21
2385.075433033267
 31
0.0
  0
LINE
  5
BA47
330
B7B1
100
AcDbEntity
  8
寸法引出
 48
25.0
370
    -2
100
AcDbLine
 10
3683.475007502741
 20
3347.575433033269
 30
0.0
 11
3683.475007502741
 21
2422.575433033267
 31
0.0
  0
SOLID
  5
BA48
330
B7B1
100
AcDbEntity
  8
寸法引出
 48
25.0
100
AcDbTrace
 10
3677.225007502741
 20
3347.575433033269
 30
0.0
 11
3689.72500750274
 21
3347.575433033269
 31
0.0
 12
3683.475007502741
 22
3385.075433033269
 32
0.0
 13
3683.475007502741
 23
3385.075433033269
 33
0.0
  0
SOLID
  5
BA49
330
B7B1
100
AcDbEntity
  8
寸法引出
 48
25.0
100
AcDbTrace
 10
3677.225007502741
 20
2422.575433033267
 30
0.0
 11
3689.72500750274
 21
2422.575433033267
 31
0.0
 12
3683.475007502741
 22
2385.075433033267
 32
0.0
 13
3683.475007502741
 23
2385.075433033267
 33
0.0
  0
MTEXT
  5
BA4A
330
B7B1
100
AcDbEntity
  8
寸法引出
 48
25.0
100
AcDbMText
 10
3633.47500750274
 20
2885.075433033268
 30
0.0
 40
50.0
 41
0.0
 71
     5
 72
     1
  1
\A1;1000
  7
SANWA
 11
0.0000000000000001
 21
1.0
 31
0.0
 73
     1
 44
1.0
  0
POINT
  5
BA4B
330
B7B1
100
AcDbEntity
  8
DEFPOINTS
 62
     0
 48
25.0
100
AcDbPoint
 10
3551.732136260601
 20
3385.075433033269
 30
0.0
  0
POINT
  5
BA4C
330
B7B1
100
AcDbEntity
  8
DEFPOINTS
 62
     0
 48
25.0
100
AcDbPoint
 10
3551.732136260601
 20
2385.075433033267
 30
0.0
  0
POINT
  5
BA4D
330
B7B1
100
AcDbEntity
  8
DEFPOINTS
 62
     0
 48
25.0
100
AcDbPoint
 10
3683.475007502741
 20
2385.075433033267
 30
0.0
  0
ENDBLK
  5
B7BC
330
B7B1
100
AcDbEntity
  8
0
 48
25.0
100
AcDbBlockEnd
  0
BLOCK
  5
B7C8
330
B7BE
100
AcDbEntity
  8
0
 48
25.0
100
AcDbBlockBegin
  2
*D29
 70
     1
 10
0.0
 20
0.0
 30
0.0
  3
*D29
  1

  0
LINE
  5
B9B5
330
B7BE
100
AcDbEntity
  8
寸法引出
 48
25.0
370
    -2
100
AcDbLine
 10
3576.732136260601
 20
2385.075433033267
 30
0.0
 11
3695.97500750274
 21
2385.075433033267
 31
0.0
  0
LINE
  5
B9B6
330
B7BE
100
AcDbEntity
  8
寸法引出
 48
25.0
370
    -2
100
AcDbLine
 10
3526.732136260601
 20
2235.075433033267
 30
0.0
 11
3695.97500750274
 21
2235.075433033267
 31
0.0
  0
LINE
  5
B9B7
330
B7BE
100
AcDbEntity
  8
寸法引出
 48
25.0
370
    -2
100
AcDbLine
 10
3683.475007502741
 20
2347.575433033266
 30
0.0
 11
3683.475007502741
 21
2272.575433033267
 31
0.0
  0
SOLID
  5
B9B8
330
B7BE
100
AcDbEntity
  8
寸法引出
 48
25.0
100
AcDbTrace
 10
3677.225007502741
 20
2347.575433033266
 30
0.0
 11
3689.72500750274
 21
2347.575433033266
 31
0.0
 12
3683.475007502741
 22
2385.075433033267
 32
0.0
 13
3683.475007502741
 23
2385.075433033267
 33
0.0
  0
SOLID
  5
B9B9
330
B7BE
100
AcDbEntity
  8
寸法引出
 48
25.0
100
AcDbTrace
 10
3677.225007502741
 20
2272.575433033267
 30
0.0
 11
3689.72500750274
 21
2272.575433033267
 31
0.0
 12
3683.475007502741
 22
2235.075433033267
 32
0.0
 13
3683.475007502741
 23
2235.075433033267
 33
0.0
  0
MTEXT
  5
B9BA
330
B7BE
100
AcDbEntity
  8
寸法引出
 48
25.0
100
AcDbMText
 10
3633.47500750274
 20
2310.075433033268
 30
0.0
 40
50.0
 41
0.0
 71
     5
 72
     1
  1
\A1;150
  7
SANWA
 11
0.0000000000000001
 21
1.0
 31
0.0
 73
     1
 44
1.0
  0
POINT
  5
B9BB
330
B7BE
100
AcDbEntity
  8
DEFPOINTS
 62
     0
 48
25.0
100
AcDbPoint
 10
3551.732136260601
 20
2385.075433033267
 30
0.0
  0
POINT
  5
B9BC
330
B7BE
100
AcDbEntity
  8
DEFPOINTS
 62
     0
 48
25.0
100
AcDbPoint
 10
3501.732136260601
 20
2235.075433033267
 30
0.0
  0
POINT
  5
B9BD
330
B7BE
100
AcDbEntity
  8
DEFPOINTS
 62
     0
 48
25.0
100
AcDbPoint
 10
3683.475007502741
 20
2235.075433033267
 30
0.0
  0
ENDBLK
  5
B7C9
330
B7BE
100
AcDbEntity
  8
0
 48
25.0
100
AcDbBlockEnd
  0
BLOCK
  5
B7D5
330
B7CB
100
AcDbEntity
  8
0
 48
25.0
100
AcDbBlockBegin
  2
*D30
 70
     1
 10
0.0
 20
0.0
 30
0.0
  3
*D30
  1

  0
LINE
  5
BA3C
330
B7CB
100
AcDbEntity
  8
寸法引出
 48
25.0
370
    -2
100
AcDbLine
 10
3576.732136260601
 20
3385.075433033269
 30
0.0
 11
3803.944408164593
 21
3385.075433033269
 31
0.0
  0
LINE
  5
BA3D
330
B7CB
100
AcDbEntity
  8
寸法引出
 48
25.0
370
    -2
100
AcDbLine
 10
3526.732136260601
 20
2235.075433033267
 30
0.0
 11
3803.944408164592
 21
2235.075433033267
 31
0.0
  0
LINE
  5
BA3E
330
B7CB
100
AcDbEntity
  8
寸法引出
 48
25.0
370
    -2
100
AcDbLine
 10
3791.444408164593
 20
3347.575433033269
 30
0.0
 11
3791.444408164592
 21
2272.575433033267
 31
0.0
  0
SOLID
  5
BA3F
330
B7CB
100
AcDbEntity
  8
寸法引出
 48
25.0
100
AcDbTrace
 10
3785.194408164593
 20
3347.575433033269
 30
0.0
 11
3797.694408164593
 21
3347.575433033269
 31
0.0
 12
3791.444408164593
 22
3385.075433033269
 32
0.0
 13
3791.444408164593
 23
3385.075433033269
 33
0.0
  0
SOLID
  5
BA40
330
B7CB
100
AcDbEntity
  8
寸法引出
 48
25.0
100
AcDbTrace
 10
3785.194408164592
 20
2272.575433033267
 30
0.0
 11
3797.694408164592
 21
2272.575433033267
 31
0.0
 12
3791.444408164592
 22
2235.075433033267
 32
0.0
 13
3791.444408164592
 23
2235.075433033267
 33
0.0
  0
MTEXT
  5
BA41
330
B7CB
100
AcDbEntity
  8
寸法引出
 48
25.0
100
AcDbMText
 10
3741.444408164591
 20
2810.075433033268
 30
0.0
 40
50.0
 41
0.0
 71
     5
 72
     1
  1
\A1;1150
  7
SANWA
 11
0.0000000000000001
 21
1.0
 31
0.0
 73
     1
 44
1.0
  0
POINT
  5
BA42
330
B7CB
100
AcDbEntity
  8
DEFPOINTS
 62
     0
 48
25.0
100
AcDbPoint
 10
3551.732136260601
 20
3385.075433033269
 30
0.0
  0
POINT
  5
BA43
330
B7CB
100
AcDbEntity
  8
DEFPOINTS
 62
     0
 48
25.0
100
AcDbPoint
 10
3501.732136260601
 20
2235.075433033267
 30
0.0
  0
POINT
  5
BA44
330
B7CB
100
AcDbEntity
  8
DEFPOINTS
 62
     0
 48
25.0
100
AcDbPoint
 10
3791.444408164592
 20
2235.075433033267
 30
0.0
  0
ENDBLK
  5
B7D6
330
B7CB
100
AcDbEntity
  8
0
 48
25.0
100
AcDbBlockEnd
  0
BLOCK
  5
B7F4
330
B7E8
100
AcDbEntity
  8
0
 48
25.0
100
AcDbBlockBegin
  2
*D31
 70
     1
 10
0.0
 20
0.0
 30
0.0
  3
*D31
  1

  0
LINE
  5
B996
330
B7E8
100
AcDbEntity
  8
寸法引出
 48
25.0
370
    -2
100
AcDbLine
 10
3151.732136260601
 20
2260.075433033267
 30
0.0
 11
3151.732136260601
 21
2045.263505931719
 31
0.0
  0
LINE
  5
B997
330
B7E8
100
AcDbEntity
  8
寸法引出
 48
25.0
370
    -2
100
AcDbLine
 10
3241.732136260601
 20
2210.075433033267
 30
0.0
 11
3241.732136260601
 21
2045.263505931719
 31
0.0
  0
LINE
  5
B998
330
B7E8
100
AcDbEntity
  8
寸法引出
 48
25.0
370
    -2
100
AcDbLine
 10
3114.2321362606
 20
2057.76350593172
 30
0.0
 11
3076.7321362606
 21
2057.76350593172
 31
0.0
  0
LINE
  5
B999
330
B7E8
100
AcDbEntity
  8
寸法引出
 48
25.0
370
    -2
100
AcDbLine
 10
3279.232136260601
 20
2057.76350593172
 30
0.0
 11
3316.732136260601
 21
2057.76350593172
 31
0.0
  0
LINE
  5
B99A
330
B7E8
100
AcDbEntity
  8
寸法引出
 48
25.0
370
    -2
100
AcDbLine
 10
3151.732136260601
 20
2057.76350593172
 30
0.0
 11
3241.732136260601
 21
2057.76350593172
 31
0.0
  0
SOLID
  5
B99B
330
B7E8
100
AcDbEntity
  8
寸法引出
 48
25.0
100
AcDbTrace
 10
3114.2321362606
 20
2064.01350593172
 30
0.0
 11
3114.2321362606
 21
2051.513505931719
 31
0.0
 12
3151.732136260601
 22
2057.76350593172
 32
0.0
 13
3151.732136260601
 23
2057.76350593172
 33
0.0
  0
SOLID
  5
B99C
330
B7E8
100
AcDbEntity
  8
寸法引出
 48
25.0
100
AcDbTrace
 10
3279.232136260601
 20
2064.01350593172
 30
0.0
 11
3279.232136260601
 21
2051.513505931719
 31
0.0
 12
3241.732136260601
 22
2057.76350593172
 32
0.0
 13
3241.732136260601
 23
2057.76350593172
 33
0.0
  0
MTEXT
  5
B99D
330
B7E8
100
AcDbEntity
  8
寸法引出
 48
25.0
100
AcDbMText
 10
3196.7321362606
 20
2107.763505931719
 30
0.0
 40
50.0
 41
0.0
 71
     5
 72
     1
  1
\A1;90
  7
SANWA
 73
     1
 44
1.0
  0
POINT
  5
B99E
330
B7E8
100
AcDbEntity
  8
DEFPOINTS
 62
     0
 48
25.0
100
AcDbPoint
 10
3151.732136260601
 20
2285.075433033266
 30
0.0
  0
POINT
  5
B99F
330
B7E8
100
AcDbEntity
  8
DEFPOINTS
 62
     0
 48
25.0
100
AcDbPoint
 10
3241.732136260601
 20
2235.075433033267
 30
0.0
  0
POINT
  5
B9A0
330
B7E8
100
AcDbEntity
  8
DEFPOINTS
 62
     0
 48
25.0
100
AcDbPoint
 10
3241.732136260601
 20
2057.76350593172
 30
0.0
  0
ENDBLK
  5
B7F5
330
B7E8
100
AcDbEntity
  8
0
 48
25.0
100
AcDbBlockEnd
  0
BLOCK
  5
B801
330
B7F7
100
AcDbEntity
  8
0
 48
25.0
100
AcDbBlockBegin
  2
*D32
 70
     1
 10
0.0
 20
0.0
 30
0.0
  3
*D32
  1

  0
LINE
  5
B9A1
330
B7F7
100
AcDbEntity
  8
寸法引出
 48
25.0
370
    -2
100
AcDbLine
 10
3241.732136260601
 20
2210.075433033267
 30
0.0
 11
3241.732136260601
 21
2045.263505931719
 31
0.0
  0
LINE
  5
B9A2
330
B7F7
100
AcDbEntity
  8
寸法引出
 48
25.0
370
    -2
100
AcDbLine
 10
3461.7321362606
 20
2210.075433033267
 30
0.0
 11
3461.7321362606
 21
2045.263505931719
 31
0.0
  0
LINE
  5
B9A3
330
B7F7
100
AcDbEntity
  8
寸法引出
 48
25.0
370
    -2
100
AcDbLine
 10
3279.232136260601
 20
2057.76350593172
 30
0.0
 11
3424.2321362606
 21
2057.76350593172
 31
0.0
  0
SOLID
  5
B9A4
330
B7F7
100
AcDbEntity
  8
寸法引出
 48
25.0
100
AcDbTrace
 10
3279.232136260601
 20
2064.01350593172
 30
0.0
 11
3279.232136260601
 21
2051.513505931719
 31
0.0
 12
3241.732136260601
 22
2057.76350593172
 32
0.0
 13
3241.732136260601
 23
2057.76350593172
 33
0.0
  0
SOLID
  5
B9A5
330
B7F7
100
AcDbEntity
  8
寸法引出
 48
25.0
100
AcDbTrace
 10
3424.2321362606
 20
2064.01350593172
 30
0.0
 11
3424.2321362606
 21
2051.513505931719
 31
0.0
 12
3461.7321362606
 22
2057.76350593172
 32
0.0
 13
3461.7321362606
 23
2057.76350593172
 33
0.0
  0
MTEXT
  5
B9A6
330
B7F7
100
AcDbEntity
  8
寸法引出
 48
25.0
100
AcDbMText
 10
3351.732136260601
 20
2107.763505931719
 30
0.0
 40
50.0
 41
0.0
 71
     5
 72
     1
  1
\A1;220
  7
SANWA
 73
     1
 44
1.0
  0
POINT
  5
B9A7
330
B7F7
100
AcDbEntity
  8
DEFPOINTS
 62
     0
 48
25.0
100
AcDbPoint
 10
3241.732136260601
 20
2235.075433033267
 30
0.0
  0
POINT
  5
B9A8
330
B7F7
100
AcDbEntity
  8
DEFPOINTS
 62
     0
 48
25.0
100
AcDbPoint
 10
3461.7321362606
 20
2235.075433033267
 30
0.0
  0
POINT
  5
B9A9
330
B7F7
100
AcDbEntity
  8
DEFPOINTS
 62
     0
 48
25.0
100
AcDbPoint
 10
3461.7321362606
 20
2057.76350593172
 30
0.0
  0
ENDBLK
  5
B802
330
B7F7
100
AcDbEntity
  8
0
 48
25.0
100
AcDbBlockEnd
  0
BLOCK
  5
B810
330
B804
100
AcDbEntity
  8
0
 48
25.0
100
AcDbBlockBegin
  2
*D33
 70
     1
 10
0.0
 20
0.0
 30
0.0
  3
*D33
  1

  0
LINE
  5
B9AA
330
B804
100
AcDbEntity
  8
寸法引出
 48
25.0
370
    -2
100
AcDbLine
 10
3461.7321362606
 20
2210.075433033267
 30
0.0
 11
3461.7321362606
 21
2045.263505931719
 31
0.0
  0
LINE
  5
B9AB
330
B804
100
AcDbEntity
  8
寸法引出
 48
25.0
370
    -2
100
AcDbLine
 10
3551.732136260601
 20
2260.075433033267
 30
0.0
 11
3551.732136260601
 21
2045.263505931719
 31
0.0
  0
LINE
  5
B9AC
330
B804
100
AcDbEntity
  8
寸法引出
 48
25.0
370
    -2
100
AcDbLine
 10
3424.2321362606
 20
2057.76350593172
 30
0.0
 11
3386.7321362606
 21
2057.76350593172
 31
0.0
  0
LINE
  5
B9AD
330
B804
100
AcDbEntity
  8
寸法引出
 48
25.0
370
    -2
100
AcDbLine
 10
3589.232136260601
 20
2057.76350593172
 30
0.0
 11
3626.732136260601
 21
2057.76350593172
 31
0.0
  0
LINE
  5
B9AE
330
B804
100
AcDbEntity
  8
寸法引出
 48
25.0
370
    -2
100
AcDbLine
 10
3461.7321362606
 20
2057.76350593172
 30
0.0
 11
3551.732136260601
 21
2057.76350593172
 31
0.0
  0
SOLID
  5
B9AF
330
B804
100
AcDbEntity
  8
寸法引出
 48
25.0
100
AcDbTrace
 10
3424.2321362606
 20
2064.01350593172
 30
0.0
 11
3424.2321362606
 21
2051.513505931719
 31
0.0
 12
3461.7321362606
 22
2057.76350593172
 32
0.0
 13
3461.7321362606
 23
2057.76350593172
 33
0.0
  0
SOLID
  5
B9B0
330
B804
100
AcDbEntity
  8
寸法引出
 48
25.0
100
AcDbTrace
 10
3589.232136260601
 20
2064.01350593172
 30
0.0
 11
3589.232136260601
 21
2051.513505931719
 31
0.0
 12
3551.732136260601
 22
2057.76350593172
 32
0.0
 13
3551.732136260601
 23
2057.76350593172
 33
0.0
  0
MTEXT
  5
B9B1
330
B804
100
AcDbEntity
  8
寸法引出
 48
25.0
100
AcDbMText
 10
3506.7321362606
 20
2107.763505931719
 30
0.0
 40
50.0
 41
0.0
 71
     5
 72
     1
  1
\A1;90
  7
SANWA
 73
     1
 44
1.0
  0
POINT
  5
B9B2
330
B804
100
AcDbEntity
  8
DEFPOINTS
 62
     0
 48
25.0
100
AcDbPoint
 10
3461.7321362606
 20
2235.075433033267
 30
0.0
  0
POINT
  5
B9B3
330
B804
100
AcDbEntity
  8
DEFPOINTS
 62
     0
 48
25.0
100
AcDbPoint
 10
3551.732136260601
 20
2285.075433033266
 30
0.0
  0
POINT
  5
B9B4
330
B804
100
AcDbEntity
  8
DEFPOINTS
 62
     0
 48
25.0
100
AcDbPoint
 10
3551.732136260601
 20
2057.76350593172
 30
0.0
  0
ENDBLK
  5
B811
330
B804
100
AcDbEntity
  8
0
 48
25.0
100
AcDbBlockEnd
  0
BLOCK
  5
BA2D
330
BA21
100
AcDbEntity
  8
0
 48
25.0
100
AcDbBlockBegin
  2
*D34
 70
     1
 10
0.0
 20
0.0
 30
0.0
  3
*D34
  1

  0
LINE
  5
BA76
330
BA21
100
AcDbEntity
  8
寸法引出
 48
25.0
370
    -2
100
AcDbLine
 10
3226.732136260601
 20
3385.075433033269
 30
0.0
 11
3341.890301134405
 21
3385.075433033269
 31
0.0
  0
LINE
  5
BA77
330
BA21
100
AcDbEntity
  8
寸法引出
 48
25.0
370
    -2
100
AcDbLine
 10
3226.732136260601
 20
3185.075433033269
 30
0.0
 11
3341.890301134405
 21
3185.075433033269
 31
0.0
  0
LINE
  5
BA78
330
BA21
100
AcDbEntity
  8
寸法引出
 48
25.0
370
    -2
100
AcDbLine
 10
3329.390301134405
 20
3347.575433033269
 30
0.0
 11
3329.390301134405
 21
3222.575433033269
 31
0.0
  0
SOLID
  5
BA79
330
BA21
100
AcDbEntity
  8
寸法引出
 48
25.0
100
AcDbTrace
 10
3323.140301134404
 20
3347.575433033269
 30
0.0
 11
3335.640301134405
 21
3347.575433033269
 31
0.0
 12
3329.390301134405
 22
3385.075433033269
 32
0.0
 13
3329.390301134405
 23
3385.075433033269
 33
0.0
  0
SOLID
  5
BA7A
330
BA21
100
AcDbEntity
  8
寸法引出
 48
25.0
100
AcDbTrace
 10
3323.140301134404
 20
3222.575433033269
 30
0.0
 11
3335.640301134405
 21
3222.575433033269
 31
0.0
 12
3329.390301134405
 22
3185.075433033269
 32
0.0
 13
3329.390301134405
 23
3185.075433033269
 33
0.0
  0
MTEXT
  5
BA7B
330
BA21
100
AcDbEntity
  8
寸法引出
 48
25.0
100
AcDbMText
 10
3279.390301134403
 20
3285.07543303327
 30
0.0
 40
50.0
 41
0.0
 71
     5
 72
     1
  1
\A1;200
  7
SANWA
 11
0.0000000000000001
 21
1.0
 31
0.0
 73
     1
 44
1.0
  0
POINT
  5
BA7C
330
BA21
100
AcDbEntity
  8
DEFPOINTS
 62
     0
 48
25.0
100
AcDbPoint
 10
3201.732136260601
 20
3385.075433033269
 30
0.0
  0
POINT
  5
BA7D
330
BA21
100
AcDbEntity
  8
DEFPOINTS
 62
     0
 48
25.0
100
AcDbPoint
 10
3201.732136260601
 20
3185.075433033269
 30
0.0
  0
POINT
  5
BA7E
330
BA21
100
AcDbEntity
  8
DEFPOINTS
 62
     0
 48
25.0
100
AcDbPoint
 10
3329.390301134405
 20
3185.075433033269
 30
0.0
  0
ENDBLK
  5
BA2E
330
BA21
100
AcDbEntity
  8
0
 48
25.0
100
AcDbBlockEnd
  0
BLOCK
  5
BBFF
330
BBF5
100
AcDbEntity
  8
0
 48
25.0
100
AcDbBlockBegin
  2
*D35
 70
     1
 10
0.0
 20
0.0
 30
0.0
  3
*D35
  1

  0
LINE
  5
BD33
330
BBF5
100
AcDbEntity
  8
寸法引出
 48
25.0
370
    -2
100
AcDbLine
 10
10922.91495543108
 20
3385.075433033269
 30
0.0
 11
11038.07312030488
 21
3385.075433033269
 31
0.0
  0
LINE
  5
BD34
330
BBF5
100
AcDbEntity
  8
寸法引出
 48
25.0
370
    -2
100
AcDbLine
 10
10922.91495543108
 20
3185.075433033269
 30
0.0
 11
11038.07312030488
 21
3185.075433033269
 31
0.0
  0
LINE
  5
BD35
330
BBF5
100
AcDbEntity
  8
寸法引出
 48
25.0
370
    -2
100
AcDbLine
 10
11025.57312030489
 20
3347.575433033269
 30
0.0
 11
11025.57312030489
 21
3222.575433033269
 31
0.0
  0
SOLID
  5
BD36
330
BBF5
100
AcDbEntity
  8
寸法引出
 48
25.0
100
AcDbTrace
 10
11019.32312030488
 20
3347.575433033269
 30
0.0
 11
11031.82312030488
 21
3347.575433033269
 31
0.0
 12
11025.57312030489
 22
3385.075433033269
 32
0.0
 13
11025.57312030489
 23
3385.075433033269
 33
0.0
  0
SOLID
  5
BD37
330
BBF5
100
AcDbEntity
  8
寸法引出
 48
25.0
100
AcDbTrace
 10
11019.32312030488
 20
3222.575433033269
 30
0.0
 11
11031.82312030488
 21
3222.575433033269
 31
0.0
 12
11025.57312030489
 22
3185.075433033269
 32
0.0
 13
11025.57312030489
 23
3185.075433033269
 33
0.0
  0
MTEXT
  5
BD38
330
BBF5
100
AcDbEntity
  8
寸法引出
 48
25.0
100
AcDbMText
 10
10975.57312030488
 20
3285.07543303327
 30
0.0
 40
50.0
 41
0.0
 71
     5
 72
     1
  1
\A1;200
  7
SANWA
 11
0.0000000000000001
 21
1.0
 31
0.0
 73
     1
 44
1.0
  0
POINT
  5
BD39
330
BBF5
100
AcDbEntity
  8
DEFPOINTS
 62
     0
 48
25.0
100
AcDbPoint
 10
10897.91495543108
 20
3385.075433033269
 30
0.0
  0
POINT
  5
BD3A
330
BBF5
100
AcDbEntity
  8
DEFPOINTS
 62
     0
 48
25.0
100
AcDbPoint
 10
10897.91495543108
 20
3185.075433033269
 30
0.0
  0
POINT
  5
BD3B
330
BBF5
100
AcDbEntity
  8
DEFPOINTS
 62
     0
 48
25.0
100
AcDbPoint
 10
11025.57312030489
 20
3185.075433033269
 30
0.0
  0
ENDBLK
  5
BC00
330
BBF5
100
AcDbEntity
  8
0
 48
25.0
100
AcDbBlockEnd
  0
BLOCK
  5
BC0D
330
BC01
100
AcDbEntity
  8
0
 48
25.0
100
AcDbBlockBegin
  2
*D36
 70
     1
 10
0.0
 20
0.0
 30
0.0
  3
*D36
  1

  0
LINE
  5
BD3C
330
BC01
100
AcDbEntity
  8
寸法引出
 48
25.0
370
    -2
100
AcDbLine
 10
10847.91495543108
 20
3410.075433033269
 30
0.0
 11
10847.91495543108
 21
3548.760908641621
 31
0.0
  0
LINE
  5
BD3D
330
BC01
100
AcDbEntity
  8
寸法引出
 48
25.0
370
    -2
100
AcDbLine
 10
10897.91495543108
 20
3410.075433033269
 30
0.0
 11
10897.91495543108
 21
3548.760908641621
 31
0.0
  0
LINE
  5
BD3E
330
BC01
100
AcDbEntity
  8
寸法引出
 48
25.0
370
    -2
100
AcDbLine
 10
10810.41495543108
 20
3536.260908641621
 30
0.0
 11
10772.91495543108
 21
3536.260908641621
 31
0.0
  0
LINE
  5
BD3F
330
BC01
100
AcDbEntity
  8
寸法引出
 48
25.0
370
    -2
100
AcDbLine
 10
10935.41495543108
 20
3536.260908641621
 30
0.0
 11
10972.91495543108
 21
3536.260908641621
 31
0.0
  0
LINE
  5
BD40
330
BC01
100
AcDbEntity
  8
寸法引出
 48
25.0
370
    -2
100
AcDbLine
 10
10847.91495543108
 20
3536.260908641621
 30
0.0
 11
10897.91495543108
 21
3536.260908641621
 31
0.0
  0
SOLID
  5
BD41
330
BC01
100
AcDbEntity
  8
寸法引出
 48
25.0
100
AcDbTrace
 10
10810.41495543108
 20
3542.510908641621
 30
0.0
 11
10810.41495543108
 21
3530.010908641621
 31
0.0
 12
10847.91495543108
 22
3536.260908641621
 32
0.0
 13
10847.91495543108
 23
3536.260908641621
 33
0.0
  0
SOLID
  5
BD42
330
BC01
100
AcDbEntity
  8
寸法引出
 48
25.0
100
AcDbTrace
 10
10935.41495543108
 20
3542.510908641621
 30
0.0
 11
10935.41495543108
 21
3530.010908641621
 31
0.0
 12
10897.91495543108
 22
3536.260908641621
 32
0.0
 13
10897.91495543108
 23
3536.260908641621
 33
0.0
  0
MTEXT
  5
BD43
330
BC01
100
AcDbEntity
  8
寸法引出
 48
25.0
100
AcDbMText
 10
10872.91495543108
 20
3586.260908641621
 30
0.0
 40
50.0
 41
0.0
 71
     5
 72
     1
  1
\A1;50
  7
SANWA
 73
     1
 44
1.0
  0
POINT
  5
BD44
330
BC01
100
AcDbEntity
  8
DEFPOINTS
 62
     0
 48
25.0
100
AcDbPoint
 10
10847.91495543108
 20
3385.075433033269
 30
0.0
  0
POINT
  5
BD45
330
BC01
100
AcDbEntity
  8
DEFPOINTS
 62
     0
 48
25.0
100
AcDbPoint
 10
10897.91495543108
 20
3385.075433033269
 30
0.0
  0
POINT
  5
BD46
330
BC01
100
AcDbEntity
  8
DEFPOINTS
 62
     0
 48
25.0
100
AcDbPoint
 10
10897.91495543108
 20
3536.260908641621
 30
0.0
  0
ENDBLK
  5
BC0E
330
BC01
100
AcDbEntity
  8
0
 48
25.0
100
AcDbBlockEnd
  0
BLOCK
  5
BC19
330
BC0F
100
AcDbEntity
  8
0
 48
25.0
100
AcDbBlockBegin
  2
*D37
 70
     1
 10
0.0
 20
0.0
 30
0.0
  3
*D37
  1

  0
LINE
  5
BD47
330
BC0F
100
AcDbEntity
  8
寸法引出
 48
25.0
370
    -2
100
AcDbLine
 10
10897.91495543108
 20
3410.075433033269
 30
0.0
 11
10897.91495543108
 21
3548.760908641621
 31
0.0
  0
LINE
  5
BD48
330
BC0F
100
AcDbEntity
  8
寸法引出
 48
25.0
370
    -2
100
AcDbLine
 10
11197.91495543108
 20
3410.075433033269
 30
0.0
 11
11197.91495543108
 21
3548.760908641621
 31
0.0
  0
LINE
  5
BD49
330
BC0F
100
AcDbEntity
  8
寸法引出
 48
25.0
370
    -2
100
AcDbLine
 10
10935.41495543108
 20
3536.260908641621
 30
0.0
 11
11160.41495543108
 21
3536.260908641621
 31
0.0
  0
SOLID
  5
BD4A
330
BC0F
100
AcDbEntity
  8
寸法引出
 48
25.0
100
AcDbTrace
 10
10935.41495543108
 20
3542.510908641621
 30
0.0
 11
10935.41495543108
 21
3530.010908641621
 31
0.0
 12
10897.91495543108
 22
3536.260908641621
 32
0.0
 13
10897.91495543108
 23
3536.260908641621
 33
0.0
  0
SOLID
  5
BD4B
330
BC0F
100
AcDbEntity
  8
寸法引出
 48
25.0
100
AcDbTrace
 10
11160.41495543108
 20
3542.510908641621
 30
0.0
 11
11160.41495543108
 21
3530.010908641621
 31
0.0
 12
11197.91495543108
 22
3536.260908641621
 32
0.0
 13
11197.91495543108
 23
3536.260908641621
 33
0.0
  0
MTEXT
  5
BD4C
330
BC0F
100
AcDbEntity
  8
寸法引出
 48
25.0
100
AcDbMText
 10
11047.91495543108
 20
3586.260908641621
 30
0.0
 40
50.0
 41
0.0
 71
     5
 72
     1
  1
\A1;300
  7
SANWA
 73
     1
 44
1.0
  0
POINT
  5
BD4D
330
BC0F
100
AcDbEntity
  8
DEFPOINTS
 62
     0
 48
25.0
100
AcDbPoint
 10
10897.91495543108
 20
3385.075433033269
 30
0.0
  0
POINT
  5
BD4E
330
BC0F
100
AcDbEntity
  8
DEFPOINTS
 62
     0
 48
25.0
100
AcDbPoint
 10
11197.91495543108
 20
3385.075433033269
 30
0.0
  0
POINT
  5
BD4F
330
BC0F
100
AcDbEntity
  8
DEFPOINTS
 62
     0
 48
25.0
100
AcDbPoint
 10
11197.91495543108
 20
3536.260908641621
 30
0.0
  0
ENDBLK
  5
BC1A
330
BC0F
100
AcDbEntity
  8
0
 48
25.0
100
AcDbBlockEnd
  0
BLOCK
  5
BC27
330
BC1B
100
AcDbEntity
  8
0
 48
25.0
100
AcDbBlockBegin
  2
*D38
 70
     1
 10
0.0
 20
0.0
 30
0.0
  3
*D38
  1

  0
LINE
  5
BD50
330
BC1B
100
AcDbEntity
  8
寸法引出
 48
25.0
370
    -2
100
AcDbLine
 10
11197.91495543108
 20
3410.075433033269
 30
0.0
 11
11197.91495543108
 21
3548.760908641621
 31
0.0
  0
LINE
  5
BD51
330
BC1B
100
AcDbEntity
  8
寸法引出
 48
25.0
370
    -2
100
AcDbLine
 10
11247.91495543108
 20
3410.075433033269
 30
0.0
 11
11247.91495543108
 21
3548.760908641621
 31
0.0
  0
LINE
  5
BD52
330
BC1B
100
AcDbEntity
  8
寸法引出
 48
25.0
370
    -2
100
AcDbLine
 10
11160.41495543108
 20
3536.260908641621
 30
0.0
 11
11122.91495543108
 21
3536.260908641621
 31
0.0
  0
LINE
  5
BD53
330
BC1B
100
AcDbEntity
  8
寸法引出
 48
25.0
370
    -2
100
AcDbLine
 10
11285.41495543108
 20
3536.260908641621
 30
0.0
 11
11322.91495543108
 21
3536.260908641621
 31
0.0
  0
LINE
  5
BD54
330
BC1B
100
AcDbEntity
  8
寸法引出
 48
25.0
370
    -2
100
AcDbLine
 10
11197.91495543108
 20
3536.260908641621
 30
0.0
 11
11247.91495543108
 21
3536.260908641621
 31
0.0
  0
SOLID
  5
BD55
330
BC1B
100
AcDbEntity
  8
寸法引出
 48
25.0
100
AcDbTrace
 10
11160.41495543108
 20
3542.510908641621
 30
0.0
 11
11160.41495543108
 21
3530.010908641621
 31
0.0
 12
11197.91495543108
 22
3536.260908641621
 32
0.0
 13
11197.91495543108
 23
3536.260908641621
 33
0.0
  0
SOLID
  5
BD56
330
BC1B
100
AcDbEntity
  8
寸法引出
 48
25.0
100
AcDbTrace
 10
11285.41495543108
 20
3542.510908641621
 30
0.0
 11
11285.41495543108
 21
3530.010908641621
 31
0.0
 12
11247.91495543108
 22
3536.260908641621
 32
0.0
 13
11247.91495543108
 23
3536.260908641621
 33
0.0
  0
MTEXT
  5
BD57
330
BC1B
100
AcDbEntity
  8
寸法引出
 48
25.0
100
AcDbMText
 10
11222.91495543108
 20
3586.260908641621
 30
0.0
 40
50.0
 41
0.0
 71
     5
 72
     1
  1
\A1;50
  7
SANWA
 73
     1
 44
1.0
  0
POINT
  5
BD58
330
BC1B
100
AcDbEntity
  8
DEFPOINTS
 62
     0
 48
25.0
100
AcDbPoint
 10
11197.91495543108
 20
3385.075433033269
 30
0.0
  0
POINT
  5
BD59
330
BC1B
100
AcDbEntity
  8
DEFPOINTS
 62
     0
 48
25.0
100
AcDbPoint
 10
11247.91495543108
 20
3385.075433033269
 30
0.0
  0
POINT
  5
BD5A
330
BC1B
100
AcDbEntity
  8
DEFPOINTS
 62
     0
 48
25.0
100
AcDbPoint
 10
11247.91495543108
 20
3536.260908641621
 30
0.0
  0
ENDBLK
  5
BC28
330
BC1B
100
AcDbEntity
  8
0
 48
25.0
100
AcDbBlockEnd
  0
BLOCK
  5
BC33
330
BC29
100
AcDbEntity
  8
0
 48
25.0
100
AcDbBlockBegin
  2
*D39
 70
     1
 10
0.0
 20
0.0
 30
0.0
  3
*D39
  1

  0
LINE
  5
BD5B
330
BC29
100
AcDbEntity
  8
寸法引出
 48
25.0
370
    -2
100
AcDbLine
 10
10847.91495543108
 20
3410.075433033269
 30
0.0
 11
10847.91495543108
 21
3679.322907439602
 31
0.0
  0
LINE
  5
BD5C
330
BC29
100
AcDbEntity
  8
寸法引出
 48
25.0
370
    -2
100
AcDbLine
 10
11247.91495543108
 20
3410.075433033269
 30
0.0
 11
11247.91495543108
 21
3679.322907439602
 31
0.0
  0
LINE
  5
BD5D
330
BC29
100
AcDbEntity
  8
寸法引出
 48
25.0
370
    -2
100
AcDbLine
 10
10885.41495543108
 20
3666.822907439602
 30
0.0
 11
11210.41495543108
 21
3666.822907439602
 31
0.0
  0
SOLID
  5
BD5E
330
BC29
100
AcDbEntity
  8
寸法引出
 48
25.0
100
AcDbTrace
 10
10885.41495543108
 20
3673.072907439602
 30
0.0
 11
10885.41495543108
 21
3660.572907439602
 31
0.0
 12
10847.91495543108
 22
3666.822907439602
 32
0.0
 13
10847.91495543108
 23
3666.822907439602
 33
0.0
  0
SOLID
  5
BD5F
330
BC29
100
AcDbEntity
  8
寸法引出
 48
25.0
100
AcDbTrace
 10
11210.41495543108
 20
3673.072907439602
 30
0.0
 11
11210.41495543108
 21
3660.572907439602
 31
0.0
 12
11247.91495543108
 22
3666.822907439602
 32
0.0
 13
11247.91495543108
 23
3666.822907439602
 33
0.0
  0
MTEXT
  5
BD60
330
BC29
100
AcDbEntity
  8
寸法引出
 48
25.0
100
AcDbMText
 10
11047.91495543108
 20
3716.822907439602
 30
0.0
 40
50.0
 41
0.0
 71
     5
 72
     1
  1
\A1;400
  7
SANWA
 73
     1
 44
1.0
  0
POINT
  5
BD61
330
BC29
100
AcDbEntity
  8
DEFPOINTS
 62
     0
 48
25.0
100
AcDbPoint
 10
10847.91495543108
 20
3385.075433033269
 30
0.0
  0
POINT
  5
BD62
330
BC29
100
AcDbEntity
  8
DEFPOINTS
 62
     0
 48
25.0
100
AcDbPoint
 10
11247.91495543108
 20
3385.075433033269
 30
0.0
  0
POINT
  5
BD63
330
BC29
100
AcDbEntity
  8
DEFPOINTS
 62
     0
 48
25.0
100
AcDbPoint
 10
11247.91495543108
 20
3666.822907439602
 30
0.0
  0
ENDBLK
  5
BC34
330
BC29
100
AcDbEntity
  8
0
 48
25.0
100
AcDbBlockEnd
  0
BLOCK
  5
BC3F
330
BC35
100
AcDbEntity
  8
0
 48
25.0
100
AcDbBlockBegin
  2
*D40
 70
     1
 10
0.0
 20
0.0
 30
0.0
  3
*D40
  1

  0
LINE
  5
BD64
330
BC35
100
AcDbEntity
  8
寸法引出
 48
25.0
370
    -2
100
AcDbLine
 10
10822.91495543108
 20
3385.075433033269
 30
0.0
 11
10700.419977062
 21
3385.075433033269
 31
0.0
  0
LINE
  5
BD65
330
BC35
100
AcDbEntity
  8
寸法引出
 48
25.0
370
    -2
100
AcDbLine
 10
10822.91495543108
 20
3235.075433033269
 30
0.0
 11
10700.419977062
 21
3235.075433033269
 31
0.0
  0
LINE
  5
BD66
330
BC35
100
AcDbEntity
  8
寸法引出
 48
25.0
370
    -2
100
AcDbLine
 10
10712.919977062
 20
3347.575433033269
 30
0.0
 11
10712.919977062
 21
3272.575433033269
 31
0.0
  0
SOLID
  5
BD67
330
BC35
100
AcDbEntity
  8
寸法引出
 48
25.0
100
AcDbTrace
 10
10706.669977062
 20
3347.575433033269
 30
0.0
 11
10719.169977062
 21
3347.575433033269
 31
0.0
 12
10712.919977062
 22
3385.075433033269
 32
0.0
 13
10712.919977062
 23
3385.075433033269
 33
0.0
  0
SOLID
  5
BD68
330
BC35
100
AcDbEntity
  8
寸法引出
 48
25.0
100
AcDbTrace
 10
10706.669977062
 20
3272.575433033269
 30
0.0
 11
10719.169977062
 21
3272.575433033269
 31
0.0
 12
10712.919977062
 22
3235.075433033269
 32
0.0
 13
10712.919977062
 23
3235.075433033269
 33
0.0
  0
MTEXT
  5
BD69
330
BC35
100
AcDbEntity
  8
寸法引出
 48
25.0
100
AcDbMText
 10
10662.919977062
 20
3310.075433033271
 30
0.0
 40
50.0
 41
0.0
 71
     5
 72
     1
  1
\A1;150
  7
SANWA
 11
0.0000000000000001
 21
1.0
 31
0.0
 73
     1
 44
1.0
  0
POINT
  5
BD6A
330
BC35
100
AcDbEntity
  8
DEFPOINTS
 62
     0
 48
25.0
100
AcDbPoint
 10
10847.91495543108
 20
3385.075433033269
 30
0.0
  0
POINT
  5
BD6B
330
BC35
100
AcDbEntity
  8
DEFPOINTS
 62
     0
 48
25.0
100
AcDbPoint
 10
10847.91495543108
 20
3235.075433033269
 30
0.0
  0
POINT
  5
BD6C
330
BC35
100
AcDbEntity
  8
DEFPOINTS
 62
     0
 48
25.0
100
AcDbPoint
 10
10712.919977062
 20
3235.075433033269
 30
0.0
  0
ENDBLK
  5
BC40
330
BC35
100
AcDbEntity
  8
0
 48
25.0
100
AcDbBlockEnd
  0
BLOCK
  5
BC4B
330
BC41
100
AcDbEntity
  8
0
 48
25.0
100
AcDbBlockBegin
  2
*D41
 70
     1
 10
0.0
 20
0.0
 30
0.0
  3
*D41
  1

  0
LINE
  5
BD6D
330
BC41
100
AcDbEntity
  8
寸法引出
 48
25.0
370
    -2
100
AcDbLine
 10
11272.91495543108
 20
3385.075433033268
 30
0.0
 11
11392.15782667322
 21
3385.075433033268
 31
0.0
  0
LINE
  5
BD6E
330
BC41
100
AcDbEntity
  8
寸法引出
 48
25.0
370
    -2
100
AcDbLine
 10
11272.91495543108
 20
2385.075433033266
 30
0.0
 11
11392.15782667322
 21
2385.075433033266
 31
0.0
  0
LINE
  5
BD6F
330
BC41
100
AcDbEntity
  8
寸法引出
 48
25.0
370
    -2
100
AcDbLine
 10
11379.65782667322
 20
3347.575433033268
 30
0.0
 11
11379.65782667322
 21
2422.575433033266
 31
0.0
  0
SOLID
  5
BD70
330
BC41
100
AcDbEntity
  8
寸法引出
 48
25.0
100
AcDbTrace
 10
11373.40782667322
 20
3347.575433033268
 30
0.0
 11
11385.90782667322
 21
3347.575433033268
 31
0.0
 12
11379.65782667322
 22
3385.075433033268
 32
0.0
 13
11379.65782667322
 23
3385.075433033268
 33
0.0
  0
SOLID
  5
BD71
330
BC41
100
AcDbEntity
  8
寸法引出
 48
25.0
100
AcDbTrace
 10
11373.40782667322
 20
2422.575433033266
 30
0.0
 11
11385.90782667322
 21
2422.575433033266
 31
0.0
 12
11379.65782667322
 22
2385.075433033266
 32
0.0
 13
11379.65782667322
 23
2385.075433033266
 33
0.0
  0
MTEXT
  5
BD72
330
BC41
100
AcDbEntity
  8
寸法引出
 48
25.0
100
AcDbMText
 10
11329.65782667322
 20
2885.075433033269
 30
0.0
 40
50.0
 41
0.0
 71
     5
 72
     1
  1
\A1;1000
  7
SANWA
 11
0.0000000000000001
 21
1.0
 31
0.0
 73
     1
 44
1.0
  0
POINT
  5
BD73
330
BC41
100
AcDbEntity
  8
DEFPOINTS
 62
     0
 48
25.0
100
AcDbPoint
 10
11247.91495543108
 20
3385.075433033269
 30
0.0
  0
POINT
  5
BD74
330
BC41
100
AcDbEntity
  8
DEFPOINTS
 62
     0
 48
25.0
100
AcDbPoint
 10
11247.91495543108
 20
2385.075433033267
 30
0.0
  0
POINT
  5
BD75
330
BC41
100
AcDbEntity
  8
DEFPOINTS
 62
     0
 48
25.0
100
AcDbPoint
 10
11379.65782667322
 20
2385.075433033266
 30
0.0
  0
ENDBLK
  5
BC4C
330
BC41
100
AcDbEntity
  8
0
 48
25.0
100
AcDbBlockEnd
  0
BLOCK
  5
BC57
330
BC4D
100
AcDbEntity
  8
0
 48
25.0
100
AcDbBlockBegin
  2
*D42
 70
     1
 10
0.0
 20
0.0
 30
0.0
  3
*D42
  1

  0
LINE
  5
BE4F
330
BC4D
100
AcDbEntity
  8
寸法引出
 48
25.0
370
    -2
100
AcDbLine
 10
11272.91495543108
 20
2385.075433033266
 30
0.0
 11
11392.15782667322
 21
2385.075433033266
 31
0.0
  0
LINE
  5
BE50
330
BC4D
100
AcDbEntity
  8
寸法引出
 48
25.0
370
    -2
100
AcDbLine
 10
11222.91495543108
 20
2275.075433033267
 30
0.0
 11
11392.15782667322
 21
2275.075433033266
 31
0.0
  0
LINE
  5
BE51
330
BC4D
100
AcDbEntity
  8
寸法引出
 48
25.0
370
    -2
100
AcDbLine
 10
11379.65782667322
 20
2422.575433033266
 30
0.0
 11
11379.65782667322
 21
2460.075433033266
 31
0.0
  0
LINE
  5
BE52
330
BC4D
100
AcDbEntity
  8
寸法引出
 48
25.0
370
    -2
100
AcDbLine
 10
11379.65782667322
 20
2237.575433033266
 30
0.0
 11
11379.65782667322
 21
2200.075433033266
 31
0.0
  0
LINE
  5
BE53
330
BC4D
100
AcDbEntity
  8
寸法引出
 48
25.0
370
    -2
100
AcDbLine
 10
11379.65782667322
 20
2385.075433033266
 30
0.0
 11
11379.65782667322
 21
2275.075433033266
 31
0.0
  0
SOLID
  5
BE54
330
BC4D
100
AcDbEntity
  8
寸法引出
 48
25.0
100
AcDbTrace
 10
11373.40782667322
 20
2422.575433033266
 30
0.0
 11
11385.90782667322
 21
2422.575433033266
 31
0.0
 12
11379.65782667322
 22
2385.075433033266
 32
0.0
 13
11379.65782667322
 23
2385.075433033266
 33
0.0
  0
SOLID
  5
BE55
330
BC4D
100
AcDbEntity
  8
寸法引出
 48
25.0
100
AcDbTrace
 10
11373.40782667322
 20
2237.575433033266
 30
0.0
 11
11385.90782667322
 21
2237.575433033266
 31
0.0
 12
11379.65782667322
 22
2275.075433033266
 32
0.0
 13
11379.65782667322
 23
2275.075433033266
 33
0.0
  0
MTEXT
  5
BE56
330
BC4D
100
AcDbEntity
  8
寸法引出
 48
25.0
100
AcDbMText
 10
11329.65782667322
 20
2330.075433033268
 30
0.0
 40
50.0
 41
0.0
 71
     5
 72
     1
  1
\A1;110
  7
SANWA
 11
0.0000000000000001
 21
1.0
 31
0.0
 73
     1
 44
1.0
  0
POINT
  5
BE57
330
BC4D
100
AcDbEntity
  8
DEFPOINTS
 62
     0
 48
25.0
100
AcDbPoint
 10
11247.91495543108
 20
2385.075433033267
 30
0.0
  0
POINT
  5
BE58
330
BC4D
100
AcDbEntity
  8
DEFPOINTS
 62
     0
 48
25.0
100
AcDbPoint
 10
11197.91495543108
 20
2275.075433033267
 30
0.0
  0
POINT
  5
BE59
330
BC4D
100
AcDbEntity
  8
DEFPOINTS
 62
     0
 48
25.0
100
AcDbPoint
 10
11379.65782667322
 20
2275.075433033266
 30
0.0
  0
ENDBLK
  5
BC58
330
BC4D
100
AcDbEntity
  8
0
 48
25.0
100
AcDbBlockEnd
  0
BLOCK
  5
BC63
330
BC59
100
AcDbEntity
  8
0
 48
25.0
100
AcDbBlockBegin
  2
*D43
 70
     1
 10
0.0
 20
0.0
 30
0.0
  3
*D43
  1

  0
LINE
  5
BE27
330
BC59
100
AcDbEntity
  8
寸法引出
 48
25.0
370
    -2
100
AcDbLine
 10
11272.91495543108
 20
3385.075433033268
 30
0.0
 11
11500.12722733507
 21
3385.075433033268
 31
0.0
  0
LINE
  5
BE28
330
BC59
100
AcDbEntity
  8
寸法引出
 48
25.0
370
    -2
100
AcDbLine
 10
11222.91495543108
 20
2275.075433033267
 30
0.0
 11
11500.12722733507
 21
2275.075433033266
 31
0.0
  0
LINE
  5
BE29
330
BC59
100
AcDbEntity
  8
寸法引出
 48
25.0
370
    -2
100
AcDbLine
 10
11487.62722733507
 20
3347.575433033268
 30
0.0
 11
11487.62722733507
 21
2312.575433033266
 31
0.0
  0
SOLID
  5
BE2A
330
BC59
100
AcDbEntity
  8
寸法引出
 48
25.0
100
AcDbTrace
 10
11481.37722733507
 20
3347.575433033268
 30
0.0
 11
11493.87722733507
 21
3347.575433033268
 31
0.0
 12
11487.62722733507
 22
3385.075433033268
 32
0.0
 13
11487.62722733507
 23
3385.075433033268
 33
0.0
  0
SOLID
  5
BE2B
330
BC59
100
AcDbEntity
  8
寸法引出
 48
25.0
100
AcDbTrace
 10
11481.37722733507
 20
2312.575433033266
 30
0.0
 11
11493.87722733507
 21
2312.575433033266
 31
0.0
 12
11487.62722733507
 22
2275.075433033266
 32
0.0
 13
11487.62722733507
 23
2275.075433033266
 33
0.0
  0
MTEXT
  5
BE2C
330
BC59
100
AcDbEntity
  8
寸法引出
 48
25.0
100
AcDbMText
 10
11437.62722733507
 20
2830.075433033269
 30
0.0
 40
50.0
 41
0.0
 71
     5
 72
     1
  1
\A1;1110
  7
SANWA
 11
0.0000000000000001
 21
1.0
 31
0.0
 73
     1
 44
1.0
  0
POINT
  5
BE2D
330
BC59
100
AcDbEntity
  8
DEFPOINTS
 62
     0
 48
25.0
100
AcDbPoint
 10
11247.91495543108
 20
3385.075433033269
 30
0.0
  0
POINT
  5
BE2E
330
BC59
100
AcDbEntity
  8
DEFPOINTS
 62
     0
 48
25.0
100
AcDbPoint
 10
11197.91495543108
 20
2275.075433033267
 30
0.0
  0
POINT
  5
BE2F
330
BC59
100
AcDbEntity
  8
DEFPOINTS
 62
     0
 48
25.0
100
AcDbPoint
 10
11487.62722733507
 20
2275.075433033266
 30
0.0
  0
ENDBLK
  5
BC64
330
BC59
100
AcDbEntity
  8
0
 48
25.0
100
AcDbBlockEnd
  0
BLOCK
  5
BC71
330
BC65
100
AcDbEntity
  8
0
 48
25.0
100
AcDbBlockBegin
  2
*D44
 70
     1
 10
0.0
 20
0.0
 30
0.0
  3
*D44
  1

  0
LINE
  5
BE5E
330
BC65
100
AcDbEntity
  8
寸法引出
 48
25.0
370
    -2
100
AcDbLine
 10
10847.91495543108
 20
2300.075433033267
 30
0.0
 11
10847.91495543108
 21
2085.26350593172
 31
0.0
  0
LINE
  5
BE5F
330
BC65
100
AcDbEntity
  8
寸法引出
 48
25.0
370
    -2
100
AcDbLine
 10
10957.91495543108
 20
2250.075433033267
 30
0.0
 11
10957.91495543108
 21
2085.26350593172
 31
0.0
  0
LINE
  5
BE60
330
BC65
100
AcDbEntity
  8
寸法引出
 48
25.0
370
    -2
100
AcDbLine
 10
10810.41495543108
 20
2097.76350593172
 30
0.0
 11
10772.91495543108
 21
2097.76350593172
 31
0.0
  0
LINE
  5
BE61
330
BC65
100
AcDbEntity
  8
寸法引出
 48
25.0
370
    -2
100
AcDbLine
 10
10995.41495543108
 20
2097.76350593172
 30
0.0
 11
11032.91495543108
 21
2097.76350593172
 31
0.0
  0
LINE
  5
BE62
330
BC65
100
AcDbEntity
  8
寸法引出
 48
25.0
370
    -2
100
AcDbLine
 10
10847.91495543108
 20
2097.76350593172
 30
0.0
 11
10957.91495543108
 21
2097.76350593172
 31
0.0
  0
SOLID
  5
BE63
330
BC65
100
AcDbEntity
  8
寸法引出
 48
25.0
100
AcDbTrace
 10
10810.41495543108
 20
2104.01350593172
 30
0.0
 11
10810.41495543108
 21
2091.51350593172
 31
0.0
 12
10847.91495543108
 22
2097.76350593172
 32
0.0
 13
10847.91495543108
 23
2097.76350593172
 33
0.0
  0
SOLID
  5
BE64
330
BC65
100
AcDbEntity
  8
寸法引出
 48
25.0
100
AcDbTrace
 10
10995.41495543108
 20
2104.01350593172
 30
0.0
 11
10995.41495543108
 21
2091.51350593172
 31
0.0
 12
10957.91495543108
 22
2097.76350593172
 32
0.0
 13
10957.91495543108
 23
2097.76350593172
 33
0.0
  0
MTEXT
  5
BE65
330
BC65
100
AcDbEntity
  8
寸法引出
 48
25.0
100
AcDbMText
 10
10902.91495543108
 20
2147.76350593172
 30
0.0
 40
50.0
 41
0.0
 71
     5
 72
     1
  1
\A1;110
  7
SANWA
 73
     1
 44
1.0
  0
POINT
  5
BE66
330
BC65
100
AcDbEntity
  8
DEFPOINTS
 62
     0
 48
25.0
100
AcDbPoint
 10
10847.91495543108
 20
2325.075433033267
 30
0.0
  0
POINT
  5
BE67
330
BC65
100
AcDbEntity
  8
DEFPOINTS
 62
     0
 48
25.0
100
AcDbPoint
 10
10957.91495543108
 20
2275.075433033267
 30
0.0
  0
POINT
  5
BE68
330
BC65
100
AcDbEntity
  8
DEFPOINTS
 62
     0
 48
25.0
100
AcDbPoint
 10
10957.91495543108
 20
2097.76350593172
 30
0.0
  0
ENDBLK
  5
BC72
330
BC65
100
AcDbEntity
  8
0
 48
25.0
100
AcDbBlockEnd
  0
BLOCK
  5
BC7D
330
BC73
100
AcDbEntity
  8
0
 48
25.0
100
AcDbBlockBegin
  2
*D45
 70
     1
 10
0.0
 20
0.0
 30
0.0
  3
*D45
  1

  0
LINE
  5
BE72
330
BC73
100
AcDbEntity
  8
寸法引出
 48
25.0
370
    -2
100
AcDbLine
 10
10957.91495543108
 20
2250.075433033267
 30
0.0
 11
10957.91495543108
 21
2085.26350593172
 31
0.0
  0
LINE
  5
BE73
330
BC73
100
AcDbEntity
  8
寸法引出
 48
25.0
370
    -2
100
AcDbLine
 10
11137.91495543108
 20
2250.075433033267
 30
0.0
 11
11137.91495543108
 21
2085.26350593172
 31
0.0
  0
LINE
  5
BE74
330
BC73
100
AcDbEntity
  8
寸法引出
 48
25.0
370
    -2
100
AcDbLine
 10
10995.41495543108
 20
2097.76350593172
 30
0.0
 11
11100.41495543108
 21
2097.76350593172
 31
0.0
  0
SOLID
  5
BE75
330
BC73
100
AcDbEntity
  8
寸法引出
 48
25.0
100
AcDbTrace
 10
10995.41495543108
 20
2104.01350593172
 30
0.0
 11
10995.41495543108
 21
2091.51350593172
 31
0.0
 12
10957.91495543108
 22
2097.76350593172
 32
0.0
 13
10957.91495543108
 23
2097.76350593172
 33
0.0
  0
SOLID
  5
BE76
330
BC73
100
AcDbEntity
  8
寸法引出
 48
25.0
100
AcDbTrace
 10
11100.41495543108
 20
2104.01350593172
 30
0.0
 11
11100.41495543108
 21
2091.51350593172
 31
0.0
 12
11137.91495543108
 22
2097.76350593172
 32
0.0
 13
11137.91495543108
 23
2097.76350593172
 33
0.0
  0
MTEXT
  5
BE77
330
BC73
100
AcDbEntity
  8
寸法引出
 48
25.0
100
AcDbMText
 10
11047.91495543108
 20
2147.76350593172
 30
0.0
 40
50.0
 41
0.0
 71
     5
 72
     1
  1
\A1;180
  7
SANWA
 73
     1
 44
1.0
  0
POINT
  5
BE78
330
BC73
100
AcDbEntity
  8
DEFPOINTS
 62
     0
 48
25.0
100
AcDbPoint
 10
10957.91495543108
 20
2275.075433033267
 30
0.0
  0
POINT
  5
BE79
330
BC73
100
AcDbEntity
  8
DEFPOINTS
 62
     0
 48
25.0
100
AcDbPoint
 10
11137.91495543108
 20
2275.075433033267
 30
0.0
  0
POINT
  5
BE7A
330
BC73
100
AcDbEntity
  8
DEFPOINTS
 62
     0
 48
25.0
100
AcDbPoint
 10
11137.91495543108
 20
2097.76350593172
 30
0.0
  0
ENDBLK
  5
BC7E
330
BC73
100
AcDbEntity
  8
0
 48
25.0
100
AcDbBlockEnd
  0
BLOCK
  5
BC8B
330
BC7F
100
AcDbEntity
  8
0
 48
25.0
100
AcDbBlockBegin
  2
*D46
 70
     1
 10
0.0
 20
0.0
 30
0.0
  3
*D46
  1

  0
LINE
  5
BE7B
330
BC7F
100
AcDbEntity
  8
寸法引出
 48
25.0
370
    -2
100
AcDbLine
 10
11137.91495543108
 20
2250.075433033267
 30
0.0
 11
11137.91495543108
 21
2085.26350593172
 31
0.0
  0
LINE
  5
BE7C
330
BC7F
100
AcDbEntity
  8
寸法引出
 48
25.0
370
    -2
100
AcDbLine
 10
11247.91495543108
 20
2300.075433033267
 30
0.0
 11
11247.91495543108
 21
2085.26350593172
 31
0.0
  0
LINE
  5
BE7D
330
BC7F
100
AcDbEntity
  8
寸法引出
 48
25.0
370
    -2
100
AcDbLine
 10
11100.41495543108
 20
2097.76350593172
 30
0.0
 11
11062.91495543108
 21
2097.76350593172
 31
0.0
  0
LINE
  5
BE7E
330
BC7F
100
AcDbEntity
  8
寸法引出
 48
25.0
370
    -2
100
AcDbLine
 10
11285.41495543108
 20
2097.76350593172
 30
0.0
 11
11322.91495543108
 21
2097.76350593172
 31
0.0
  0
LINE
  5
BE7F
330
BC7F
100
AcDbEntity
  8
寸法引出
 48
25.0
370
    -2
100
AcDbLine
 10
11137.91495543108
 20
2097.76350593172
 30
0.0
 11
11247.91495543108
 21
2097.76350593172
 31
0.0
  0
SOLID
  5
BE80
330
BC7F
100
AcDbEntity
  8
寸法引出
 48
25.0
100
AcDbTrace
 10
11100.41495543108
 20
2104.01350593172
 30
0.0
 11
11100.41495543108
 21
2091.51350593172
 31
0.0
 12
11137.91495543108
 22
2097.76350593172
 32
0.0
 13
11137.91495543108
 23
2097.76350593172
 33
0.0
  0
SOLID
  5
BE81
330
BC7F
100
AcDbEntity
  8
寸法引出
 48
25.0
100
AcDbTrace
 10
11285.41495543108
 20
2104.01350593172
 30
0.0
 11
11285.41495543108
 21
2091.51350593172
 31
0.0
 12
11247.91495543108
 22
2097.76350593172
 32
0.0
 13
11247.91495543108
 23
2097.76350593172
 33
0.0
  0
MTEXT
  5
BE82
330
BC7F
100
AcDbEntity
  8
寸法引出
 48
25.0
100
AcDbMText
 10
11192.91495543108
 20
2147.76350593172
 30
0.0
 40
50.0
 41
0.0
 71
     5
 72
     1
  1
\A1;110
  7
SANWA
 73
     1
 44
1.0
  0
POINT
  5
BE83
330
BC7F
100
AcDbEntity
  8
DEFPOINTS
 62
     0
 48
25.0
100
AcDbPoint
 10
11137.91495543108
 20
2275.075433033267
 30
0.0
  0
POINT
  5
BE84
330
BC7F
100
AcDbEntity
  8
DEFPOINTS
 62
     0
 48
25.0
100
AcDbPoint
 10
11247.91495543108
 20
2325.075433033267
 30
0.0
  0
POINT
  5
BE85
330
BC7F
100
AcDbEntity
  8
DEFPOINTS
 62
     0
 48
25.0
100
AcDbPoint
 10
11247.91495543108
 20
2097.76350593172
 30
0.0
  0
ENDBLK
  5
BC8C
330
BC7F
100
AcDbEntity
  8
0
 48
25.0
100
AcDbBlockEnd
  0
BLOCK
  5
BC97
330
BC8D
100
AcDbEntity
  8
0
 48
25.0
100
AcDbBlockBegin
  2
*D47
 70
     1
 10
0.0
 20
0.0
 30
0.0
  3
*D47
  1

  0
LINE
  5
BDA7
330
BC8D
100
AcDbEntity
  8
寸法引出
 48
25.0
370
    -2
100
AcDbLine
 10
10531.9847412692
 20
1095.965222670045
 30
0.0
 11
10531.9847412692
 21
1163.960115885747
 31
0.0
  0
LINE
  5
BDA8
330
BC8D
100
AcDbEntity
  8
寸法引出
 48
25.0
370
    -2
100
AcDbLine
 10
10786.9847412692
 20
1089.965222670045
 30
0.0
 11
10786.9847412692
 21
1163.960115885747
 31
0.0
  0
LINE
  5
BDA9
330
BC8D
100
AcDbEntity
  8
寸法引出
 48
25.0
370
    -2
100
AcDbLine
 10
10569.4847412692
 20
1151.460115885747
 30
0.0
 11
10749.4847412692
 21
1151.460115885747
 31
0.0
  0
SOLID
  5
BDAA
330
BC8D
100
AcDbEntity
  8
寸法引出
 48
25.0
100
AcDbTrace
 10
10569.4847412692
 20
1157.710115885747
 30
0.0
 11
10569.4847412692
 21
1145.210115885747
 31
0.0
 12
10531.9847412692
 22
1151.460115885747
 32
0.0
 13
10531.9847412692
 23
1151.460115885747
 33
0.0
  0
SOLID
  5
BDAB
330
BC8D
100
AcDbEntity
  8
寸法引出
 48
25.0
100
AcDbTrace
 10
10749.4847412692
 20
1157.710115885747
 30
0.0
 11
10749.4847412692
 21
1145.210115885747
 31
0.0
 12
10786.9847412692
 22
1151.460115885747
 32
0.0
 13
10786.9847412692
 23
1151.460115885747
 33
0.0
  0
MTEXT
  5
BDAC
330
BC8D
100
AcDbEntity
  8
寸法引出
 48
25.0
100
AcDbMText
 10
10659.4847412692
 20
1201.460115885747
 30
0.0
 40
50.0
 41
0.0
 71
     5
 72
     1
  1
\A1;85
  7
SANWA
 73
     1
 44
1.0
  0
POINT
  5
BDAD
330
BC8D
100
AcDbEntity
  8
DEFPOINTS
 62
     0
 48
25.0
100
AcDbPoint
 10
10531.9847412692
 20
1070.965222670045
 30
0.0
  0
POINT
  5
BDAE
330
BC8D
100
AcDbEntity
  8
DEFPOINTS
 62
     0
 48
25.0
100
AcDbPoint
 10
10786.9847412692
 20
1064.965222670045
 30
0.0
  0
POINT
  5
BDAF
330
BC8D
100
AcDbEntity
  8
DEFPOINTS
 62
     0
 48
25.0
100
AcDbPoint
 10
10786.9847412692
 20
1151.460115885747
 30
0.0
  0
ENDBLK
  5
BC98
330
BC8D
100
AcDbEntity
  8
0
 48
25.0
100
AcDbBlockEnd
  0
BLOCK
  5
BCA3
330
BC99
100
AcDbEntity
  8
0
 48
25.0
100
AcDbBlockBegin
  2
*D48
 70
     1
 10
0.0
 20
0.0
 30
0.0
  3
*D48
  1

  0
LINE
  5
BDB0
330
BC99
100
AcDbEntity
  8
寸法引出
 48
25.0
370
    -2
100
AcDbLine
 10
10531.9847412692
 20
898.9652226700455
 30
0.0
 11
10531.9847412692
 21
810.7434378907365
 31
0.0
  0
LINE
  5
BDB1
330
BC99
100
AcDbEntity
  8
寸法引出
 48
25.0
370
    -2
100
AcDbLine
 10
10681.9847412692
 20
972.4652226700454
 30
0.0
 11
10681.9847412692
 21
810.7434378907365
 31
0.0
  0
LINE
  5
BDB2
330
BC99
100
AcDbEntity
  8
寸法引出
 48
25.0
370
    -2
100
AcDbLine
 10
10569.4847412692
 20
823.2434378907365
 30
0.0
 11
10644.4847412692
 21
823.2434378907365
 31
0.0
  0
SOLID
  5
BDB3
330
BC99
100
AcDbEntity
  8
寸法引出
 48
25.0
100
AcDbTrace
 10
10569.4847412692
 20
829.4934378907365
 30
0.0
 11
10569.4847412692
 21
816.9934378907365
 31
0.0
 12
10531.9847412692
 22
823.2434378907365
 32
0.0
 13
10531.9847412692
 23
823.2434378907365
 33
0.0
  0
SOLID
  5
BDB4
330
BC99
100
AcDbEntity
  8
寸法引出
 48
25.0
100
AcDbTrace
 10
10644.4847412692
 20
829.4934378907365
 30
0.0
 11
10644.4847412692
 21
816.9934378907365
 31
0.0
 12
10681.9847412692
 22
823.2434378907365
 32
0.0
 13
10681.9847412692
 23
823.2434378907365
 33
0.0
  0
MTEXT
  5
BDB5
330
BC99
100
AcDbEntity
  8
寸法引出
 48
25.0
100
AcDbMText
 10
10606.9847412692
 20
873.2434378907365
 30
0.0
 40
50.0
 41
0.0
 71
     5
 72
     1
  1
\A1;50
  7
SANWA
 73
     1
 44
1.0
  0
POINT
  5
BDB6
330
BC99
100
AcDbEntity
  8
DEFPOINTS
 62
     0
 48
25.0
100
AcDbPoint
 10
10531.9847412692
 20
923.9652226700455
 30
0.0
  0
POINT
  5
BDB7
330
BC99
100
AcDbEntity
  8
DEFPOINTS
 62
     0
 48
25.0
100
AcDbPoint
 10
10681.9847412692
 20
997.4652226700454
 30
0.0
  0
POINT
  5
BDB8
330
BC99
100
AcDbEntity
  8
DEFPOINTS
 62
     0
 48
25.0
100
AcDbPoint
 10
10681.9847412692
 20
823.2434378907365
 30
0.0
  0
ENDBLK
  5
BCA4
330
BC99
100
AcDbEntity
  8
0
 48
25.0
100
AcDbBlockEnd
  0
BLOCK
  5
BCAF
330
BCA5
100
AcDbEntity
  8
0
 48
25.0
100
AcDbBlockBegin
  2
*D49
 70
     1
 10
0.0
 20
0.0
 30
0.0
  3
*D49
  1

  0
LINE
  5
BDB9
330
BCA5
100
AcDbEntity
  8
寸法引出
 48
25.0
370
    -2
100
AcDbLine
 10
10811.9847412692
 20
929.9652226700455
 30
0.0
 11
11038.08450002185
 21
929.9652226700453
 31
0.0
  0
LINE
  5
BDBA
330
BCA5
100
AcDbEntity
  8
寸法引出
 48
25.0
370
    -2
100
AcDbLine
 10
10811.9847412692
 20
1064.965222670045
 30
0.0
 11
11038.08450002185
 21
1064.965222670045
 31
0.0
  0
LINE
  5
BDBB
330
BCA5
100
AcDbEntity
  8
寸法引出
 48
25.0
370
    -2
100
AcDbLine
 10
11025.58450002185
 20
967.4652226700453
 30
0.0
 11
11025.58450002185
 21
1027.465222670045
 31
0.0
  0
SOLID
  5
BDBC
330
BCA5
100
AcDbEntity
  8
寸法引出
 48
25.0
100
AcDbTrace
 10
11019.33450002185
 20
967.4652226700453
 30
0.0
 11
11031.83450002185
 21
967.4652226700453
 31
0.0
 12
11025.58450002185
 22
929.9652226700453
 32
0.0
 13
11025.58450002185
 23
929.9652226700453
 33
0.0
  0
SOLID
  5
BDBD
330
BCA5
100
AcDbEntity
  8
寸法引出
 48
25.0
100
AcDbTrace
 10
11019.33450002185
 20
1027.465222670045
 30
0.0
 11
11031.83450002185
 21
1027.465222670045
 31
0.0
 12
11025.58450002185
 22
1064.965222670045
 32
0.0
 13
11025.58450002185
 23
1064.965222670045
 33
0.0
  0
MTEXT
  5
BDBE
330
BCA5
100
AcDbEntity
  8
寸法引出
 48
25.0
100
AcDbMText
 10
10975.58450002185
 20
997.4652226700472
 30
0.0
 40
50.0
 41
0.0
 71
     5
 72
     1
  1
\A1;45
  7
SANWA
 11
0.0000000000000001
 21
1.0
 31
0.0
 73
     1
 44
1.0
  0
POINT
  5
BDBF
330
BCA5
100
AcDbEntity
  8
DEFPOINTS
 62
     0
 48
25.0
100
AcDbPoint
 10
10786.9847412692
 20
929.9652226700455
 30
0.0
  0
POINT
  5
BDC0
330
BCA5
100
AcDbEntity
  8
DEFPOINTS
 62
     0
 48
25.0
100
AcDbPoint
 10
10786.9847412692
 20
1064.965222670045
 30
0.0
  0
POINT
  5
BDC1
330
BCA5
100
AcDbEntity
  8
DEFPOINTS
 62
     0
 48
25.0
100
AcDbPoint
 10
11025.58450002185
 20
1064.965222670045
 30
0.0
  0
ENDBLK
  5
BCB0
330
BCA5
100
AcDbEntity
  8
0
 48
25.0
100
AcDbBlockEnd
  0
BLOCK
  5
BCBD
330
BCB1
100
AcDbEntity
  8
0
 48
25.0
100
AcDbBlockBegin
  2
*D50
 70
     1
 10
0.0
 20
0.0
 30
0.0
  3
*D50
  1

  0
LINE
  5
BDC2
330
BCB1
100
AcDbEntity
  8
寸法引出
 48
25.0
370
    -2
100
AcDbLine
 10
11464.71491300952
 20
898.9652226700455
 30
0.0
 11
11464.71491300952
 21
799.7532168526849
 31
0.0
  0
LINE
  5
BDC3
330
BCB1
100
AcDbEntity
  8
寸法引出
 48
25.0
370
    -2
100
AcDbLine
 10
11474.31491300953
 20
904.9652226700455
 30
0.0
 11
11474.31491300953
 21
799.7532168526849
 31
0.0
  0
LINE
  5
BDC4
330
BCB1
100
AcDbEntity
  8
寸法引出
 48
25.0
370
    -2
100
AcDbLine
 10
11427.21491300952
 20
812.253216852685
 30
0.0
 11
11389.71491300952
 21
812.253216852685
 31
0.0
  0
LINE
  5
BDC5
330
BCB1
100
AcDbEntity
  8
寸法引出
 48
25.0
370
    -2
100
AcDbLine
 10
11511.81491300953
 20
812.253216852685
 30
0.0
 11
11549.31491300952
 21
812.253216852685
 31
0.0
  0
LINE
  5
BDC6
330
BCB1
100
AcDbEntity
  8
寸法引出
 48
25.0
370
    -2
100
AcDbLine
 10
11464.71491300952
 20
812.253216852685
 30
0.0
 11
11474.31491300953
 21
812.253216852685
 31
0.0
  0
SOLID
  5
BDC7
330
BCB1
100
AcDbEntity
  8
寸法引出
 48
25.0
100
AcDbTrace
 10
11427.21491300952
 20
818.503216852685
 30
0.0
 11
11427.21491300952
 21
806.003216852685
 31
0.0
 12
11464.71491300952
 22
812.253216852685
 32
0.0
 13
11464.71491300952
 23
812.253216852685
 33
0.0
  0
SOLID
  5
BDC8
330
BCB1
100
AcDbEntity
  8
寸法引出
 48
25.0
100
AcDbTrace
 10
11511.81491300953
 20
818.503216852685
 30
0.0
 11
11511.81491300953
 21
806.003216852685
 31
0.0
 12
11474.31491300953
 22
812.253216852685
 32
0.0
 13
11474.31491300953
 23
812.253216852685
 33
0.0
  0
MTEXT
  5
BDC9
330
BCB1
100
AcDbEntity
  8
寸法引出
 48
25.0
100
AcDbMText
 10
11469.51491300952
 20
862.253216852685
 30
0.0
 40
50.0
 41
0.0
 71
     5
 72
     1
  1
\A1;3.2
  7
SANWA
 73
     1
 44
1.0
  0
POINT
  5
BDCA
330
BCB1
100
AcDbEntity
  8
DEFPOINTS
 62
     0
 48
25.0
100
AcDbPoint
 10
11464.71491300952
 20
923.9652226700455
 30
0.0
  0
POINT
  5
BDCB
330
BCB1
100
AcDbEntity
  8
DEFPOINTS
 62
     0
 48
25.0
100
AcDbPoint
 10
11474.31491300953
 20
929.9652226700455
 30
0.0
  0
POINT
  5
BDCC
330
BCB1
100
AcDbEntity
  8
DEFPOINTS
 62
     0
 48
25.0
100
AcDbPoint
 10
11474.31491300953
 20
812.253216852685
 30
0.0
  0
ENDBLK
  5
BCBE
330
BCB1
100
AcDbEntity
  8
0
 48
25.0
100
AcDbBlockEnd
  0
BLOCK
  5
BCC9
330
BCBF
100
AcDbEntity
  8
0
 48
25.0
100
AcDbBlockBegin
  2
*D51
 70
     1
 10
0.0
 20
0.0
 30
0.0
  3
*D51
  1

  0
LINE
  5
BDCD
330
BCBF
100
AcDbEntity
  8
寸法引出
 48
25.0
370
    -2
100
AcDbLine
 10
12931.82267353655
 20
3410.075433033267
 30
0.0
 11
12931.82267353655
 21
3543.86004506298
 31
0.0
  0
LINE
  5
BDCE
330
BCBF
100
AcDbEntity
  8
寸法引出
 48
25.0
370
    -2
100
AcDbLine
 10
13691.82267353655
 20
3410.075433033267
 30
0.0
 11
13691.82267353655
 21
3543.86004506298
 31
0.0
  0
LINE
  5
BDCF
330
BCBF
100
AcDbEntity
  8
寸法引出
 48
25.0
370
    -2
100
AcDbLine
 10
12969.32267353654
 20
3531.36004506298
 30
0.0
 11
13654.32267353654
 21
3531.36004506298
 31
0.0
  0
SOLID
  5
BDD0
330
BCBF
100
AcDbEntity
  8
寸法引出
 48
25.0
100
AcDbTrace
 10
12969.32267353654
 20
3537.610045062979
 30
0.0
 11
12969.32267353654
 21
3525.11004506298
 31
0.0
 12
12931.82267353655
 22
3531.36004506298
 32
0.0
 13
12931.82267353655
 23
3531.36004506298
 33
0.0
  0
SOLID
  5
BDD1
330
BCBF
100
AcDbEntity
  8
寸法引出
 48
25.0
100
AcDbTrace
 10
13654.32267353654
 20
3537.610045062979
 30
0.0
 11
13654.32267353654
 21
3525.11004506298
 31
0.0
 12
13691.82267353655
 22
3531.36004506298
 32
0.0
 13
13691.82267353655
 23
3531.36004506298
 33
0.0
  0
MTEXT
  5
BDD2
330
BCBF
100
AcDbEntity
  8
寸法引出
 48
25.0
100
AcDbMText
 10
13311.82267353655
 20
3581.36004506298
 30
0.0
 40
50.0
 41
0.0
 71
     5
 72
     1
  1
\A1;760
  7
SANWA
 73
     1
 44
1.0
  0
POINT
  5
BDD3
330
BCBF
100
AcDbEntity
  8
DEFPOINTS
 62
     0
 48
25.0
100
AcDbPoint
 10
12931.82267353655
 20
3385.075433033267
 30
0.0
  0
POINT
  5
BDD4
330
BCBF
100
AcDbEntity
  8
DEFPOINTS
 62
     0
 48
25.0
100
AcDbPoint
 10
13691.82267353655
 20
3385.075433033267
 30
0.0
  0
POINT
  5
BDD5
330
BCBF
100
AcDbEntity
  8
DEFPOINTS
 62
     0
 48
25.0
100
AcDbPoint
 10
13691.82267353655
 20
3531.36004506298
 30
0.0
  0
ENDBLK
  5
BCCA
330
BCBF
100
AcDbEntity
  8
0
 48
25.0
100
AcDbBlockEnd
  0
BLOCK
  5
BCD7
330
BCCB
100
AcDbEntity
  8
0
 48
25.0
100
AcDbBlockBegin
  2
*D52
 70
     1
 10
0.0
 20
0.0
 30
0.0
  3
*D52
  1

  0
LINE
  5
BDD6
330
BCCB
100
AcDbEntity
  8
寸法引出
 48
25.0
370
    -2
100
AcDbLine
 10
12811.82267353655
 20
3410.075433033267
 30
0.0
 11
12811.82267353655
 21
3543.86004506298
 31
0.0
  0
LINE
  5
BDD7
330
BCCB
100
AcDbEntity
  8
寸法引出
 48
25.0
370
    -2
100
AcDbLine
 10
12931.82267353655
 20
3410.075433033267
 30
0.0
 11
12931.82267353655
 21
3543.86004506298
 31
0.0
  0
LINE
  5
BDD8
330
BCCB
100
AcDbEntity
  8
寸法引出
 48
25.0
370
    -2
100
AcDbLine
 10
12774.32267353655
 20
3531.36004506298
 30
0.0
 11
12736.82267353654
 21
3531.36004506298
 31
0.0
  0
LINE
  5
BDD9
330
BCCB
100
AcDbEntity
  8
寸法引出
 48
25.0
370
    -2
100
AcDbLine
 10
12969.32267353654
 20
3531.36004506298
 30
0.0
 11
13006.82267353655
 21
3531.36004506298
 31
0.0
  0
LINE
  5
BDDA
330
BCCB
100
AcDbEntity
  8
寸法引出
 48
25.0
370
    -2
100
AcDbLine
 10
12811.82267353655
 20
3531.36004506298
 30
0.0
 11
12931.82267353655
 21
3531.36004506298
 31
0.0
  0
SOLID
  5
BDDB
330
BCCB
100
AcDbEntity
  8
寸法引出
 48
25.0
100
AcDbTrace
 10
12774.32267353655
 20
3537.610045062979
 30
0.0
 11
12774.32267353655
 21
3525.11004506298
 31
0.0
 12
12811.82267353655
 22
3531.36004506298
 32
0.0
 13
12811.82267353655
 23
3531.36004506298
 33
0.0
  0
SOLID
  5
BDDC
330
BCCB
100
AcDbEntity
  8
寸法引出
 48
25.0
100
AcDbTrace
 10
12969.32267353654
 20
3537.610045062979
 30
0.0
 11
12969.32267353654
 21
3525.11004506298
 31
0.0
 12
12931.82267353655
 22
3531.36004506298
 32
0.0
 13
12931.82267353655
 23
3531.36004506298
 33
0.0
  0
MTEXT
  5
BDDD
330
BCCB
100
AcDbEntity
  8
寸法引出
 48
25.0
100
AcDbMText
 10
12871.82267353655
 20
3581.36004506298
 30
0.0
 40
50.0
 41
0.0
 71
     5
 72
     1
  1
\A1;120
  7
SANWA
 73
     1
 44
1.0
  0
POINT
  5
BDDE
330
BCCB
100
AcDbEntity
  8
DEFPOINTS
 62
     0
 48
25.0
100
AcDbPoint
 10
12811.82267353655
 20
3385.075433033267
 30
0.0
  0
POINT
  5
BDDF
330
BCCB
100
AcDbEntity
  8
DEFPOINTS
 62
     0
 48
25.0
100
AcDbPoint
 10
12931.82267353655
 20
3385.075433033267
 30
0.0
  0
POINT
  5
BDE0
330
BCCB
100
AcDbEntity
  8
DEFPOINTS
 62
     0
 48
25.0
100
AcDbPoint
 10
12931.82267353655
 20
3531.36004506298
 30
0.0
  0
ENDBLK
  5
BCD8
330
BCCB
100
AcDbEntity
  8
0
 48
25.0
100
AcDbBlockEnd
  0
BLOCK
  5
BCE5
330
BCD9
100
AcDbEntity
  8
0
 48
25.0
100
AcDbBlockBegin
  2
*D53
 70
     1
 10
0.0
 20
0.0
 30
0.0
  3
*D53
  1

  0
LINE
  5
BDE1
330
BCD9
100
AcDbEntity
  8
寸法引出
 48
25.0
370
    -2
100
AcDbLine
 10
12811.82267353655
 20
3185.575433033267
 30
0.0
 11
12811.82267353655
 21
3087.500440027505
 31
0.0
  0
LINE
  5
BDE2
330
BCD9
100
AcDbEntity
  8
寸法引出
 48
25.0
370
    -2
100
AcDbLine
 10
12861.82267353654
 20
3210.075433033267
 30
0.0
 11
12861.82267353654
 21
3087.500440027505
 31
0.0
  0
LINE
  5
BDE3
330
BCD9
100
AcDbEntity
  8
寸法引出
 48
25.0
370
    -2
100
AcDbLine
 10
12774.32267353655
 20
3100.000440027505
 30
0.0
 11
12736.82267353654
 21
3100.000440027505
 31
0.0
  0
LINE
  5
BDE4
330
BCD9
100
AcDbEntity
  8
寸法引出
 48
25.0
370
    -2
100
AcDbLine
 10
12899.32267353655
 20
3100.000440027505
 30
0.0
 11
12936.82267353654
 21
3100.000440027505
 31
0.0
  0
LINE
  5
BDE5
330
BCD9
100
AcDbEntity
  8
寸法引出
 48
25.0
370
    -2
100
AcDbLine
 10
12811.82267353655
 20
3100.000440027505
 30
0.0
 11
12861.82267353654
 21
3100.000440027505
 31
0.0
  0
SOLID
  5
BDE6
330
BCD9
100
AcDbEntity
  8
寸法引出
 48
25.0
100
AcDbTrace
 10
12774.32267353655
 20
3106.250440027505
 30
0.0
 11
12774.32267353655
 21
3093.750440027505
 31
0.0
 12
12811.82267353655
 22
3100.000440027505
 32
0.0
 13
12811.82267353655
 23
3100.000440027505
 33
0.0
  0
SOLID
  5
BDE7
330
BCD9
100
AcDbEntity
  8
寸法引出
 48
25.0
100
AcDbTrace
 10
12899.32267353655
 20
3106.250440027505
 30
0.0
 11
12899.32267353655
 21
3093.750440027505
 31
0.0
 12
12861.82267353654
 22
3100.000440027505
 32
0.0
 13
12861.82267353654
 23
3100.000440027505
 33
0.0
  0
MTEXT
  5
BDE8
330
BCD9
100
AcDbEntity
  8
寸法引出
 48
25.0
100
AcDbMText
 10
12836.82267353654
 20
3150.000440027505
 30
0.0
 40
50.0
 41
0.0
 71
     5
 72
     1
  1
\A1;50
  7
SANWA
 73
     1
 44
1.0
  0
POINT
  5
BDE9
330
BCD9
100
AcDbEntity
  8
DEFPOINTS
 62
     0
 48
25.0
100
AcDbPoint
 10
12811.82267353655
 20
3210.575433033267
 30
0.0
  0
POINT
  5
BDEA
330
BCD9
100
AcDbEntity
  8
DEFPOINTS
 62
     0
 48
25.0
100
AcDbPoint
 10
12861.82267353654
 20
3235.075433033268
 30
0.0
  0
POINT
  5
BDEB
330
BCD9
100
AcDbEntity
  8
DEFPOINTS
 62
     0
 48
25.0
100
AcDbPoint
 10
12861.82267353654
 20
3100.000440027505
 30
0.0
  0
ENDBLK
  5
BCE6
330
BCD9
100
AcDbEntity
  8
0
 48
25.0
100
AcDbBlockEnd
  0
BLOCK
  5
BCF1
330
BCE7
100
AcDbEntity
  8
0
 48
25.0
100
AcDbBlockBegin
  2
*D54
 70
     1
 10
0.0
 20
0.0
 30
0.0
  3
*D54
  1

  0
LINE
  5
BDEC
330
BCE7
100
AcDbEntity
  8
寸法引出
 48
25.0
370
    -2
100
AcDbLine
 10
12786.82267353655
 20
3235.075433033268
 30
0.0
 11
12672.09031625558
 21
3235.075433033268
 31
0.0
  0
LINE
  5
BDED
330
BCE7
100
AcDbEntity
  8
寸法引出
 48
25.0
370
    -2
100
AcDbLine
 10
12786.82267353655
 20
3385.075433033267
 30
0.0
 11
12672.09031625558
 21
3385.075433033267
 31
0.0
  0
LINE
  5
BDEE
330
BCE7
100
AcDbEntity
  8
寸法引出
 48
25.0
370
    -2
100
AcDbLine
 10
12684.59031625558
 20
3272.575433033267
 30
0.0
 11
12684.59031625558
 21
3347.575433033267
 31
0.0
  0
SOLID
  5
BDEF
330
BCE7
100
AcDbEntity
  8
寸法引出
 48
25.0
100
AcDbTrace
 10
12678.34031625558
 20
3272.575433033267
 30
0.0
 11
12690.84031625558
 21
3272.575433033267
 31
0.0
 12
12684.59031625558
 22
3235.075433033268
 32
0.0
 13
12684.59031625558
 23
3235.075433033268
 33
0.0
  0
SOLID
  5
BDF0
330
BCE7
100
AcDbEntity
  8
寸法引出
 48
25.0
100
AcDbTrace
 10
12678.34031625558
 20
3347.575433033267
 30
0.0
 11
12690.84031625558
 21
3347.575433033267
 31
0.0
 12
12684.59031625558
 22
3385.075433033267
 32
0.0
 13
12684.59031625558
 23
3385.075433033267
 33
0.0
  0
MTEXT
  5
BDF1
330
BCE7
100
AcDbEntity
  8
寸法引出
 48
25.0
100
AcDbMText
 10
12634.59031625558
 20
3310.075433033269
 30
0.0
 40
50.0
 41
0.0
 71
     5
 72
     1
  1
\A1;150
  7
SANWA
 11
0.0000000000000001
 21
1.0
 31
0.0
 73
     1
 44
1.0
  0
POINT
  5
BDF2
330
BCE7
100
AcDbEntity
  8
DEFPOINTS
 62
     0
 48
25.0
100
AcDbPoint
 10
12811.82267353655
 20
3235.075433033268
 30
0.0
  0
POINT
  5
BDF3
330
BCE7
100
AcDbEntity
  8
DEFPOINTS
 62
     0
 48
25.0
100
AcDbPoint
 10
12811.82267353655
 20
3385.075433033267
 30
0.0
  0
POINT
  5
BDF4
330
BCE7
100
AcDbEntity
  8
DEFPOINTS
 62
     0
 48
25.0
100
AcDbPoint
 10
12684.59031625558
 20
3385.075433033267
 30
0.0
  0
ENDBLK
  5
BCF2
330
BCE7
100
AcDbEntity
  8
0
 48
25.0
100
AcDbBlockEnd
  0
BLOCK
  5
BCFD
330
BCF3
100
AcDbEntity
  8
0
 48
25.0
100
AcDbBlockBegin
  2
*D55
 70
     1
 10
0.0
 20
0.0
 30
0.0
  3
*D55
  1

  0
LINE
  5
BDF5
330
BCF3
100
AcDbEntity
  8
寸法引出
 48
25.0
370
    -2
100
AcDbLine
 10
13691.82267353655
 20
3410.075433033267
 30
0.0
 11
13691.82267353655
 21
3543.86004506298
 31
0.0
  0
LINE
  5
BDF6
330
BCF3
100
AcDbEntity
  8
寸法引出
 48
25.0
370
    -2
100
AcDbLine
 10
13931.82267353655
 20
3410.075433033267
 30
0.0
 11
13931.82267353655
 21
3543.86004506298
 31
0.0
  0
LINE
  5
BDF7
330
BCF3
100
AcDbEntity
  8
寸法引出
 48
25.0
370
    -2
100
AcDbLine
 10
13729.32267353655
 20
3531.36004506298
 30
0.0
 11
13894.32267353654
 21
3531.36004506298
 31
0.0
  0
SOLID
  5
BDF8
330
BCF3
100
AcDbEntity
  8
寸法引出
 48
25.0
100
AcDbTrace
 10
13729.32267353655
 20
3537.610045062979
 30
0.0
 11
13729.32267353655
 21
3525.11004506298
 31
0.0
 12
13691.82267353655
 22
3531.36004506298
 32
0.0
 13
13691.82267353655
 23
3531.36004506298
 33
0.0
  0
SOLID
  5
BDF9
330
BCF3
100
AcDbEntity
  8
寸法引出
 48
25.0
100
AcDbTrace
 10
13894.32267353654
 20
3537.610045062979
 30
0.0
 11
13894.32267353654
 21
3525.11004506298
 31
0.0
 12
13931.82267353655
 22
3531.36004506298
 32
0.0
 13
13931.82267353655
 23
3531.36004506298
 33
0.0
  0
MTEXT
  5
BDFA
330
BCF3
100
AcDbEntity
  8
寸法引出
 48
25.0
100
AcDbMText
 10
13811.82267353655
 20
3581.36004506298
 30
0.0
 40
50.0
 41
0.0
 71
     5
 72
     1
  1
\A1;240
  7
SANWA
 73
     1
 44
1.0
  0
POINT
  5
BDFB
330
BCF3
100
AcDbEntity
  8
DEFPOINTS
 62
     0
 48
25.0
100
AcDbPoint
 10
13691.82267353655
 20
3385.075433033267
 30
0.0
  0
POINT
  5
BDFC
330
BCF3
100
AcDbEntity
  8
DEFPOINTS
 62
     0
 48
25.0
100
AcDbPoint
 10
13931.82267353655
 20
3385.075433033267
 30
0.0
  0
POINT
  5
BDFD
330
BCF3
100
AcDbEntity
  8
DEFPOINTS
 62
     0
 48
25.0
100
AcDbPoint
 10
13931.82267353655
 20
3531.36004506298
 30
0.0
  0
ENDBLK
  5
BCFE
330
BCF3
100
AcDbEntity
  8
0
 48
25.0
100
AcDbBlockEnd
  0
BLOCK
  5
BD0B
330
BCFF
100
AcDbEntity
  8
0
 48
25.0
100
AcDbBlockBegin
  2
*D56
 70
     1
 10
0.0
 20
0.0
 30
0.0
  3
*D56
  1

  0
LINE
  5
BDFE
330
BCFF
100
AcDbEntity
  8
寸法引出
 48
25.0
370
    -2
100
AcDbLine
 10
14691.82267353654
 20
3410.075433033267
 30
0.0
 11
14691.82267353654
 21
3543.86004506298
 31
0.0
  0
LINE
  5
BDFF
330
BCFF
100
AcDbEntity
  8
寸法引出
 48
25.0
370
    -2
100
AcDbLine
 10
14811.82267353655
 20
3410.075433033267
 30
0.0
 11
14811.82267353655
 21
3543.86004506298
 31
0.0
  0
LINE
  5
BE00
330
BCFF
100
AcDbEntity
  8
寸法引出
 48
25.0
370
    -2
100
AcDbLine
 10
14654.32267353655
 20
3531.36004506298
 30
0.0
 11
14616.82267353655
 21
3531.36004506298
 31
0.0
  0
LINE
  5
BE01
330
BCFF
100
AcDbEntity
  8
寸法引出
 48
25.0
370
    -2
100
AcDbLine
 10
14849.32267353655
 20
3531.36004506298
 30
0.0
 11
14886.82267353655
 21
3531.36004506298
 31
0.0
  0
LINE
  5
BE02
330
BCFF
100
AcDbEntity
  8
寸法引出
 48
25.0
370
    -2
100
AcDbLine
 10
14691.82267353654
 20
3531.36004506298
 30
0.0
 11
14811.82267353655
 21
3531.36004506298
 31
0.0
  0
SOLID
  5
BE03
330
BCFF
100
AcDbEntity
  8
寸法引出
 48
25.0
100
AcDbTrace
 10
14654.32267353655
 20
3537.610045062979
 30
0.0
 11
14654.32267353655
 21
3525.11004506298
 31
0.0
 12
14691.82267353654
 22
3531.36004506298
 32
0.0
 13
14691.82267353654
 23
3531.36004506298
 33
0.0
  0
SOLID
  5
BE04
330
BCFF
100
AcDbEntity
  8
寸法引出
 48
25.0
100
AcDbTrace
 10
14849.32267353655
 20
3537.610045062979
 30
0.0
 11
14849.32267353655
 21
3525.11004506298
 31
0.0
 12
14811.82267353655
 22
3531.36004506298
 32
0.0
 13
14811.82267353655
 23
3531.36004506298
 33
0.0
  0
MTEXT
  5
BE05
330
BCFF
100
AcDbEntity
  8
寸法引出
 48
25.0
100
AcDbMText
 10
14751.82267353654
 20
3581.36004506298
 30
0.0
 40
50.0
 41
0.0
 71
     5
 72
     1
  1
\A1;120
  7
SANWA
 73
     1
 44
1.0
  0
POINT
  5
BE06
330
BCFF
100
AcDbEntity
  8
DEFPOINTS
 62
     0
 48
25.0
100
AcDbPoint
 10
14691.82267353654
 20
3385.075433033267
 30
0.0
  0
POINT
  5
BE07
330
BCFF
100
AcDbEntity
  8
DEFPOINTS
 62
     0
 48
25.0
100
AcDbPoint
 10
14811.82267353655
 20
3385.075433033267
 30
0.0
  0
POINT
  5
BE08
330
BCFF
100
AcDbEntity
  8
DEFPOINTS
 62
     0
 48
25.0
100
AcDbPoint
 10
14811.82267353655
 20
3531.36004506298
 30
0.0
  0
ENDBLK
  5
BD0C
330
BCFF
100
AcDbEntity
  8
0
 48
25.0
100
AcDbBlockEnd
  0
BLOCK
  5
BD17
330
BD0D
100
AcDbEntity
  8
0
 48
25.0
100
AcDbBlockBegin
  2
*D57
 70
     1
 10
0.0
 20
0.0
 30
0.0
  3
*D57
  1

  0
LINE
  5
BE09
330
BD0D
100
AcDbEntity
  8
寸法引出
 48
25.0
370
    -2
100
AcDbLine
 10
12811.82267353655
 20
3410.075433033267
 30
0.0
 11
12811.82267353655
 21
3666.988116559731
 31
0.0
  0
LINE
  5
BE0A
330
BD0D
100
AcDbEntity
  8
寸法引出
 48
25.0
370
    -2
100
AcDbLine
 10
14811.82267353655
 20
3410.075433033267
 30
0.0
 11
14811.82267353655
 21
3666.988116559731
 31
0.0
  0
LINE
  5
BE0B
330
BD0D
100
AcDbEntity
  8
寸法引出
 48
25.0
370
    -2
100
AcDbLine
 10
12849.32267353654
 20
3654.488116559731
 30
0.0
 11
14774.32267353655
 21
3654.488116559731
 31
0.0
  0
SOLID
  5
BE0C
330
BD0D
100
AcDbEntity
  8
寸法引出
 48
25.0
100
AcDbTrace
 10
12849.32267353654
 20
3660.738116559731
 30
0.0
 11
12849.32267353654
 21
3648.238116559731
 31
0.0
 12
12811.82267353655
 22
3654.488116559731
 32
0.0
 13
12811.82267353655
 23
3654.488116559731
 33
0.0
  0
SOLID
  5
BE0D
330
BD0D
100
AcDbEntity
  8
寸法引出
 48
25.0
100
AcDbTrace
 10
14774.32267353655
 20
3660.738116559731
 30
0.0
 11
14774.32267353655
 21
3648.238116559731
 31
0.0
 12
14811.82267353655
 22
3654.488116559731
 32
0.0
 13
14811.82267353655
 23
3654.488116559731
 33
0.0
  0
MTEXT
  5
BE0E
330
BD0D
100
AcDbEntity
  8
寸法引出
 48
25.0
100
AcDbMText
 10
13811.82267353655
 20
3704.488116559731
 30
0.0
 40
50.0
 41
0.0
 71
     5
 72
     1
  1
\A1;2000
  7
SANWA
 73
     1
 44
1.0
  0
POINT
  5
BE0F
330
BD0D
100
AcDbEntity
  8
DEFPOINTS
 62
     0
 48
25.0
100
AcDbPoint
 10
12811.82267353655
 20
3385.075433033267
 30
0.0
  0
POINT
  5
BE10
330
BD0D
100
AcDbEntity
  8
DEFPOINTS
 62
     0
 48
25.0
100
AcDbPoint
 10
14811.82267353655
 20
3385.075433033267
 30
0.0
  0
POINT
  5
BE11
330
BD0D
100
AcDbEntity
  8
DEFPOINTS
 62
     0
 48
25.0
100
AcDbPoint
 10
14811.82267353655
 20
3654.488116559731
 30
0.0
  0
ENDBLK
  5
BD18
330
BD0D
100
AcDbEntity
  8
0
 48
25.0
100
AcDbBlockEnd
  0
BLOCK
  5
BD23
330
BD19
100
AcDbEntity
  8
0
 48
25.0
100
AcDbBlockBegin
  2
*D58
 70
     1
 10
0.0
 20
0.0
 30
0.0
  3
*D58
  1

  0
LINE
  5
BE12
330
BD19
100
AcDbEntity
  8
寸法引出
 48
25.0
370
    -2
100
AcDbLine
 10
13931.82267353655
 20
3410.075433033267
 30
0.0
 11
13931.82267353655
 21
3543.86004506298
 31
0.0
  0
LINE
  5
BE13
330
BD19
100
AcDbEntity
  8
寸法引出
 48
25.0
370
    -2
100
AcDbLine
 10
14691.82267353654
 20
3410.075433033267
 30
0.0
 11
14691.82267353654
 21
3543.86004506298
 31
0.0
  0
LINE
  5
BE14
330
BD19
100
AcDbEntity
  8
寸法引出
 48
25.0
370
    -2
100
AcDbLine
 10
13969.32267353655
 20
3531.36004506298
 30
0.0
 11
14654.32267353655
 21
3531.36004506298
 31
0.0
  0
SOLID
  5
BE15
330
BD19
100
AcDbEntity
  8
寸法引出
 48
25.0
100
AcDbTrace
 10
13969.32267353655
 20
3537.610045062979
 30
0.0
 11
13969.32267353655
 21
3525.11004506298
 31
0.0
 12
13931.82267353655
 22
3531.36004506298
 32
0.0
 13
13931.82267353655
 23
3531.36004506298
 33
0.0
  0
SOLID
  5
BE16
330
BD19
100
AcDbEntity
  8
寸法引出
 48
25.0
100
AcDbTrace
 10
14654.32267353655
 20
3537.610045062979
 30
0.0
 11
14654.32267353655
 21
3525.11004506298
 31
0.0
 12
14691.82267353654
 22
3531.36004506298
 32
0.0
 13
14691.82267353654
 23
3531.36004506298
 33
0.0
  0
MTEXT
  5
BE17
330
BD19
100
AcDbEntity
  8
寸法引出
 48
25.0
100
AcDbMText
 10
14311.82267353654
 20
3581.36004506298
 30
0.0
 40
50.0
 41
0.0
 71
     5
 72
     1
  1
\A1;760
  7
SANWA
 73
     1
 44
1.0
  0
POINT
  5
BE18
330
BD19
100
AcDbEntity
  8
DEFPOINTS
 62
     0
 48
25.0
100
AcDbPoint
 10
13931.82267353655
 20
3385.075433033267
 30
0.0
  0
POINT
  5
BE19
330
BD19
100
AcDbEntity
  8
DEFPOINTS
 62
     0
 48
25.0
100
AcDbPoint
 10
14691.82267353654
 20
3385.075433033267
 30
0.0
  0
POINT
  5
BE1A
330
BD19
100
AcDbEntity
  8
DEFPOINTS
 62
     0
 48
25.0
100
AcDbPoint
 10
14691.82267353654
 20
3531.36004506298
 30
0.0
  0
ENDBLK
  5
BD24
330
BD19
100
AcDbEntity
  8
0
 48
25.0
100
AcDbBlockEnd
  0
BLOCK
  5
BD31
330
BD25
100
AcDbEntity
  8
0
 48
25.0
100
AcDbBlockBegin
  2
*D59
 70
     1
 10
0.0
 20
0.0
 30
0.0
  3
*D59
  1

  0
LINE
  5
BE1B
330
BD25
100
AcDbEntity
  8
寸法引出
 48
25.0
370
    -2
100
AcDbLine
 10
10786.9847412692
 20
1089.965222670045
 30
0.0
 11
10786.9847412692
 21
1163.960115885747
 31
0.0
  0
LINE
  5
BE1C
330
BD25
100
AcDbEntity
  8
寸法引出
 48
25.0
370
    -2
100
AcDbLine
 10
10792.9847412692
 20
1095.965222670045
 30
0.0
 11
10792.9847412692
 21
1163.960115885747
 31
0.0
  0
LINE
  5
BE1D
330
BD25
100
AcDbEntity
  8
寸法引出
 48
25.0
370
    -2
100
AcDbLine
 10
10749.4847412692
 20
1151.460115885747
 30
0.0
 11
10711.9847412692
 21
1151.460115885747
 31
0.0
  0
LINE
  5
BE1E
330
BD25
100
AcDbEntity
  8
寸法引出
 48
25.0
370
    -2
100
AcDbLine
 10
10830.4847412692
 20
1151.460115885747
 30
0.0
 11
10867.9847412692
 21
1151.460115885747
 31
0.0
  0
LINE
  5
BE1F
330
BD25
100
AcDbEntity
  8
寸法引出
 48
25.0
370
    -2
100
AcDbLine
 10
10786.9847412692
 20
1151.460115885747
 30
0.0
 11
10792.9847412692
 21
1151.460115885747
 31
0.0
  0
SOLID
  5
BE20
330
BD25
100
AcDbEntity
  8
寸法引出
 48
25.0
100
AcDbTrace
 10
10749.4847412692
 20
1157.710115885747
 30
0.0
 11
10749.4847412692
 21
1145.210115885747
 31
0.0
 12
10786.9847412692
 22
1151.460115885747
 32
0.0
 13
10786.9847412692
 23
1151.460115885747
 33
0.0
  0
SOLID
  5
BE21
330
BD25
100
AcDbEntity
  8
寸法引出
 48
25.0
100
AcDbTrace
 10
10830.4847412692
 20
1157.710115885747
 30
0.0
 11
10830.4847412692
 21
1145.210115885747
 31
0.0
 12
10792.9847412692
 22
1151.460115885747
 32
0.0
 13
10792.9847412692
 23
1151.460115885747
 33
0.0
  0
MTEXT
  5
BE22
330
BD25
100
AcDbEntity
  8
寸法引出
 48
25.0
100
AcDbMText
 10
10789.9847412692
 20
1201.460115885747
 30
0.0
 40
50.0
 41
0.0
 71
     5
 72
     1
  1
\A1;2
  7
SANWA
 73
     1
 44
1.0
  0
POINT
  5
BE23
330
BD25
100
AcDbEntity
  8
DEFPOINTS
 62
     0
 48
25.0
100
AcDbPoint
 10
10786.9847412692
 20
1064.965222670045
 30
0.0
  0
POINT
  5
BE24
330
BD25
100
AcDbEntity
  8
DEFPOINTS
 62
     0
 48
25.0
100
AcDbPoint
 10
10792.9847412692
 20
1070.965222670045
 30
0.0
  0
POINT
  5
BE25
330
BD25
100
AcDbEntity
  8
DEFPOINTS
 62
     0
 48
25.0
100
AcDbPoint
 10
10792.9847412692
 20
1151.460115885747
 30
0.0
  0
ENDBLK
  5
BD32
330
BD25
100
AcDbEntity
  8
0
 48
25.0
100
AcDbBlockEnd
  0
BLOCK
  5
C119
330
C10F
100
AcDbEntity
  8
0
 48
25.0
100
AcDbBlockBegin
  2
*D60
 70
     1
 10
0.0
 20
0.0
 30
0.0
  3
*D60
  1

  0
LINE
  5
CE71
330
C10F
100
AcDbEntity
  8
寸法引出
 48
25.0
370
    -2
100
AcDbLine
 10
5243.469910207107
 20
3410.075433030023
 30
0.0
 11
5243.469910207107
 21
3543.860045059736
 31
0.0
  0
LINE
  5
CE72
330
C10F
100
AcDbEntity
  8
寸法引出
 48
25.0
370
    -2
100
AcDbLine
 10
6003.469910207106
 20
3410.075433030023
 30
0.0
 11
6003.469910207106
 21
3543.860045059736
 31
0.0
  0
LINE
  5
CE73
330
C10F
100
AcDbEntity
  8
寸法引出
 48
25.0
370
    -2
100
AcDbLine
 10
5280.969910207106
 20
3531.360045059736
 30
0.0
 11
5965.969910207107
 21
3531.360045059736
 31
0.0
  0
SOLID
  5
CE74
330
C10F
100
AcDbEntity
  8
寸法引出
 48
25.0
100
AcDbTrace
 10
5280.969910207106
 20
3537.610045059736
 30
0.0
 11
5280.969910207106
 21
3525.110045059736
 31
0.0
 12
5243.469910207107
 22
3531.360045059736
 32
0.0
 13
5243.469910207107
 23
3531.360045059736
 33
0.0
  0
SOLID
  5
CE75
330
C10F
100
AcDbEntity
  8
寸法引出
 48
25.0
100
AcDbTrace
 10
5965.969910207107
 20
3537.610045059736
 30
0.0
 11
5965.969910207107
 21
3525.110045059736
 31
0.0
 12
6003.469910207106
 22
3531.360045059736
 32
0.0
 13
6003.469910207106
 23
3531.360045059736
 33
0.0
  0
MTEXT
  5
CE76
330
C10F
100
AcDbEntity
  8
寸法引出
 48
25.0
100
AcDbMText
 10
5623.469910207106
 20
3581.360045059736
 30
0.0
 40
50.0
 41
0.0
 71
     5
 72
     1
  1
\A1;760
  7
SANWA
 73
     1
 44
1.0
  0
POINT
  5
CE77
330
C10F
100
AcDbEntity
  8
DEFPOINTS
 62
     0
 48
25.0
100
AcDbPoint
 10
5243.469910207107
 20
3385.075433030023
 30
0.0
  0
POINT
  5
CE78
330
C10F
100
AcDbEntity
  8
DEFPOINTS
 62
     0
 48
25.0
100
AcDbPoint
 10
6003.469910207106
 20
3385.075433030023
 30
0.0
  0
POINT
  5
CE79
330
C10F
100
AcDbEntity
  8
DEFPOINTS
 62
     0
 48
25.0
100
AcDbPoint
 10
6003.469910207106
 20
3531.360045059736
 30
0.0
  0
ENDBLK
  5
C11A
330
C10F
100
AcDbEntity
  8
0
 48
25.0
100
AcDbBlockEnd
  0
BLOCK
  5
C125
330
C11B
100
AcDbEntity
  8
0
 48
25.0
100
AcDbBlockBegin
  2
*D61
 70
     1
 10
0.0
 20
0.0
 30
0.0
  3
*D61
  1

  0
LINE
  5
CE2C
330
C11B
100
AcDbEntity
  8
寸法引出
 48
25.0
370
    -2
100
AcDbLine
 10
4123.469910207106
 20
3410.075433030023
 30
0.0
 11
4123.469910207106
 21
3666.988116556487
 31
0.0
  0
LINE
  5
CE2D
330
C11B
100
AcDbEntity
  8
寸法引出
 48
25.0
370
    -2
100
AcDbLine
 10
6123.469910207106
 20
3410.075433030023
 30
0.0
 11
6123.469910207106
 21
3666.988116556487
 31
0.0
  0
LINE
  5
CE2E
330
C11B
100
AcDbEntity
  8
寸法引出
 48
25.0
370
    -2
100
AcDbLine
 10
4160.969910207106
 20
3654.488116556486
 30
0.0
 11
6085.969910207106
 21
3654.488116556486
 31
0.0
  0
SOLID
  5
CE2F
330
C11B
100
AcDbEntity
  8
寸法引出
 48
25.0
100
AcDbTrace
 10
4160.969910207106
 20
3660.738116556486
 30
0.0
 11
4160.969910207106
 21
3648.238116556486
 31
0.0
 12
4123.469910207106
 22
3654.488116556486
 32
0.0
 13
4123.469910207106
 23
3654.488116556486
 33
0.0
  0
SOLID
  5
CE30
330
C11B
100
AcDbEntity
  8
寸法引出
 48
25.0
100
AcDbTrace
 10
6085.969910207106
 20
3660.738116556486
 30
0.0
 11
6085.969910207106
 21
3648.238116556486
 31
0.0
 12
6123.469910207106
 22
3654.488116556486
 32
0.0
 13
6123.469910207106
 23
3654.488116556486
 33
0.0
  0
MTEXT
  5
CE31
330
C11B
100
AcDbEntity
  8
寸法引出
 48
25.0
100
AcDbMText
 10
5123.469910207106
 20
3704.488116556486
 30
0.0
 40
50.0
 41
0.0
 71
     5
 72
     1
  1
\A1;2000
  7
SANWA
 73
     1
 44
1.0
  0
POINT
  5
CE32
330
C11B
100
AcDbEntity
  8
DEFPOINTS
 62
     0
 48
25.0
100
AcDbPoint
 10
4123.469910207106
 20
3385.075433030023
 30
0.0
  0
POINT
  5
CE33
330
C11B
100
AcDbEntity
  8
DEFPOINTS
 62
     0
 48
25.0
100
AcDbPoint
 10
6123.469910207106
 20
3385.075433030023
 30
0.0
  0
POINT
  5
CE34
330
C11B
100
AcDbEntity
  8
DEFPOINTS
 62
     0
 48
25.0
100
AcDbPoint
 10
6123.469910207106
 20
3654.488116556486
 30
0.0
  0
ENDBLK
  5
C126
330
C11B
100
AcDbEntity
  8
0
 48
25.0
100
AcDbBlockEnd
  0
BLOCK
  5
C131
330
C127
100
AcDbEntity
  8
0
 48
25.0
100
AcDbBlockBegin
  2
*D62
 70
     1
 10
0.0
 20
0.0
 30
0.0
  3
*D62
  1

  0
LINE
  5
CE7A
330
C127
100
AcDbEntity
  8
寸法引出
 48
25.0
370
    -2
100
AcDbLine
 10
4243.469910207106
 20
3410.075433030023
 30
0.0
 11
4243.469910207106
 21
3543.860045059736
 31
0.0
  0
LINE
  5
CE7B
330
C127
100
AcDbEntity
  8
寸法引出
 48
25.0
370
    -2
100
AcDbLine
 10
5003.469910207106
 20
3410.075433030023
 30
0.0
 11
5003.469910207106
 21
3543.860045059736
 31
0.0
  0
LINE
  5
CE7C
330
C127
100
AcDbEntity
  8
寸法引出
 48
25.0
370
    -2
100
AcDbLine
 10
4280.969910207106
 20
3531.360045059736
 30
0.0
 11
4965.969910207107
 21
3531.360045059736
 31
0.0
  0
SOLID
  5
CE7D
330
C127
100
AcDbEntity
  8
寸法引出
 48
25.0
100
AcDbTrace
 10
4280.969910207106
 20
3537.610045059736
 30
0.0
 11
4280.969910207106
 21
3525.110045059736
 31
0.0
 12
4243.469910207106
 22
3531.360045059736
 32
0.0
 13
4243.469910207106
 23
3531.360045059736
 33
0.0
  0
SOLID
  5
CE7E
330
C127
100
AcDbEntity
  8
寸法引出
 48
25.0
100
AcDbTrace
 10
4965.969910207107
 20
3537.610045059736
 30
0.0
 11
4965.969910207107
 21
3525.110045059736
 31
0.0
 12
5003.469910207106
 22
3531.360045059736
 32
0.0
 13
5003.469910207106
 23
3531.360045059736
 33
0.0
  0
MTEXT
  5
CE7F
330
C127
100
AcDbEntity
  8
寸法引出
 48
25.0
100
AcDbMText
 10
4623.469910207106
 20
3581.360045059736
 30
0.0
 40
50.0
 41
0.0
 71
     5
 72
     1
  1
\A1;760
  7
SANWA
 73
     1
 44
1.0
  0
POINT
  5
CE80
330
C127
100
AcDbEntity
  8
DEFPOINTS
 62
     0
 48
25.0
100
AcDbPoint
 10
4243.469910207106
 20
3385.075433030023
 30
0.0
  0
POINT
  5
CE81
330
C127
100
AcDbEntity
  8
DEFPOINTS
 62
     0
 48
25.0
100
AcDbPoint
 10
5003.469910207106
 20
3385.075433030023
 30
0.0
  0
POINT
  5
CE82
330
C127
100
AcDbEntity
  8
DEFPOINTS
 62
     0
 48
25.0
100
AcDbPoint
 10
5003.469910207106
 20
3531.360045059736
 30
0.0
  0
ENDBLK
  5
C132
330
C127
100
AcDbEntity
  8
0
 48
25.0
100
AcDbBlockEnd
  0
BLOCK
  5
C13F
330
C133
100
AcDbEntity
  8
0
 48
25.0
100
AcDbBlockBegin
  2
*D63
 70
     1
 10
0.0
 20
0.0
 30
0.0
  3
*D63
  1

  0
LINE
  5
CE35
330
C133
100
AcDbEntity
  8
寸法引出
 48
25.0
370
    -2
100
AcDbLine
 10
4123.469910207106
 20
3410.075433030023
 30
0.0
 11
4123.469910207106
 21
3543.860045059736
 31
0.0
  0
LINE
  5
CE36
330
C133
100
AcDbEntity
  8
寸法引出
 48
25.0
370
    -2
100
AcDbLine
 10
4243.469910207106
 20
3410.075433030023
 30
0.0
 11
4243.469910207106
 21
3543.860045059736
 31
0.0
  0
LINE
  5
CE37
330
C133
100
AcDbEntity
  8
寸法引出
 48
25.0
370
    -2
100
AcDbLine
 10
4085.969910207106
 20
3531.360045059736
 30
0.0
 11
4048.469910207106
 21
3531.360045059736
 31
0.0
  0
LINE
  5
CE38
330
C133
100
AcDbEntity
  8
寸法引出
 48
25.0
370
    -2
100
AcDbLine
 10
4280.969910207106
 20
3531.360045059736
 30
0.0
 11
4318.469910207106
 21
3531.360045059736
 31
0.0
  0
LINE
  5
CE39
330
C133
100
AcDbEntity
  8
寸法引出
 48
25.0
370
    -2
100
AcDbLine
 10
4123.469910207106
 20
3531.360045059736
 30
0.0
 11
4243.469910207106
 21
3531.360045059736
 31
0.0
  0
SOLID
  5
CE3A
330
C133
100
AcDbEntity
  8
寸法引出
 48
25.0
100
AcDbTrace
 10
4085.969910207106
 20
3537.610045059736
 30
0.0
 11
4085.969910207106
 21
3525.110045059736
 31
0.0
 12
4123.469910207106
 22
3531.360045059736
 32
0.0
 13
4123.469910207106
 23
3531.360045059736
 33
0.0
  0
SOLID
  5
CE3B
330
C133
100
AcDbEntity
  8
寸法引出
 48
25.0
100
AcDbTrace
 10
4280.969910207106
 20
3537.610045059736
 30
0.0
 11
4280.969910207106
 21
3525.110045059736
 31
0.0
 12
4243.469910207106
 22
3531.360045059736
 32
0.0
 13
4243.469910207106
 23
3531.360045059736
 33
0.0
  0
MTEXT
  5
CE3C
330
C133
100
AcDbEntity
  8
寸法引出
 48
25.0
100
AcDbMText
 10
4183.469910207106
 20
3581.360045059736
 30
0.0
 40
50.0
 41
0.0
 71
     5
 72
     1
  1
\A1;120
  7
SANWA
 73
     1
 44
1.0
  0
POINT
  5
CE3D
330
C133
100
AcDbEntity
  8
DEFPOINTS
 62
     0
 48
25.0
100
AcDbPoint
 10
4123.469910207106
 20
3385.075433030023
 30
0.0
  0
POINT
  5
CE3E
330
C133
100
AcDbEntity
  8
DEFPOINTS
 62
     0
 48
25.0
100
AcDbPoint
 10
4243.469910207106
 20
3385.075433030023
 30
0.0
  0
POINT
  5
CE3F
330
C133
100
AcDbEntity
  8
DEFPOINTS
 62
     0
 48
25.0
100
AcDbPoint
 10
4243.469910207106
 20
3531.360045059736
 30
0.0
  0
ENDBLK
  5
C140
330
C133
100
AcDbEntity
  8
0
 48
25.0
100
AcDbBlockEnd
  0
BLOCK
  5
C14D
330
C141
100
AcDbEntity
  8
0
 48
25.0
100
AcDbBlockBegin
  2
*D64
 70
     1
 10
0.0
 20
0.0
 30
0.0
  3
*D64
  1

  0
LINE
  5
CE21
330
C141
100
AcDbEntity
  8
寸法引出
 48
25.0
370
    -2
100
AcDbLine
 10
4123.469910207106
 20
3185.575433030023
 30
0.0
 11
4123.469910207106
 21
3087.50044002426
 31
0.0
  0
LINE
  5
CE22
330
C141
100
AcDbEntity
  8
寸法引出
 48
25.0
370
    -2
100
AcDbLine
 10
4173.469910207106
 20
3210.075433030023
 30
0.0
 11
4173.469910207106
 21
3087.50044002426
 31
0.0
  0
LINE
  5
CE23
330
C141
100
AcDbEntity
  8
寸法引出
 48
25.0
370
    -2
100
AcDbLine
 10
4085.969910207106
 20
3100.00044002426
 30
0.0
 11
4048.469910207106
 21
3100.00044002426
 31
0.0
  0
LINE
  5
CE24
330
C141
100
AcDbEntity
  8
寸法引出
 48
25.0
370
    -2
100
AcDbLine
 10
4210.969910207106
 20
3100.00044002426
 30
0.0
 11
4248.469910207106
 21
3100.00044002426
 31
0.0
  0
LINE
  5
CE25
330
C141
100
AcDbEntity
  8
寸法引出
 48
25.0
370
    -2
100
AcDbLine
 10
4123.469910207106
 20
3100.00044002426
 30
0.0
 11
4173.469910207106
 21
3100.00044002426
 31
0.0
  0
SOLID
  5
CE26
330
C141
100
AcDbEntity
  8
寸法引出
 48
25.0
100
AcDbTrace
 10
4085.969910207106
 20
3106.25044002426
 30
0.0
 11
4085.969910207106
 21
3093.75044002426
 31
0.0
 12
4123.469910207106
 22
3100.00044002426
 32
0.0
 13
4123.469910207106
 23
3100.00044002426
 33
0.0
  0
SOLID
  5
CE27
330
C141
100
AcDbEntity
  8
寸法引出
 48
25.0
100
AcDbTrace
 10
4210.969910207106
 20
3106.25044002426
 30
0.0
 11
4210.969910207106
 21
3093.75044002426
 31
0.0
 12
4173.469910207106
 22
3100.00044002426
 32
0.0
 13
4173.469910207106
 23
3100.00044002426
 33
0.0
  0
MTEXT
  5
CE28
330
C141
100
AcDbEntity
  8
寸法引出
 48
25.0
100
AcDbMText
 10
4148.469910207106
 20
3150.00044002426
 30
0.0
 40
50.0
 41
0.0
 71
     5
 72
     1
  1
\A1;50
  7
SANWA
 73
     1
 44
1.0
  0
POINT
  5
CE29
330
C141
100
AcDbEntity
  8
DEFPOINTS
 62
     0
 48
25.0
100
AcDbPoint
 10
4123.469910207106
 20
3210.575433030023
 30
0.0
  0
POINT
  5
CE2A
330
C141
100
AcDbEntity
  8
DEFPOINTS
 62
     0
 48
25.0
100
AcDbPoint
 10
4173.469910207106
 20
3235.075433030023
 30
0.0
  0
POINT
  5
CE2B
330
C141
100
AcDbEntity
  8
DEFPOINTS
 62
     0
 48
25.0
100
AcDbPoint
 10
4173.469910207106
 20
3100.00044002426
 30
0.0
  0
ENDBLK
  5
C14E
330
C141
100
AcDbEntity
  8
0
 48
25.0
100
AcDbBlockEnd
  0
BLOCK
  5
C159
330
C14F
100
AcDbEntity
  8
0
 48
25.0
100
AcDbBlockBegin
  2
*D65
 70
     1
 10
0.0
 20
0.0
 30
0.0
  3
*D65
  1

  0
LINE
  5
CE68
330
C14F
100
AcDbEntity
  8
寸法引出
 48
25.0
370
    -2
100
AcDbLine
 10
4098.469910207106
 20
3235.075433030023
 30
0.0
 11
3983.737552926137
 21
3235.075433030023
 31
0.0
  0
LINE
  5
CE69
330
C14F
100
AcDbEntity
  8
寸法引出
 48
25.0
370
    -2
100
AcDbLine
 10
4098.469910207106
 20
3385.075433030023
 30
0.0
 11
3983.737552926137
 21
3385.075433030023
 31
0.0
  0
LINE
  5
CE6A
330
C14F
100
AcDbEntity
  8
寸法引出
 48
25.0
370
    -2
100
AcDbLine
 10
3996.237552926137
 20
3272.575433030023
 30
0.0
 11
3996.237552926137
 21
3347.575433030023
 31
0.0
  0
SOLID
  5
CE6B
330
C14F
100
AcDbEntity
  8
寸法引出
 48
25.0
100
AcDbTrace
 10
3989.987552926137
 20
3272.575433030023
 30
0.0
 11
4002.487552926137
 21
3272.575433030023
 31
0.0
 12
3996.237552926137
 22
3235.075433030023
 32
0.0
 13
3996.237552926137
 23
3235.075433030023
 33
0.0
  0
SOLID
  5
CE6C
330
C14F
100
AcDbEntity
  8
寸法引出
 48
25.0
100
AcDbTrace
 10
3989.987552926137
 20
3347.575433030023
 30
0.0
 11
4002.487552926137
 21
3347.575433030023
 31
0.0
 12
3996.237552926137
 22
3385.075433030023
 32
0.0
 13
3996.237552926137
 23
3385.075433030023
 33
0.0
  0
MTEXT
  5
CE6D
330
C14F
100
AcDbEntity
  8
寸法引出
 48
25.0
100
AcDbMText
 10
3946.237552926136
 20
3310.075433030024
 30
0.0
 40
50.0
 41
0.0
 71
     5
 72
     1
  1
\A1;150
  7
SANWA
 11
0.0000000000000001
 21
1.0
 31
0.0
 73
     1
 44
1.0
  0
POINT
  5
CE6E
330
C14F
100
AcDbEntity
  8
DEFPOINTS
 62
     0
 48
25.0
100
AcDbPoint
 10
4123.469910207106
 20
3235.075433030023
 30
0.0
  0
POINT
  5
CE6F
330
C14F
100
AcDbEntity
  8
DEFPOINTS
 62
     0
 48
25.0
100
AcDbPoint
 10
4123.469910207106
 20
3385.075433030023
 30
0.0
  0
POINT
  5
CE70
330
C14F
100
AcDbEntity
  8
DEFPOINTS
 62
     0
 48
25.0
100
AcDbPoint
 10
3996.237552926137
 20
3385.075433030023
 30
0.0
  0
ENDBLK
  5
C15A
330
C14F
100
AcDbEntity
  8
0
 48
25.0
100
AcDbBlockEnd
  0
BLOCK
  5
C165
330
C15B
100
AcDbEntity
  8
0
 48
25.0
100
AcDbBlockBegin
  2
*D66
 70
     1
 10
0.0
 20
0.0
 30
0.0
  3
*D66
  1

  0
LINE
  5
CE83
330
C15B
100
AcDbEntity
  8
寸法引出
 48
25.0
370
    -2
100
AcDbLine
 10
5003.469910207106
 20
3410.075433030023
 30
0.0
 11
5003.469910207106
 21
3543.860045059736
 31
0.0
  0
LINE
  5
CE84
330
C15B
100
AcDbEntity
  8
寸法引出
 48
25.0
370
    -2
100
AcDbLine
 10
5243.469910207107
 20
3410.075433030023
 30
0.0
 11
5243.469910207107
 21
3543.860045059736
 31
0.0
  0
LINE
  5
CE85
330
C15B
100
AcDbEntity
  8
寸法引出
 48
25.0
370
    -2
100
AcDbLine
 10
5040.969910207106
 20
3531.360045059736
 30
0.0
 11
5205.969910207106
 21
3531.360045059736
 31
0.0
  0
SOLID
  5
CE86
330
C15B
100
AcDbEntity
  8
寸法引出
 48
25.0
100
AcDbTrace
 10
5040.969910207106
 20
3537.610045059736
 30
0.0
 11
5040.969910207106
 21
3525.110045059736
 31
0.0
 12
5003.469910207106
 22
3531.360045059736
 32
0.0
 13
5003.469910207106
 23
3531.360045059736
 33
0.0
  0
SOLID
  5
CE87
330
C15B
100
AcDbEntity
  8
寸法引出
 48
25.0
100
AcDbTrace
 10
5205.969910207106
 20
3537.610045059736
 30
0.0
 11
5205.969910207106
 21
3525.110045059736
 31
0.0
 12
5243.469910207107
 22
3531.360045059736
 32
0.0
 13
5243.469910207107
 23
3531.360045059736
 33
0.0
  0
MTEXT
  5
CE88
330
C15B
100
AcDbEntity
  8
寸法引出
 48
25.0
100
AcDbMText
 10
5123.469910207106
 20
3581.360045059736
 30
0.0
 40
50.0
 41
0.0
 71
     5
 72
     1
  1
\A1;240
  7
SANWA
 73
     1
 44
1.0
  0
POINT
  5
CE89
330
C15B
100
AcDbEntity
  8
DEFPOINTS
 62
     0
 48
25.0
100
AcDbPoint
 10
5003.469910207106
 20
3385.075433030023
 30
0.0
  0
POINT
  5
CE8A
330
C15B
100
AcDbEntity
  8
DEFPOINTS
 62
     0
 48
25.0
100
AcDbPoint
 10
5243.469910207107
 20
3385.075433030023
 30
0.0
  0
POINT
  5
CE8B
330
C15B
100
AcDbEntity
  8
DEFPOINTS
 62
     0
 48
25.0
100
AcDbPoint
 10
5243.469910207107
 20
3531.360045059736
 30
0.0
  0
ENDBLK
  5
C166
330
C15B
100
AcDbEntity
  8
0
 48
25.0
100
AcDbBlockEnd
  0
BLOCK
  5
C173
330
C167
100
AcDbEntity
  8
0
 48
25.0
100
AcDbBlockBegin
  2
*D67
 70
     1
 10
0.0
 20
0.0
 30
0.0
  3
*D67
  1

  0
LINE
  5
CE8C
330
C167
100
AcDbEntity
  8
寸法引出
 48
25.0
370
    -2
100
AcDbLine
 10
6003.469910207106
 20
3410.075433030023
 30
0.0
 11
6003.469910207106
 21
3543.860045059736
 31
0.0
  0
LINE
  5
CE8D
330
C167
100
AcDbEntity
  8
寸法引出
 48
25.0
370
    -2
100
AcDbLine
 10
6123.469910207106
 20
3410.075433030023
 30
0.0
 11
6123.469910207106
 21
3543.860045059736
 31
0.0
  0
LINE
  5
CE8E
330
C167
100
AcDbEntity
  8
寸法引出
 48
25.0
370
    -2
100
AcDbLine
 10
5965.969910207107
 20
3531.360045059736
 30
0.0
 11
5928.469910207106
 21
3531.360045059736
 31
0.0
  0
LINE
  5
CE8F
330
C167
100
AcDbEntity
  8
寸法引出
 48
25.0
370
    -2
100
AcDbLine
 10
6160.969910207106
 20
3531.360045059736
 30
0.0
 11
6198.469910207106
 21
3531.360045059736
 31
0.0
  0
LINE
  5
CE90
330
C167
100
AcDbEntity
  8
寸法引出
 48
25.0
370
    -2
100
AcDbLine
 10
6003.469910207106
 20
3531.360045059736
 30
0.0
 11
6123.469910207106
 21
3531.360045059736
 31
0.0
  0
SOLID
  5
CE91
330
C167
100
AcDbEntity
  8
寸法引出
 48
25.0
100
AcDbTrace
 10
5965.969910207107
 20
3537.610045059736
 30
0.0
 11
5965.969910207107
 21
3525.110045059736
 31
0.0
 12
6003.469910207106
 22
3531.360045059736
 32
0.0
 13
6003.469910207106
 23
3531.360045059736
 33
0.0
  0
SOLID
  5
CE92
330
C167
100
AcDbEntity
  8
寸法引出
 48
25.0
100
AcDbTrace
 10
6160.969910207106
 20
3537.610045059736
 30
0.0
 11
6160.969910207106
 21
3525.110045059736
 31
0.0
 12
6123.469910207106
 22
3531.360045059736
 32
0.0
 13
6123.469910207106
 23
3531.360045059736
 33
0.0
  0
MTEXT
  5
CE93
330
C167
100
AcDbEntity
  8
寸法引出
 48
25.0
100
AcDbMText
 10
6063.469910207107
 20
3581.360045059736
 30
0.0
 40
50.0
 41
0.0
 71
     5
 72
     1
  1
\A1;120
  7
SANWA
 73
     1
 44
1.0
  0
POINT
  5
CE94
330
C167
100
AcDbEntity
  8
DEFPOINTS
 62
     0
 48
25.0
100
AcDbPoint
 10
6003.469910207106
 20
3385.075433030023
 30
0.0
  0
POINT
  5
CE95
330
C167
100
AcDbEntity
  8
DEFPOINTS
 62
     0
 48
25.0
100
AcDbPoint
 10
6123.469910207106
 20
3385.075433030023
 30
0.0
  0
POINT
  5
CE96
330
C167
100
AcDbEntity
  8
DEFPOINTS
 62
     0
 48
25.0
100
AcDbPoint
 10
6123.469910207106
 20
3531.360045059736
 30
0.0
  0
ENDBLK
  5
C174
330
C167
100
AcDbEntity
  8
0
 48
25.0
100
AcDbBlockEnd
  0
BLOCK
  5
C17F
330
C175
100
AcDbEntity
  8
0
 48
25.0
100
AcDbBlockBegin
  2
*D68
 70
     1
 10
0.0
 20
0.0
 30
0.0
  3
*D68
  1

  0
LINE
  5
CDDA
330
C175
100
AcDbEntity
  8
寸法引出
 48
25.0
370
    -2
100
AcDbLine
 10
2584.562192101643
 20
3385.075433030024
 30
0.0
 11
2811.774464005634
 21
3385.075433030024
 31
0.0
  0
LINE
  5
CDDB
330
C175
100
AcDbEntity
  8
寸法引出
 48
25.0
370
    -2
100
AcDbLine
 10
2554.562192101642
 20
2275.075433030023
 30
0.0
 11
2811.774464005633
 21
2275.075433030023
 31
0.0
  0
LINE
  5
CDDC
330
C175
100
AcDbEntity
  8
寸法引出
 48
25.0
370
    -2
100
AcDbLine
 10
2799.274464005634
 20
3347.575433030025
 30
0.0
 11
2799.274464005633
 21
2312.575433030022
 31
0.0
  0
SOLID
  5
CDDD
330
C175
100
AcDbEntity
  8
寸法引出
 48
25.0
100
AcDbTrace
 10
2793.024464005634
 20
3347.575433030025
 30
0.0
 11
2805.524464005634
 21
3347.575433030025
 31
0.0
 12
2799.274464005634
 22
3385.075433030024
 32
0.0
 13
2799.274464005634
 23
3385.075433030024
 33
0.0
  0
SOLID
  5
CDDE
330
C175
100
AcDbEntity
  8
寸法引出
 48
25.0
100
AcDbTrace
 10
2793.024464005633
 20
2312.575433030022
 30
0.0
 11
2805.524464005634
 21
2312.575433030022
 31
0.0
 12
2799.274464005633
 22
2275.075433030023
 32
0.0
 13
2799.274464005633
 23
2275.075433030023
 33
0.0
  0
MTEXT
  5
CDDF
330
C175
100
AcDbEntity
  8
寸法引出
 48
25.0
100
AcDbMText
 10
2749.274464005633
 20
2830.075433030024
 30
0.0
 40
50.0
 41
0.0
 71
     5
 72
     1
  1
\A1;1110
  7
SANWA
 11
0.0000000000000001
 21
1.0
 31
0.0
 73
     1
 44
1.0
  0
POINT
  5
CDE0
330
C175
100
AcDbEntity
  8
DEFPOINTS
 62
     0
 48
25.0
100
AcDbPoint
 10
2559.562192101642
 20
3385.075433030024
 30
0.0
  0
POINT
  5
CDE1
330
C175
100
AcDbEntity
  8
DEFPOINTS
 62
     0
 48
25.0
100
AcDbPoint
 10
2529.562192101642
 20
2275.075433030023
 30
0.0
  0
POINT
  5
CDE2
330
C175
100
AcDbEntity
  8
DEFPOINTS
 62
     0
 48
25.0
100
AcDbPoint
 10
2799.274464005633
 20
2275.075433030023
 30
0.0
  0
ENDBLK
  5
C180
330
C175
100
AcDbEntity
  8
0
 48
25.0
100
AcDbBlockEnd
  0
BLOCK
  5
C18B
330
C181
100
AcDbEntity
  8
0
 48
25.0
100
AcDbBlockBegin
  2
*D69
 70
     1
 10
0.0
 20
0.0
 30
0.0
  3
*D69
  1

  0
LINE
  5
CDE3
330
C181
100
AcDbEntity
  8
寸法引出
 48
25.0
370
    -2
100
AcDbLine
 10
2584.562192101643
 20
3385.075433030024
 30
0.0
 11
2703.805063343782
 21
3385.075433030024
 31
0.0
  0
LINE
  5
CDE4
330
C181
100
AcDbEntity
  8
寸法引出
 48
25.0
370
    -2
100
AcDbLine
 10
2584.562192101643
 20
2385.075433030023
 30
0.0
 11
2703.805063343781
 21
2385.075433030023
 31
0.0
  0
LINE
  5
CDE5
330
C181
100
AcDbEntity
  8
寸法引出
 48
25.0
370
    -2
100
AcDbLine
 10
2691.305063343782
 20
3347.575433030025
 30
0.0
 11
2691.305063343781
 21
2422.575433030023
 31
0.0
  0
SOLID
  5
CDE6
330
C181
100
AcDbEntity
  8
寸法引出
 48
25.0
100
AcDbTrace
 10
2685.055063343781
 20
3347.575433030025
 30
0.0
 11
2697.555063343782
 21
3347.575433030025
 31
0.0
 12
2691.305063343782
 22
3385.075433030024
 32
0.0
 13
2691.305063343782
 23
3385.075433030024
 33
0.0
  0
SOLID
  5
CDE7
330
C181
100
AcDbEntity
  8
寸法引出
 48
25.0
100
AcDbTrace
 10
2685.055063343781
 20
2422.575433030023
 30
0.0
 11
2697.555063343781
 21
2422.575433030023
 31
0.0
 12
2691.305063343781
 22
2385.075433030023
 32
0.0
 13
2691.305063343781
 23
2385.075433030023
 33
0.0
  0
MTEXT
  5
CDE8
330
C181
100
AcDbEntity
  8
寸法引出
 48
25.0
100
AcDbMText
 10
2641.305063343781
 20
2885.075433030024
 30
0.0
 40
50.0
 41
0.0
 71
     5
 72
     1
  1
\A1;1000
  7
SANWA
 11
0.0000000000000001
 21
1.0
 31
0.0
 73
     1
 44
1.0
  0
POINT
  5
CDE9
330
C181
100
AcDbEntity
  8
DEFPOINTS
 62
     0
 48
25.0
100
AcDbPoint
 10
2559.562192101642
 20
3385.075433030024
 30
0.0
  0
POINT
  5
CDEA
330
C181
100
AcDbEntity
  8
DEFPOINTS
 62
     0
 48
25.0
100
AcDbPoint
 10
2559.562192101642
 20
2385.075433030023
 30
0.0
  0
POINT
  5
CDEB
330
C181
100
AcDbEntity
  8
DEFPOINTS
 62
     0
 48
25.0
100
AcDbPoint
 10
2691.305063343781
 20
2385.075433030023
 30
0.0
  0
ENDBLK
  5
C18C
330
C181
100
AcDbEntity
  8
0
 48
25.0
100
AcDbBlockEnd
  0
BLOCK
  5
C197
330
C18D
100
AcDbEntity
  8
0
 48
25.0
100
AcDbBlockBegin
  2
*D70
 70
     1
 10
0.0
 20
0.0
 30
0.0
  3
*D70
  1

  0
LINE
  5
CDA2
330
C18D
100
AcDbEntity
  8
寸法引出
 48
25.0
370
    -2
100
AcDbLine
 10
2123.631977939767
 20
929.9652226668014
 30
0.0
 11
2349.73173669241
 21
929.9652226668012
 31
0.0
  0
LINE
  5
CDA3
330
C18D
100
AcDbEntity
  8
寸法引出
 48
25.0
370
    -2
100
AcDbLine
 10
2123.63197793976
 20
1064.965222666801
 30
0.0
 11
2349.73173669241
 21
1064.965222666801
 31
0.0
  0
LINE
  5
CDA4
330
C18D
100
AcDbEntity
  8
寸法引出
 48
25.0
370
    -2
100
AcDbLine
 10
2337.23173669241
 20
967.4652226668012
 30
0.0
 11
2337.23173669241
 21
1027.465222666801
 31
0.0
  0
SOLID
  5
CDA5
330
C18D
100
AcDbEntity
  8
寸法引出
 48
25.0
100
AcDbTrace
 10
2330.98173669241
 20
967.4652226668012
 30
0.0
 11
2343.48173669241
 21
967.4652226668012
 31
0.0
 12
2337.23173669241
 22
929.9652226668012
 32
0.0
 13
2337.23173669241
 23
929.9652226668012
 33
0.0
  0
SOLID
  5
CDA6
330
C18D
100
AcDbEntity
  8
寸法引出
 48
25.0
100
AcDbTrace
 10
2330.981736692411
 20
1027.465222666801
 30
0.0
 11
2343.48173669241
 21
1027.465222666801
 31
0.0
 12
2337.23173669241
 22
1064.965222666801
 32
0.0
 13
2337.23173669241
 23
1064.965222666801
 33
0.0
  0
MTEXT
  5
CDA7
330
C18D
100
AcDbEntity
  8
寸法引出
 48
25.0
100
AcDbMText
 10
2287.23173669241
 20
997.4652226668016
 30
0.0
 40
50.0
 41
0.0
 71
     5
 72
     1
  1
\A1;45
  7
SANWA
 11
0.0000000000000001
 21
1.0
 31
0.0
 73
     1
 44
1.0
  0
POINT
  5
CDA8
330
C18D
100
AcDbEntity
  8
DEFPOINTS
 62
     0
 48
25.0
100
AcDbPoint
 10
2098.631977939767
 20
929.9652226668014
 30
0.0
  0
POINT
  5
CDA9
330
C18D
100
AcDbEntity
  8
DEFPOINTS
 62
     0
 48
25.0
100
AcDbPoint
 10
2098.631977939759
 20
1064.965222666801
 30
0.0
  0
POINT
  5
CDAA
330
C18D
100
AcDbEntity
  8
DEFPOINTS
 62
     0
 48
25.0
100
AcDbPoint
 10
2337.23173669241
 20
1064.965222666801
 30
0.0
  0
ENDBLK
  5
C198
330
C18D
100
AcDbEntity
  8
0
 48
25.0
100
AcDbBlockEnd
  0
BLOCK
  5
C1A3
330
C199
100
AcDbEntity
  8
0
 48
25.0
100
AcDbBlockBegin
  2
*D71
 70
     1
 10
0.0
 20
0.0
 30
0.0
  3
*D71
  1

  0
LINE
  5
CDAB
330
C199
100
AcDbEntity
  8
寸法引出
 48
25.0
370
    -2
100
AcDbLine
 10
1843.631977939759
 20
898.9652226668013
 30
0.0
 11
1843.631977939759
 21
810.7434378874923
 31
0.0
  0
LINE
  5
CDAC
330
C199
100
AcDbEntity
  8
寸法引出
 48
25.0
370
    -2
100
AcDbLine
 10
1993.631977939759
 20
972.4652226668013
 30
0.0
 11
1993.631977939759
 21
810.7434378874923
 31
0.0
  0
LINE
  5
CDAD
330
C199
100
AcDbEntity
  8
寸法引出
 48
25.0
370
    -2
100
AcDbLine
 10
1881.13197793976
 20
823.2434378874923
 30
0.0
 11
1956.13197793976
 21
823.2434378874923
 31
0.0
  0
SOLID
  5
CDAE
330
C199
100
AcDbEntity
  8
寸法引出
 48
25.0
100
AcDbTrace
 10
1881.13197793976
 20
829.4934378874923
 30
0.0
 11
1881.13197793976
 21
816.9934378874923
 31
0.0
 12
1843.631977939759
 22
823.2434378874923
 32
0.0
 13
1843.631977939759
 23
823.2434378874923
 33
0.0
  0
SOLID
  5
CDAF
330
C199
100
AcDbEntity
  8
寸法引出
 48
25.0
100
AcDbTrace
 10
1956.13197793976
 20
829.4934378874923
 30
0.0
 11
1956.13197793976
 21
816.9934378874923
 31
0.0
 12
1993.631977939759
 22
823.2434378874923
 32
0.0
 13
1993.631977939759
 23
823.2434378874923
 33
0.0
  0
MTEXT
  5
CDB0
330
C199
100
AcDbEntity
  8
寸法引出
 48
25.0
100
AcDbMText
 10
1918.631977939759
 20
873.2434378874923
 30
0.0
 40
50.0
 41
0.0
 71
     5
 72
     1
  1
\A1;50
  7
SANWA
 73
     1
 44
1.0
  0
POINT
  5
CDB1
330
C199
100
AcDbEntity
  8
DEFPOINTS
 62
     0
 48
25.0
100
AcDbPoint
 10
1843.631977939759
 20
923.9652226668013
 30
0.0
  0
POINT
  5
CDB2
330
C199
100
AcDbEntity
  8
DEFPOINTS
 62
     0
 48
25.0
100
AcDbPoint
 10
1993.631977939759
 20
997.4652226668013
 30
0.0
  0
POINT
  5
CDB3
330
C199
100
AcDbEntity
  8
DEFPOINTS
 62
     0
 48
25.0
100
AcDbPoint
 10
1993.631977939759
 20
823.2434378874923
 30
0.0
  0
ENDBLK
  5
C1A4
330
C199
100
AcDbEntity
  8
0
 48
25.0
100
AcDbBlockEnd
  0
BLOCK
  5
C1B1
330
C1A5
100
AcDbEntity
  8
0
 48
25.0
100
AcDbBlockBegin
  2
*D72
 70
     1
 10
0.0
 20
0.0
 30
0.0
  3
*D72
  1

  0
LINE
  5
CDB4
330
C1A5
100
AcDbEntity
  8
寸法引出
 48
25.0
370
    -2
100
AcDbLine
 10
2776.362149680084
 20
898.9652226668013
 30
0.0
 11
2776.362149680084
 21
799.7532168494408
 31
0.0
  0
LINE
  5
CDB5
330
C1A5
100
AcDbEntity
  8
寸法引出
 48
25.0
370
    -2
100
AcDbLine
 10
2785.962149680086
 20
904.9652226668014
 30
0.0
 11
2785.962149680086
 21
799.7532168494408
 31
0.0
  0
LINE
  5
CDB6
330
C1A5
100
AcDbEntity
  8
寸法引出
 48
25.0
370
    -2
100
AcDbLine
 10
2738.862149680084
 20
812.2532168494409
 30
0.0
 11
2701.362149680084
 21
812.2532168494409
 31
0.0
  0
LINE
  5
CDB7
330
C1A5
100
AcDbEntity
  8
寸法引出
 48
25.0
370
    -2
100
AcDbLine
 10
2823.462149680086
 20
812.2532168494409
 30
0.0
 11
2860.962149680086
 21
812.2532168494409
 31
0.0
  0
LINE
  5
CDB8
330
C1A5
100
AcDbEntity
  8
寸法引出
 48
25.0
370
    -2
100
AcDbLine
 10
2776.362149680084
 20
812.2532168494409
 30
0.0
 11
2785.962149680086
 21
812.2532168494409
 31
0.0
  0
SOLID
  5
CDB9
330
C1A5
100
AcDbEntity
  8
寸法引出
 48
25.0
100
AcDbTrace
 10
2738.862149680084
 20
818.5032168494409
 30
0.0
 11
2738.862149680084
 21
806.0032168494409
 31
0.0
 12
2776.362149680084
 22
812.2532168494409
 32
0.0
 13
2776.362149680084
 23
812.2532168494409
 33
0.0
  0
SOLID
  5
CDBA
330
C1A5
100
AcDbEntity
  8
寸法引出
 48
25.0
100
AcDbTrace
 10
2823.462149680086
 20
818.5032168494409
 30
0.0
 11
2823.462149680086
 21
806.0032168494409
 31
0.0
 12
2785.962149680086
 22
812.2532168494409
 32
0.0
 13
2785.962149680086
 23
812.2532168494409
 33
0.0
  0
MTEXT
  5
CDBB
330
C1A5
100
AcDbEntity
  8
寸法引出
 48
25.0
100
AcDbMText
 10
2781.162149680085
 20
862.2532168494409
 30
0.0
 40
50.0
 41
0.0
 71
     5
 72
     1
  1
\A1;3.2
  7
SANWA
 73
     1
 44
1.0
  0
POINT
  5
CDBC
330
C1A5
100
AcDbEntity
  8
DEFPOINTS
 62
     0
 48
25.0
100
AcDbPoint
 10
2776.362149680084
 20
923.9652226668013
 30
0.0
  0
POINT
  5
CDBD
330
C1A5
100
AcDbEntity
  8
DEFPOINTS
 62
     0
 48
25.0
100
AcDbPoint
 10
2785.962149680086
 20
929.9652226668014
 30
0.0
  0
POINT
  5
CDBE
330
C1A5
100
AcDbEntity
  8
DEFPOINTS
 62
     0
 48
25.0
100
AcDbPoint
 10
2785.962149680086
 20
812.2532168494409
 30
0.0
  0
ENDBLK
  5
C1B2
330
C1A5
100
AcDbEntity
  8
0
 48
25.0
100
AcDbBlockEnd
  0
BLOCK
  5
C1BD
330
C1B3
100
AcDbEntity
  8
0
 48
25.0
100
AcDbBlockBegin
  2
*D73
 70
     1
 10
0.0
 20
0.0
 30
0.0
  3
*D73
  1

  0
LINE
  5
CDC8
330
C1B3
100
AcDbEntity
  8
寸法引出
 48
25.0
370
    -2
100
AcDbLine
 10
1843.631977939759
 20
1095.965222666801
 30
0.0
 11
1843.631977939759
 21
1163.960115882503
 31
0.0
  0
LINE
  5
CDC9
330
C1B3
100
AcDbEntity
  8
寸法引出
 48
25.0
370
    -2
100
AcDbLine
 10
2098.631977939759
 20
1089.965222666801
 30
0.0
 11
2098.631977939759
 21
1163.960115882503
 31
0.0
  0
LINE
  5
CDCA
330
C1B3
100
AcDbEntity
  8
寸法引出
 48
25.0
370
    -2
100
AcDbLine
 10
1881.13197793976
 20
1151.460115882503
 30
0.0
 11
2061.13197793976
 21
1151.460115882503
 31
0.0
  0
SOLID
  5
CDCB
330
C1B3
100
AcDbEntity
  8
寸法引出
 48
25.0
100
AcDbTrace
 10
1881.13197793976
 20
1157.710115882503
 30
0.0
 11
1881.13197793976
 21
1145.210115882503
 31
0.0
 12
1843.631977939759
 22
1151.460115882503
 32
0.0
 13
1843.631977939759
 23
1151.460115882503
 33
0.0
  0
SOLID
  5
CDCC
330
C1B3
100
AcDbEntity
  8
寸法引出
 48
25.0
100
AcDbTrace
 10
2061.13197793976
 20
1157.710115882503
 30
0.0
 11
2061.13197793976
 21
1145.210115882503
 31
0.0
 12
2098.631977939759
 22
1151.460115882503
 32
0.0
 13
2098.631977939759
 23
1151.460115882503
 33
0.0
  0
MTEXT
  5
CDCD
330
C1B3
100
AcDbEntity
  8
寸法引出
 48
25.0
100
AcDbMText
 10
1971.13197793976
 20
1201.460115882503
 30
0.0
 40
50.0
 41
0.0
 71
     5
 72
     1
  1
\A1;85
  7
SANWA
 73
     1
 44
1.0
  0
POINT
  5
CDCE
330
C1B3
100
AcDbEntity
  8
DEFPOINTS
 62
     0
 48
25.0
100
AcDbPoint
 10
1843.631977939759
 20
1070.965222666801
 30
0.0
  0
POINT
  5
CDCF
330
C1B3
100
AcDbEntity
  8
DEFPOINTS
 62
     0
 48
25.0
100
AcDbPoint
 10
2098.631977939759
 20
1064.965222666801
 30
0.0
  0
POINT
  5
CDD0
330
C1B3
100
AcDbEntity
  8
DEFPOINTS
 62
     0
 48
25.0
100
AcDbPoint
 10
2098.631977939759
 20
1151.460115882503
 30
0.0
  0
ENDBLK
  5
C1BE
330
C1B3
100
AcDbEntity
  8
0
 48
25.0
100
AcDbBlockEnd
  0
BLOCK
  5
C1CB
330
C1BF
100
AcDbEntity
  8
0
 48
25.0
100
AcDbBlockBegin
  2
*D74
 70
     1
 10
0.0
 20
0.0
 30
0.0
  3
*D74
  1

  0
LINE
  5
CDEC
330
C1BF
100
AcDbEntity
  8
寸法引出
 48
25.0
370
    -2
100
AcDbLine
 10
2098.631977939759
 20
1089.965222666801
 30
0.0
 11
2098.631977939759
 21
1163.960115882503
 31
0.0
  0
LINE
  5
CDED
330
C1BF
100
AcDbEntity
  8
寸法引出
 48
25.0
370
    -2
100
AcDbLine
 10
2104.63197793976
 20
1095.965222666801
 30
0.0
 11
2104.63197793976
 21
1163.960115882503
 31
0.0
  0
LINE
  5
CDEE
330
C1BF
100
AcDbEntity
  8
寸法引出
 48
25.0
370
    -2
100
AcDbLine
 10
2061.13197793976
 20
1151.460115882503
 30
0.0
 11
2023.63197793976
 21
1151.460115882503
 31
0.0
  0
LINE
  5
CDEF
330
C1BF
100
AcDbEntity
  8
寸法引出
 48
25.0
370
    -2
100
AcDbLine
 10
2142.131977939759
 20
1151.460115882503
 30
0.0
 11
2179.631977939759
 21
1151.460115882503
 31
0.0
  0
LINE
  5
CDF0
330
C1BF
100
AcDbEntity
  8
寸法引出
 48
25.0
370
    -2
100
AcDbLine
 10
2098.631977939759
 20
1151.460115882503
 30
0.0
 11
2104.63197793976
 21
1151.460115882503
 31
0.0
  0
SOLID
  5
CDF1
330
C1BF
100
AcDbEntity
  8
寸法引出
 48
25.0
100
AcDbTrace
 10
2061.13197793976
 20
1157.710115882503
 30
0.0
 11
2061.13197793976
 21
1145.210115882503
 31
0.0
 12
2098.631977939759
 22
1151.460115882503
 32
0.0
 13
2098.631977939759
 23
1151.460115882503
 33
0.0
  0
SOLID
  5
CDF2
330
C1BF
100
AcDbEntity
  8
寸法引出
 48
25.0
100
AcDbTrace
 10
2142.131977939759
 20
1157.710115882503
 30
0.0
 11
2142.131977939759
 21
1145.210115882503
 31
0.0
 12
2104.63197793976
 22
1151.460115882503
 32
0.0
 13
2104.63197793976
 23
1151.460115882503
 33
0.0
  0
MTEXT
  5
CDF3
330
C1BF
100
AcDbEntity
  8
寸法引出
 48
25.0
100
AcDbMText
 10
2101.63197793976
 20
1201.460115882503
 30
0.0
 40
50.0
 41
0.0
 71
     5
 72
     1
  1
\A1;2
  7
SANWA
 73
     1
 44
1.0
  0
POINT
  5
CDF4
330
C1BF
100
AcDbEntity
  8
DEFPOINTS
 62
     0
 48
25.0
100
AcDbPoint
 10
2098.631977939759
 20
1064.965222666801
 30
0.0
  0
POINT
  5
CDF5
330
C1BF
100
AcDbEntity
  8
DEFPOINTS
 62
     0
 48
25.0
100
AcDbPoint
 10
2104.63197793976
 20
1070.965222666801
 30
0.0
  0
POINT
  5
CDF6
330
C1BF
100
AcDbEntity
  8
DEFPOINTS
 62
     0
 48
25.0
100
AcDbPoint
 10
2104.63197793976
 20
1151.460115882503
 30
0.0
  0
ENDBLK
  5
C1CC
330
C1BF
100
AcDbEntity
  8
0
 48
25.0
100
AcDbBlockEnd
  0
BLOCK
  5
C1D9
330
C1CD
100
AcDbEntity
  8
0
 48
25.0
100
AcDbBlockBegin
  2
*D75
 70
     1
 10
0.0
 20
0.0
 30
0.0
  3
*D75
  1

  0
LINE
  5
CDF7
330
C1CD
100
AcDbEntity
  8
寸法引出
 48
25.0
370
    -2
100
AcDbLine
 10
2449.562192101643
 20
2250.075433030022
 30
0.0
 11
2449.562192101643
 21
2085.263505928475
 31
0.0
  0
LINE
  5
CDF8
330
C1CD
100
AcDbEntity
  8
寸法引出
 48
25.0
370
    -2
100
AcDbLine
 10
2559.562192101642
 20
2280.075433030023
 30
0.0
 11
2559.562192101642
 21
2085.263505928475
 31
0.0
  0
LINE
  5
CDF9
330
C1CD
100
AcDbEntity
  8
寸法引出
 48
25.0
370
    -2
100
AcDbLine
 10
2412.062192101643
 20
2097.763505928476
 30
0.0
 11
2374.562192101643
 21
2097.763505928476
 31
0.0
  0
LINE
  5
CDFA
330
C1CD
100
AcDbEntity
  8
寸法引出
 48
25.0
370
    -2
100
AcDbLine
 10
2597.062192101642
 20
2097.763505928476
 30
0.0
 11
2634.562192101642
 21
2097.763505928476
 31
0.0
  0
LINE
  5
CDFB
330
C1CD
100
AcDbEntity
  8
寸法引出
 48
25.0
370
    -2
100
AcDbLine
 10
2449.562192101643
 20
2097.763505928476
 30
0.0
 11
2559.562192101642
 21
2097.763505928476
 31
0.0
  0
SOLID
  5
CDFC
330
C1CD
100
AcDbEntity
  8
寸法引出
 48
25.0
100
AcDbTrace
 10
2412.062192101643
 20
2104.013505928475
 30
0.0
 11
2412.062192101643
 21
2091.513505928475
 31
0.0
 12
2449.562192101643
 22
2097.763505928476
 32
0.0
 13
2449.562192101643
 23
2097.763505928476
 33
0.0
  0
SOLID
  5
CDFD
330
C1CD
100
AcDbEntity
  8
寸法引出
 48
25.0
100
AcDbTrace
 10
2597.062192101642
 20
2104.013505928475
 30
0.0
 11
2597.062192101642
 21
2091.513505928475
 31
0.0
 12
2559.562192101642
 22
2097.763505928476
 32
0.0
 13
2559.562192101642
 23
2097.763505928476
 33
0.0
  0
MTEXT
  5
CDFE
330
C1CD
100
AcDbEntity
  8
寸法引出
 48
25.0
100
AcDbMText
 10
2504.562192101642
 20
2147.763505928475
 30
0.0
 40
50.0
 41
0.0
 71
     5
 72
     1
  1
\A1;110
  7
SANWA
 73
     1
 44
1.0
  0
POINT
  5
CDFF
330
C1CD
100
AcDbEntity
  8
DEFPOINTS
 62
     0
 48
25.0
100
AcDbPoint
 10
2449.562192101643
 20
2275.075433030023
 30
0.0
  0
POINT
  5
CE00
330
C1CD
100
AcDbEntity
  8
DEFPOINTS
 62
     0
 48
25.0
100
AcDbPoint
 10
2559.562192101642
 20
2305.075433030022
 30
0.0
  0
POINT
  5
CE01
330
C1CD
100
AcDbEntity
  8
DEFPOINTS
 62
     0
 48
25.0
100
AcDbPoint
 10
2559.562192101642
 20
2097.763505928476
 30
0.0
  0
ENDBLK
  5
C1DA
330
C1CD
100
AcDbEntity
  8
0
 48
25.0
100
AcDbBlockEnd
  0
BLOCK
  5
C1E7
330
C1DB
100
AcDbEntity
  8
0
 48
25.0
100
AcDbBlockBegin
  2
*D76
 70
     1
 10
0.0
 20
0.0
 30
0.0
  3
*D76
  1

  0
LINE
  5
CE02
330
C1DB
100
AcDbEntity
  8
寸法引出
 48
25.0
370
    -2
100
AcDbLine
 10
2584.562192101643
 20
2385.075433030023
 30
0.0
 11
2703.805063343781
 21
2385.075433030023
 31
0.0
  0
LINE
  5
CE03
330
C1DB
100
AcDbEntity
  8
寸法引出
 48
25.0
370
    -2
100
AcDbLine
 10
2554.562192101642
 20
2275.075433030023
 30
0.0
 11
2703.805063343781
 21
2275.075433030023
 31
0.0
  0
LINE
  5
CE04
330
C1DB
100
AcDbEntity
  8
寸法引出
 48
25.0
370
    -2
100
AcDbLine
 10
2691.305063343781
 20
2422.575433030023
 30
0.0
 11
2691.305063343781
 21
2460.075433030023
 31
0.0
  0
LINE
  5
CE05
330
C1DB
100
AcDbEntity
  8
寸法引出
 48
25.0
370
    -2
100
AcDbLine
 10
2691.305063343781
 20
2237.575433030023
 30
0.0
 11
2691.305063343781
 21
2200.075433030022
 31
0.0
  0
LINE
  5
CE06
330
C1DB
100
AcDbEntity
  8
寸法引出
 48
25.0
370
    -2
100
AcDbLine
 10
2691.305063343781
 20
2385.075433030023
 30
0.0
 11
2691.305063343781
 21
2275.075433030023
 31
0.0
  0
SOLID
  5
CE07
330
C1DB
100
AcDbEntity
  8
寸法引出
 48
25.0
100
AcDbTrace
 10
2685.055063343781
 20
2422.575433030023
 30
0.0
 11
2697.555063343781
 21
2422.575433030023
 31
0.0
 12
2691.305063343781
 22
2385.075433030023
 32
0.0
 13
2691.305063343781
 23
2385.075433030023
 33
0.0
  0
SOLID
  5
CE08
330
C1DB
100
AcDbEntity
  8
寸法引出
 48
25.0
100
AcDbTrace
 10
2685.055063343781
 20
2237.575433030023
 30
0.0
 11
2697.555063343781
 21
2237.575433030023
 31
0.0
 12
2691.305063343781
 22
2275.075433030023
 32
0.0
 13
2691.305063343781
 23
2275.075433030023
 33
0.0
  0
MTEXT
  5
CE09
330
C1DB
100
AcDbEntity
  8
寸法引出
 48
25.0
100
AcDbMText
 10
2641.305063343781
 20
2330.075433030023
 30
0.0
 40
50.0
 41
0.0
 71
     5
 72
     1
  1
\A1;110
  7
SANWA
 11
0.0000000000000001
 21
1.0
 31
0.0
 73
     1
 44
1.0
  0
POINT
  5
CE0A
330
C1DB
100
AcDbEntity
  8
DEFPOINTS
 62
     0
 48
25.0
100
AcDbPoint
 10
2559.562192101642
 20
2385.075433030023
 30
0.0
  0
POINT
  5
CE0B
330
C1DB
100
AcDbEntity
  8
DEFPOINTS
 62
     0
 48
25.0
100
AcDbPoint
 10
2529.562192101642
 20
2275.075433030023
 30
0.0
  0
POINT
  5
CE0C
330
C1DB
100
AcDbEntity
  8
DEFPOINTS
 62
     0
 48
25.0
100
AcDbPoint
 10
2691.305063343781
 20
2275.075433030023
 30
0.0
  0
ENDBLK
  5
C1E8
330
C1DB
100
AcDbEntity
  8
0
 48
25.0
100
AcDbBlockEnd
  0
BLOCK
  5
C1F3
330
C1E9
100
AcDbEntity
  8
0
 48
25.0
100
AcDbBlockBegin
  2
*D77
 70
     1
 10
0.0
 20
0.0
 30
0.0
  3
*D77
  1

  0
LINE
  5
CE0D
330
C1E9
100
AcDbEntity
  8
寸法引出
 48
25.0
370
    -2
100
AcDbLine
 10
2269.562192101643
 20
2250.075433030022
 30
0.0
 11
2269.562192101643
 21
2085.263505928475
 31
0.0
  0
LINE
  5
CE0E
330
C1E9
100
AcDbEntity
  8
寸法引出
 48
25.0
370
    -2
100
AcDbLine
 10
2449.562192101643
 20
2250.075433030022
 30
0.0
 11
2449.562192101643
 21
2085.263505928475
 31
0.0
  0
LINE
  5
CE0F
330
C1E9
100
AcDbEntity
  8
寸法引出
 48
25.0
370
    -2
100
AcDbLine
 10
2307.062192101642
 20
2097.763505928476
 30
0.0
 11
2412.062192101643
 21
2097.763505928476
 31
0.0
  0
SOLID
  5
CE10
330
C1E9
100
AcDbEntity
  8
寸法引出
 48
25.0
100
AcDbTrace
 10
2307.062192101642
 20
2104.013505928475
 30
0.0
 11
2307.062192101642
 21
2091.513505928475
 31
0.0
 12
2269.562192101643
 22
2097.763505928476
 32
0.0
 13
2269.562192101643
 23
2097.763505928476
 33
0.0
  0
SOLID
  5
CE11
330
C1E9
100
AcDbEntity
  8
寸法引出
 48
25.0
100
AcDbTrace
 10
2412.062192101643
 20
2104.013505928475
 30
0.0
 11
2412.062192101643
 21
2091.513505928475
 31
0.0
 12
2449.562192101643
 22
2097.763505928476
 32
0.0
 13
2449.562192101643
 23
2097.763505928476
 33
0.0
  0
MTEXT
  5
CE12
330
C1E9
100
AcDbEntity
  8
寸法引出
 48
25.0
100
AcDbMText
 10
2359.562192101642
 20
2147.763505928475
 30
0.0
 40
50.0
 41
0.0
 71
     5
 72
     1
  1
\A1;180
  7
SANWA
 73
     1
 44
1.0
  0
POINT
  5
CE13
330
C1E9
100
AcDbEntity
  8
DEFPOINTS
 62
     0
 48
25.0
100
AcDbPoint
 10
2269.562192101643
 20
2275.075433030023
 30
0.0
  0
POINT
  5
CE14
330
C1E9
100
AcDbEntity
  8
DEFPOINTS
 62
     0
 48
25.0
100
AcDbPoint
 10
2449.562192101643
 20
2275.075433030023
 30
0.0
  0
POINT
  5
CE15
330
C1E9
100
AcDbEntity
  8
DEFPOINTS
 62
     0
 48
25.0
100
AcDbPoint
 10
2449.562192101643
 20
2097.763505928476
 30
0.0
  0
ENDBLK
  5
C1F4
330
C1E9
100
AcDbEntity
  8
0
 48
25.0
100
AcDbBlockEnd
  0
BLOCK
  5
C201
330
C1F5
100
AcDbEntity
  8
0
 48
25.0
100
AcDbBlockBegin
  2
*D78
 70
     1
 10
0.0
 20
0.0
 30
0.0
  3
*D78
  1

  0
LINE
  5
CE16
330
C1F5
100
AcDbEntity
  8
寸法引出
 48
25.0
370
    -2
100
AcDbLine
 10
2159.562192101642
 20
2280.075433030023
 30
0.0
 11
2159.562192101642
 21
2085.263505928475
 31
0.0
  0
LINE
  5
CE17
330
C1F5
100
AcDbEntity
  8
寸法引出
 48
25.0
370
    -2
100
AcDbLine
 10
2269.562192101643
 20
2250.075433030022
 30
0.0
 11
2269.562192101643
 21
2085.263505928475
 31
0.0
  0
LINE
  5
CE18
330
C1F5
100
AcDbEntity
  8
寸法引出
 48
25.0
370
    -2
100
AcDbLine
 10
2122.062192101642
 20
2097.763505928476
 30
0.0
 11
2084.562192101642
 21
2097.763505928476
 31
0.0
  0
LINE
  5
CE19
330
C1F5
100
AcDbEntity
  8
寸法引出
 48
25.0
370
    -2
100
AcDbLine
 10
2307.062192101642
 20
2097.763505928476
 30
0.0
 11
2344.562192101642
 21
2097.763505928476
 31
0.0
  0
LINE
  5
CE1A
330
C1F5
100
AcDbEntity
  8
寸法引出
 48
25.0
370
    -2
100
AcDbLine
 10
2159.562192101642
 20
2097.763505928476
 30
0.0
 11
2269.562192101643
 21
2097.763505928476
 31
0.0
  0
SOLID
  5
CE1B
330
C1F5
100
AcDbEntity
  8
寸法引出
 48
25.0
100
AcDbTrace
 10
2122.062192101642
 20
2104.013505928475
 30
0.0
 11
2122.062192101642
 21
2091.513505928475
 31
0.0
 12
2159.562192101642
 22
2097.763505928476
 32
0.0
 13
2159.562192101642
 23
2097.763505928476
 33
0.0
  0
SOLID
  5
CE1C
330
C1F5
100
AcDbEntity
  8
寸法引出
 48
25.0
100
AcDbTrace
 10
2307.062192101642
 20
2104.013505928475
 30
0.0
 11
2307.062192101642
 21
2091.513505928475
 31
0.0
 12
2269.562192101643
 22
2097.763505928476
 32
0.0
 13
2269.562192101643
 23
2097.763505928476
 33
0.0
  0
MTEXT
  5
CE1D
330
C1F5
100
AcDbEntity
  8
寸法引出
 48
25.0
100
AcDbMText
 10
2214.562192101642
 20
2147.763505928475
 30
0.0
 40
50.0
 41
0.0
 71
     5
 72
     1
  1
\A1;110
  7
SANWA
 73
     1
 44
1.0
  0
POINT
  5
CE1E
330
C1F5
100
AcDbEntity
  8
DEFPOINTS
 62
     0
 48
25.0
100
AcDbPoint
 10
2159.562192101642
 20
2305.075433030022
 30
0.0
  0
POINT
  5
CE1F
330
C1F5
100
AcDbEntity
  8
DEFPOINTS
 62
     0
 48
25.0
100
AcDbPoint
 10
2269.562192101643
 20
2275.075433030023
 30
0.0
  0
POINT
  5
CE20
330
C1F5
100
AcDbEntity
  8
DEFPOINTS
 62
     0
 48
25.0
100
AcDbPoint
 10
2269.562192101643
 20
2097.763505928476
 30
0.0
  0
ENDBLK
  5
C202
330
C1F5
100
AcDbEntity
  8
0
 48
25.0
100
AcDbBlockEnd
  0
BLOCK
  5
C20D
330
C203
100
AcDbEntity
  8
0
 48
25.0
100
AcDbBlockBegin
  2
*D79
 70
     1
 10
0.0
 20
0.0
 30
0.0
  3
*D79
  1

  0
LINE
  5
CE40
330
C203
100
AcDbEntity
  8
寸法引出
 48
25.0
370
    -2
100
AcDbLine
 10
2159.562192101642
 20
3410.075433030025
 30
0.0
 11
2159.562192101642
 21
3679.322907436358
 31
0.0
  0
LINE
  5
CE41
330
C203
100
AcDbEntity
  8
寸法引出
 48
25.0
370
    -2
100
AcDbLine
 10
2559.562192101642
 20
3410.075433030025
 30
0.0
 11
2559.562192101642
 21
3679.322907436358
 31
0.0
  0
LINE
  5
CE42
330
C203
100
AcDbEntity
  8
寸法引出
 48
25.0
370
    -2
100
AcDbLine
 10
2197.062192101642
 20
3666.822907436358
 30
0.0
 11
2522.062192101643
 21
3666.822907436358
 31
0.0
  0
SOLID
  5
CE43
330
C203
100
AcDbEntity
  8
寸法引出
 48
25.0
100
AcDbTrace
 10
2197.062192101642
 20
3673.072907436358
 30
0.0
 11
2197.062192101642
 21
3660.572907436358
 31
0.0
 12
2159.562192101642
 22
3666.822907436358
 32
0.0
 13
2159.562192101642
 23
3666.822907436358
 33
0.0
  0
SOLID
  5
CE44
330
C203
100
AcDbEntity
  8
寸法引出
 48
25.0
100
AcDbTrace
 10
2522.062192101643
 20
3673.072907436358
 30
0.0
 11
2522.062192101643
 21
3660.572907436358
 31
0.0
 12
2559.562192101642
 22
3666.822907436358
 32
0.0
 13
2559.562192101642
 23
3666.822907436358
 33
0.0
  0
MTEXT
  5
CE45
330
C203
100
AcDbEntity
  8
寸法引出
 48
25.0
100
AcDbMText
 10
2359.562192101642
 20
3716.822907436358
 30
0.0
 40
50.0
 41
0.0
 71
     5
 72
     1
  1
\A1;400
  7
SANWA
 73
     1
 44
1.0
  0
POINT
  5
CE46
330
C203
100
AcDbEntity
  8
DEFPOINTS
 62
     0
 48
25.0
100
AcDbPoint
 10
2159.562192101642
 20
3385.075433030024
 30
0.0
  0
POINT
  5
CE47
330
C203
100
AcDbEntity
  8
DEFPOINTS
 62
     0
 48
25.0
100
AcDbPoint
 10
2559.562192101642
 20
3385.075433030024
 30
0.0
  0
POINT
  5
CE48
330
C203
100
AcDbEntity
  8
DEFPOINTS
 62
     0
 48
25.0
100
AcDbPoint
 10
2559.562192101642
 20
3666.822907436358
 30
0.0
  0
ENDBLK
  5
C20E
330
C203
100
AcDbEntity
  8
0
 48
25.0
100
AcDbBlockEnd
  0
BLOCK
  5
C21B
330
C20F
100
AcDbEntity
  8
0
 48
25.0
100
AcDbBlockBegin
  2
*D80
 70
     1
 10
0.0
 20
0.0
 30
0.0
  3
*D80
  1

  0
LINE
  5
CE49
330
C20F
100
AcDbEntity
  8
寸法引出
 48
25.0
370
    -2
100
AcDbLine
 10
2509.562192101642
 20
3410.075433030025
 30
0.0
 11
2509.562192101642
 21
3548.760908638377
 31
0.0
  0
LINE
  5
CE4A
330
C20F
100
AcDbEntity
  8
寸法引出
 48
25.0
370
    -2
100
AcDbLine
 10
2559.562192101642
 20
3410.075433030025
 30
0.0
 11
2559.562192101642
 21
3548.760908638377
 31
0.0
  0
LINE
  5
CE4B
330
C20F
100
AcDbEntity
  8
寸法引出
 48
25.0
370
    -2
100
AcDbLine
 10
2472.062192101642
 20
3536.260908638377
 30
0.0
 11
2434.562192101642
 21
3536.260908638377
 31
0.0
  0
LINE
  5
CE4C
330
C20F
100
AcDbEntity
  8
寸法引出
 48
25.0
370
    -2
100
AcDbLine
 10
2597.062192101642
 20
3536.260908638377
 30
0.0
 11
2634.562192101642
 21
3536.260908638377
 31
0.0
  0
LINE
  5
CE4D
330
C20F
100
AcDbEntity
  8
寸法引出
 48
25.0
370
    -2
100
AcDbLine
 10
2509.562192101642
 20
3536.260908638377
 30
0.0
 11
2559.562192101642
 21
3536.260908638377
 31
0.0
  0
SOLID
  5
CE4E
330
C20F
100
AcDbEntity
  8
寸法引出
 48
25.0
100
AcDbTrace
 10
2472.062192101642
 20
3542.510908638377
 30
0.0
 11
2472.062192101642
 21
3530.010908638377
 31
0.0
 12
2509.562192101642
 22
3536.260908638377
 32
0.0
 13
2509.562192101642
 23
3536.260908638377
 33
0.0
  0
SOLID
  5
CE4F
330
C20F
100
AcDbEntity
  8
寸法引出
 48
25.0
100
AcDbTrace
 10
2597.062192101642
 20
3542.510908638377
 30
0.0
 11
2597.062192101642
 21
3530.010908638377
 31
0.0
 12
2559.562192101642
 22
3536.260908638377
 32
0.0
 13
2559.562192101642
 23
3536.260908638377
 33
0.0
  0
MTEXT
  5
CE50
330
C20F
100
AcDbEntity
  8
寸法引出
 48
25.0
100
AcDbMText
 10
2534.562192101642
 20
3586.260908638377
 30
0.0
 40
50.0
 41
0.0
 71
     5
 72
     1
  1
\A1;50
  7
SANWA
 73
     1
 44
1.0
  0
POINT
  5
CE51
330
C20F
100
AcDbEntity
  8
DEFPOINTS
 62
     0
 48
25.0
100
AcDbPoint
 10
2509.562192101642
 20
3385.075433030024
 30
0.0
  0
POINT
  5
CE52
330
C20F
100
AcDbEntity
  8
DEFPOINTS
 62
     0
 48
25.0
100
AcDbPoint
 10
2559.562192101642
 20
3385.075433030024
 30
0.0
  0
POINT
  5
CE53
330
C20F
100
AcDbEntity
  8
DEFPOINTS
 62
     0
 48
25.0
100
AcDbPoint
 10
2559.562192101642
 20
3536.260908638377
 30
0.0
  0
ENDBLK
  5
C21C
330
C20F
100
AcDbEntity
  8
0
 48
25.0
100
AcDbBlockEnd
  0
BLOCK
  5
C227
330
C21D
100
AcDbEntity
  8
0
 48
25.0
100
AcDbBlockBegin
  2
*D81
 70
     1
 10
0.0
 20
0.0
 30
0.0
  3
*D81
  1

  0
LINE
  5
CE54
330
C21D
100
AcDbEntity
  8
寸法引出
 48
25.0
370
    -2
100
AcDbLine
 10
2209.562192101642
 20
3410.075433030025
 30
0.0
 11
2209.562192101642
 21
3548.760908638377
 31
0.0
  0
LINE
  5
CE55
330
C21D
100
AcDbEntity
  8
寸法引出
 48
25.0
370
    -2
100
AcDbLine
 10
2509.562192101642
 20
3410.075433030025
 30
0.0
 11
2509.562192101642
 21
3548.760908638377
 31
0.0
  0
LINE
  5
CE56
330
C21D
100
AcDbEntity
  8
寸法引出
 48
25.0
370
    -2
100
AcDbLine
 10
2247.062192101642
 20
3536.260908638377
 30
0.0
 11
2472.062192101642
 21
3536.260908638377
 31
0.0
  0
SOLID
  5
CE57
330
C21D
100
AcDbEntity
  8
寸法引出
 48
25.0
100
AcDbTrace
 10
2247.062192101642
 20
3542.510908638377
 30
0.0
 11
2247.062192101642
 21
3530.010908638377
 31
0.0
 12
2209.562192101642
 22
3536.260908638377
 32
0.0
 13
2209.562192101642
 23
3536.260908638377
 33
0.0
  0
SOLID
  5
CE58
330
C21D
100
AcDbEntity
  8
寸法引出
 48
25.0
100
AcDbTrace
 10
2472.062192101642
 20
3542.510908638377
 30
0.0
 11
2472.062192101642
 21
3530.010908638377
 31
0.0
 12
2509.562192101642
 22
3536.260908638377
 32
0.0
 13
2509.562192101642
 23
3536.260908638377
 33
0.0
  0
MTEXT
  5
CE59
330
C21D
100
AcDbEntity
  8
寸法引出
 48
25.0
100
AcDbMText
 10
2359.562192101642
 20
3586.260908638377
 30
0.0
 40
50.0
 41
0.0
 71
     5
 72
     1
  1
\A1;300
  7
SANWA
 73
     1
 44
1.0
  0
POINT
  5
CE5A
330
C21D
100
AcDbEntity
  8
DEFPOINTS
 62
     0
 48
25.0
100
AcDbPoint
 10
2209.562192101642
 20
3385.075433030024
 30
0.0
  0
POINT
  5
CE5B
330
C21D
100
AcDbEntity
  8
DEFPOINTS
 62
     0
 48
25.0
100
AcDbPoint
 10
2509.562192101642
 20
3385.075433030024
 30
0.0
  0
POINT
  5
CE5C
330
C21D
100
AcDbEntity
  8
DEFPOINTS
 62
     0
 48
25.0
100
AcDbPoint
 10
2509.562192101642
 20
3536.260908638377
 30
0.0
  0
ENDBLK
  5
C228
330
C21D
100
AcDbEntity
  8
0
 48
25.0
100
AcDbBlockEnd
  0
BLOCK
  5
C235
330
C229
100
AcDbEntity
  8
0
 48
25.0
100
AcDbBlockBegin
  2
*D82
 70
     1
 10
0.0
 20
0.0
 30
0.0
  3
*D82
  1

  0
LINE
  5
CE5D
330
C229
100
AcDbEntity
  8
寸法引出
 48
25.0
370
    -2
100
AcDbLine
 10
2159.562192101642
 20
3410.075433030025
 30
0.0
 11
2159.562192101642
 21
3548.760908638377
 31
0.0
  0
LINE
  5
CE5E
330
C229
100
AcDbEntity
  8
寸法引出
 48
25.0
370
    -2
100
AcDbLine
 10
2209.562192101642
 20
3410.075433030025
 30
0.0
 11
2209.562192101642
 21
3548.760908638377
 31
0.0
  0
LINE
  5
CE5F
330
C229
100
AcDbEntity
  8
寸法引出
 48
25.0
370
    -2
100
AcDbLine
 10
2122.062192101642
 20
3536.260908638377
 30
0.0
 11
2084.562192101642
 21
3536.260908638377
 31
0.0
  0
LINE
  5
CE60
330
C229
100
AcDbEntity
  8
寸法引出
 48
25.0
370
    -2
100
AcDbLine
 10
2247.062192101642
 20
3536.260908638377
 30
0.0
 11
2284.562192101642
 21
3536.260908638377
 31
0.0
  0
LINE
  5
CE61
330
C229
100
AcDbEntity
  8
寸法引出
 48
25.0
370
    -2
100
AcDbLine
 10
2159.562192101642
 20
3536.260908638377
 30
0.0
 11
2209.562192101642
 21
3536.260908638377
 31
0.0
  0
SOLID
  5
CE62
330
C229
100
AcDbEntity
  8
寸法引出
 48
25.0
100
AcDbTrace
 10
2122.062192101642
 20
3542.510908638377
 30
0.0
 11
2122.062192101642
 21
3530.010908638377
 31
0.0
 12
2159.562192101642
 22
3536.260908638377
 32
0.0
 13
2159.562192101642
 23
3536.260908638377
 33
0.0
  0
SOLID
  5
CE63
330
C229
100
AcDbEntity
  8
寸法引出
 48
25.0
100
AcDbTrace
 10
2247.062192101642
 20
3542.510908638377
 30
0.0
 11
2247.062192101642
 21
3530.010908638377
 31
0.0
 12
2209.562192101642
 22
3536.260908638377
 32
0.0
 13
2209.562192101642
 23
3536.260908638377
 33
0.0
  0
MTEXT
  5
CE64
330
C229
100
AcDbEntity
  8
寸法引出
 48
25.0
100
AcDbMText
 10
2184.562192101642
 20
3586.260908638377
 30
0.0
 40
50.0
 41
0.0
 71
     5
 72
     1
  1
\A1;50
  7
SANWA
 73
     1
 44
1.0
  0
POINT
  5
CE65
330
C229
100
AcDbEntity
  8
DEFPOINTS
 62
     0
 48
25.0
100
AcDbPoint
 10
2159.562192101642
 20
3385.075433030024
 30
0.0
  0
POINT
  5
CE66
330
C229
100
AcDbEntity
  8
DEFPOINTS
 62
     0
 48
25.0
100
AcDbPoint
 10
2209.562192101642
 20
3385.075433030024
 30
0.0
  0
POINT
  5
CE67
330
C229
100
AcDbEntity
  8
DEFPOINTS
 62
     0
 48
25.0
100
AcDbPoint
 10
2209.562192101642
 20
3536.260908638377
 30
0.0
  0
ENDBLK
  5
C236
330
C229
100
AcDbEntity
  8
0
 48
25.0
100
AcDbBlockEnd
  0
BLOCK
  5
C24D
330
C243
100
AcDbEntity
  8
0
 48
25.0
100
AcDbBlockBegin
  2
*D83
 70
     1
 10
0.0
 20
0.0
 30
0.0
  3
*D83
  1

  0
LINE
  5
CDBF
330
C243
100
AcDbEntity
  8
寸法引出
 48
25.0
370
    -2
100
AcDbLine
 10
2134.562192101642
 20
3385.075433030025
 30
0.0
 11
2012.06721373256
 21
3385.075433030025
 31
0.0
  0
LINE
  5
CDC0
330
C243
100
AcDbEntity
  8
寸法引出
 48
25.0
370
    -2
100
AcDbLine
 10
2134.562192101642
 20
3235.075433030025
 30
0.0
 11
2012.06721373256
 21
3235.075433030025
 31
0.0
  0
LINE
  5
CDC1
330
C243
100
AcDbEntity
  8
寸法引出
 48
25.0
370
    -2
100
AcDbLine
 10
2024.56721373256
 20
3347.575433030025
 30
0.0
 11
2024.56721373256
 21
3272.575433030025
 31
0.0
  0
SOLID
  5
CDC2
330
C243
100
AcDbEntity
  8
寸法引出
 48
25.0
100
AcDbTrace
 10
2018.31721373256
 20
3347.575433030025
 30
0.0
 11
2030.81721373256
 21
3347.575433030025
 31
0.0
 12
2024.56721373256
 22
3385.075433030025
 32
0.0
 13
2024.56721373256
 23
3385.075433030025
 33
0.0
  0
SOLID
  5
CDC3
330
C243
100
AcDbEntity
  8
寸法引出
 48
25.0
100
AcDbTrace
 10
2018.31721373256
 20
3272.575433030025
 30
0.0
 11
2030.81721373256
 21
3272.575433030025
 31
0.0
 12
2024.56721373256
 22
3235.075433030025
 32
0.0
 13
2024.56721373256
 23
3235.075433030025
 33
0.0
  0
MTEXT
  5
CDC4
330
C243
100
AcDbEntity
  8
寸法引出
 48
25.0
100
AcDbMText
 10
1974.567213732559
 20
3310.075433030025
 30
0.0
 40
50.0
 41
0.0
 71
     5
 72
     1
  1
\A1;150
  7
SANWA
 11
0.0000000000000001
 21
1.0
 31
0.0
 73
     1
 44
1.0
  0
POINT
  5
CDC5
330
C243
100
AcDbEntity
  8
DEFPOINTS
 62
     0
 48
25.0
100
AcDbPoint
 10
2159.562192101642
 20
3385.075433030025
 30
0.0
  0
POINT
  5
CDC6
330
C243
100
AcDbEntity
  8
DEFPOINTS
 62
     0
 48
25.0
100
AcDbPoint
 10
2159.562192101642
 20
3235.075433030025
 30
0.0
  0
POINT
  5
CDC7
330
C243
100
AcDbEntity
  8
DEFPOINTS
 62
     0
 48
25.0
100
AcDbPoint
 10
2024.56721373256
 20
3235.075433030025
 30
0.0
  0
ENDBLK
  5
C24E
330
C243
100
AcDbEntity
  8
0
 48
25.0
100
AcDbBlockEnd
  0
BLOCK
  5
C8DE
330
C8D4
100
AcDbEntity
  8
0
 48
25.0
100
AcDbBlockBegin
  2
*D84
 70
     1
 10
0.0
 20
0.0
 30
0.0
  3
*D84
  1

  0
LINE
  5
C9D0
330
C8D4
100
AcDbEntity
  8
寸法引出
 48
25.0
370
    -2
100
AcDbLine
 10
24687.47760092942
 20
3385.075433033269
 30
0.0
 11
24806.72047217157
 21
3385.075433033269
 31
0.0
  0
LINE
  5
C9D1
330
C8D4
100
AcDbEntity
  8
寸法引出
 48
25.0
370
    -2
100
AcDbLine
 10
24687.47760092942
 20
1885.075433033266
 30
0.0
 11
24806.72047217157
 21
1885.075433033266
 31
0.0
  0
LINE
  5
C9D2
330
C8D4
100
AcDbEntity
  8
寸法引出
 48
25.0
370
    -2
100
AcDbLine
 10
24794.22047217156
 20
3347.575433033269
 30
0.0
 11
24794.22047217156
 21
1922.575433033267
 31
0.0
  0
SOLID
  5
C9D3
330
C8D4
100
AcDbEntity
  8
寸法引出
 48
25.0
100
AcDbTrace
 10
24787.97047217156
 20
3347.575433033269
 30
0.0
 11
24800.47047217156
 21
3347.575433033269
 31
0.0
 12
24794.22047217156
 22
3385.075433033269
 32
0.0
 13
24794.22047217156
 23
3385.075433033269
 33
0.0
  0
SOLID
  5
C9D4
330
C8D4
100
AcDbEntity
  8
寸法引出
 48
25.0
100
AcDbTrace
 10
24787.97047217156
 20
1922.575433033267
 30
0.0
 11
24800.47047217156
 21
1922.575433033267
 31
0.0
 12
24794.22047217156
 22
1885.075433033266
 32
0.0
 13
24794.22047217156
 23
1885.075433033266
 33
0.0
  0
MTEXT
  5
C9D5
330
C8D4
100
AcDbEntity
  8
寸法引出
 48
25.0
100
AcDbMText
 10
24744.22047217156
 20
2635.075433033271
 30
0.0
 40
50.0
 41
0.0
 71
     5
 72
     1
  1
\A1;1500
  7
SANWA
 11
0.0000000000000001
 21
1.0
 31
0.0
 73
     1
 44
1.0
  0
POINT
  5
C9D6
330
C8D4
100
AcDbEntity
  8
DEFPOINTS
 62
     0
 48
25.0
100
AcDbPoint
 10
24662.47760092942
 20
3385.075433033269
 30
0.0
  0
POINT
  5
C9D7
330
C8D4
100
AcDbEntity
  8
DEFPOINTS
 62
     0
 48
25.0
100
AcDbPoint
 10
24662.47760092942
 20
1885.075433033266
 30
0.0
  0
POINT
  5
C9D8
330
C8D4
100
AcDbEntity
  8
DEFPOINTS
 62
     0
 48
25.0
100
AcDbPoint
 10
24794.22047217156
 20
1885.075433033266
 30
0.0
  0
ENDBLK
  5
C8DF
330
C8D4
100
AcDbEntity
  8
0
 48
25.0
100
AcDbBlockEnd
  0
BLOCK
  5
C8EA
330
C8E0
100
AcDbEntity
  8
0
 48
25.0
100
AcDbBlockBegin
  2
*D85
 70
     1
 10
0.0
 20
0.0
 30
0.0
  3
*D85
  1

  0
LINE
  5
C9D9
330
C8E0
100
AcDbEntity
  8
寸法引出
 48
25.0
370
    -2
100
AcDbLine
 10
24687.47760092942
 20
3385.075433033269
 30
0.0
 11
24914.68987283341
 21
3385.075433033269
 31
0.0
  0
LINE
  5
C9DA
330
C8E0
100
AcDbEntity
  8
寸法引出
 48
25.0
370
    -2
100
AcDbLine
 10
24637.47760092942
 20
1775.075433033267
 30
0.0
 11
24914.68987283341
 21
1775.075433033267
 31
0.0
  0
LINE
  5
C9DB
330
C8E0
100
AcDbEntity
  8
寸法引出
 48
25.0
370
    -2
100
AcDbLine
 10
24902.18987283342
 20
3347.575433033269
 30
0.0
 11
24902.18987283342
 21
1812.575433033267
 31
0.0
  0
SOLID
  5
C9DC
330
C8E0
100
AcDbEntity
  8
寸法引出
 48
25.0
100
AcDbTrace
 10
24895.93987283341
 20
3347.575433033269
 30
0.0
 11
24908.43987283342
 21
3347.575433033269
 31
0.0
 12
24902.18987283342
 22
3385.075433033269
 32
0.0
 13
24902.18987283342
 23
3385.075433033269
 33
0.0
  0
SOLID
  5
C9DD
330
C8E0
100
AcDbEntity
  8
寸法引出
 48
25.0
100
AcDbTrace
 10
24895.93987283341
 20
1812.575433033267
 30
0.0
 11
24908.43987283342
 21
1812.575433033267
 31
0.0
 12
24902.18987283342
 22
1775.075433033267
 32
0.0
 13
24902.18987283342
 23
1775.075433033267
 33
0.0
  0
MTEXT
  5
C9DE
330
C8E0
100
AcDbEntity
  8
寸法引出
 48
25.0
100
AcDbMText
 10
24852.18987283341
 20
2580.075433033272
 30
0.0
 40
50.0
 41
0.0
 71
     5
 72
     1
  1
\A1;1610
  7
SANWA
 11
0.0000000000000001
 21
1.0
 31
0.0
 73
     1
 44
1.0
  0
POINT
  5
C9DF
330
C8E0
100
AcDbEntity
  8
DEFPOINTS
 62
     0
 48
25.0
100
AcDbPoint
 10
24662.47760092942
 20
3385.075433033269
 30
0.0
  0
POINT
  5
C9E0
330
C8E0
100
AcDbEntity
  8
DEFPOINTS
 62
     0
 48
25.0
100
AcDbPoint
 10
24612.47760092942
 20
1775.075433033267
 30
0.0
  0
POINT
  5
C9E1
330
C8E0
100
AcDbEntity
  8
DEFPOINTS
 62
     0
 48
25.0
100
AcDbPoint
 10
24902.18987283342
 20
1775.075433033267
 30
0.0
  0
ENDBLK
  5
C8EB
330
C8E0
100
AcDbEntity
  8
0
 48
25.0
100
AcDbBlockEnd
  0
BLOCK
  5
CC94
330
CC8A
100
AcDbEntity
  8
0
 48
25.0
100
AcDbBlockBegin
  2
*D86
 70
     1
 10
0.0
 20
0.0
 30
0.0
  3
*D86
  1

  0
LINE
  5
CC8B
330
CC8A
100
AcDbEntity
  8
0
 48
25.0
370
    -2
100
AcDbLine
 10
24372.47760092942
 20
2410.075433033267
 30
0.0
 11
24372.47760092942
 21
2433.731117082905
 31
0.0
  0
LINE
  5
CC8C
330
CC8A
100
AcDbEntity
  8
0
 48
25.0
370
    -2
100
AcDbLine
 10
24552.47760092942
 20
2410.075433033267
 30
0.0
 11
24552.47760092942
 21
2433.731117082905
 31
0.0
  0
LINE
  5
CC8D
330
CC8A
100
AcDbEntity
  8
0
 48
25.0
370
    -2
100
AcDbLine
 10
24409.97760092943
 20
2421.231117082905
 30
0.0
 11
24514.97760092942
 21
2421.231117082905
 31
0.0
  0
SOLID
  5
CC8E
330
CC8A
100
AcDbEntity
  8
0
 48
25.0
100
AcDbTrace
 10
24409.97760092943
 20
2427.481117082905
 30
0.0
 11
24409.97760092943
 21
2414.981117082905
 31
0.0
 12
24372.47760092942
 22
2421.231117082905
 32
0.0
 13
24372.47760092942
 23
2421.231117082905
 33
0.0
  0
SOLID
  5
CC8F
330
CC8A
100
AcDbEntity
  8
0
 48
25.0
100
AcDbTrace
 10
24514.97760092942
 20
2427.481117082905
 30
0.0
 11
24514.97760092942
 21
2414.981117082905
 31
0.0
 12
24552.47760092942
 22
2421.231117082905
 32
0.0
 13
24552.47760092942
 23
2421.231117082905
 33
0.0
  0
MTEXT
  5
CC90
330
CC8A
100
AcDbEntity
  8
0
 48
25.0
100
AcDbMText
 10
24462.47760092942
 20
2471.231117082905
 30
0.0
 40
50.0
 41
0.0
 71
     5
 72
     1
  1
\A1;180
  7
SANWA
 73
     1
 44
1.0
  0
POINT
  5
CC91
330
CC8A
100
AcDbEntity
  8
DEFPOINTS
 62
     0
 48
25.0
100
AcDbPoint
 10
24372.47760092942
 20
2385.075433033267
 30
0.0
  0
POINT
  5
CC92
330
CC8A
100
AcDbEntity
  8
DEFPOINTS
 62
     0
 48
25.0
100
AcDbPoint
 10
24552.47760092942
 20
2385.075433033267
 30
0.0
  0
POINT
  5
CC93
330
CC8A
100
AcDbEntity
  8
DEFPOINTS
 62
     0
 48
25.0
100
AcDbPoint
 10
24552.47760092942
 20
2421.231117082905
 30
0.0
  0
ENDBLK
  5
CC95
330
CC8A
100
AcDbEntity
  8
0
 48
25.0
100
AcDbBlockEnd
  0
BLOCK
  5
CCA1
330
CC97
100
AcDbEntity
  8
0
 48
25.0
100
AcDbBlockBegin
  2
*D87
 70
     1
 10
0.0
 20
0.0
 30
0.0
  3
*D87
  1

  0
LINE
  5
CC98
330
CC97
100
AcDbEntity
  8
0
 48
25.0
370
    -2
100
AcDbLine
 10
24378.47760092942
 20
2310.075433033267
 30
0.0
 11
24378.47760092942
 21
2312.445638058925
 31
0.0
  0
LINE
  5
CC99
330
CC97
100
AcDbEntity
  8
0
 48
25.0
370
    -2
100
AcDbLine
 10
24546.47760092941
 20
2310.075433033267
 30
0.0
 11
24546.47760092941
 21
2312.445638058925
 31
0.0
  0
LINE
  5
CC9A
330
CC97
100
AcDbEntity
  8
0
 48
25.0
370
    -2
100
AcDbLine
 10
24415.97760092943
 20
2299.945638058925
 30
0.0
 11
24508.97760092941
 21
2299.945638058925
 31
0.0
  0
SOLID
  5
CC9B
330
CC97
100
AcDbEntity
  8
0
 48
25.0
100
AcDbTrace
 10
24415.97760092943
 20
2306.195638058925
 30
0.0
 11
24415.97760092943
 21
2293.695638058925
 31
0.0
 12
24378.47760092942
 22
2299.945638058925
 32
0.0
 13
24378.47760092942
 23
2299.945638058925
 33
0.0
  0
SOLID
  5
CC9C
330
CC97
100
AcDbEntity
  8
0
 48
25.0
100
AcDbTrace
 10
24508.97760092941
 20
2306.195638058925
 30
0.0
 11
24508.97760092941
 21
2293.695638058925
 31
0.0
 12
24546.47760092941
 22
2299.945638058925
 32
0.0
 13
24546.47760092941
 23
2299.945638058925
 33
0.0
  0
MTEXT
  5
CC9D
330
CC97
100
AcDbEntity
  8
0
 48
25.0
100
AcDbMText
 10
24462.47760092942
 20
2349.945638058925
 30
0.0
 40
50.0
 41
0.0
 71
     5
 72
     1
  1
\A1;168
  7
SANWA
 73
     1
 44
1.0
  0
POINT
  5
CC9E
330
CC97
100
AcDbEntity
  8
DEFPOINTS
 62
     0
 48
25.0
100
AcDbPoint
 10
24378.47760092942
 20
2285.075433033267
 30
0.0
  0
POINT
  5
CC9F
330
CC97
100
AcDbEntity
  8
DEFPOINTS
 62
     0
 48
25.0
100
AcDbPoint
 10
24546.47760092941
 20
2285.075433033267
 30
0.0
  0
POINT
  5
CCA0
330
CC97
100
AcDbEntity
  8
DEFPOINTS
 62
     0
 48
25.0
100
AcDbPoint
 10
24546.47760092941
 20
2299.945638058925
 30
0.0
  0
ENDBLK
  5
CCA2
330
CC97
100
AcDbEntity
  8
0
 48
25.0
100
AcDbBlockEnd
  0
BLOCK
  5
CCAE
330
CCA4
100
AcDbEntity
  8
0
 48
25.0
100
AcDbBlockBegin
  2
*D88
 70
     1
 10
0.0
 20
0.0
 30
0.0
  3
*D88
  1

  0
LINE
  5
CCA5
330
CCA4
100
AcDbEntity
  8
0
 48
25.0
370
    -2
100
AcDbLine
 10
24384.47760092942
 20
2210.075433033267
 30
0.0
 11
24384.47760092942
 21
2216.001797088814
 31
0.0
  0
LINE
  5
CCA6
330
CCA4
100
AcDbEntity
  8
0
 48
25.0
370
    -2
100
AcDbLine
 10
24540.47760092941
 20
2210.075433033267
 30
0.0
 11
24540.47760092941
 21
2216.001797088814
 31
0.0
  0
LINE
  5
CCA7
330
CCA4
100
AcDbEntity
  8
0
 48
25.0
370
    -2
100
AcDbLine
 10
24421.97760092942
 20
2203.501797088815
 30
0.0
 11
24502.97760092941
 21
2203.501797088815
 31
0.0
  0
SOLID
  5
CCA8
330
CCA4
100
AcDbEntity
  8
0
 48
25.0
100
AcDbTrace
 10
24421.97760092942
 20
2209.751797088814
 30
0.0
 11
24421.97760092942
 21
2197.251797088815
 31
0.0
 12
24384.47760092942
 22
2203.501797088815
 32
0.0
 13
24384.47760092942
 23
2203.501797088815
 33
0.0
  0
SOLID
  5
CCA9
330
CCA4
100
AcDbEntity
  8
0
 48
25.0
100
AcDbTrace
 10
24502.97760092941
 20
2209.751797088814
 30
0.0
 11
24502.97760092941
 21
2197.251797088815
 31
0.0
 12
24540.47760092941
 22
2203.501797088815
 32
0.0
 13
24540.47760092941
 23
2203.501797088815
 33
0.0
  0
MTEXT
  5
CCAA
330
CCA4
100
AcDbEntity
  8
0
 48
25.0
100
AcDbMText
 10
24462.47760092942
 20
2253.501797088814
 30
0.0
 40
50.0
 41
0.0
 71
     5
 72
     1
  1
\A1;156
  7
SANWA
 73
     1
 44
1.0
  0
POINT
  5
CCAB
330
CCA4
100
AcDbEntity
  8
DEFPOINTS
 62
     0
 48
25.0
100
AcDbPoint
 10
24384.47760092942
 20
2185.075433033267
 30
0.0
  0
POINT
  5
CCAC
330
CCA4
100
AcDbEntity
  8
DEFPOINTS
 62
     0
 48
25.0
100
AcDbPoint
 10
24540.47760092941
 20
2185.075433033267
 30
0.0
  0
POINT
  5
CCAD
330
CCA4
100
AcDbEntity
  8
DEFPOINTS
 62
     0
 48
25.0
100
AcDbPoint
 10
24540.47760092941
 20
2203.501797088815
 30
0.0
  0
ENDBLK
  5
CCAF
330
CCA4
100
AcDbEntity
  8
0
 48
25.0
100
AcDbBlockEnd
  0
BLOCK
  5
CCBD
330
CCB1
100
AcDbEntity
  8
0
 48
25.0
100
AcDbBlockBegin
  2
*D89
 70
     1
 10
0.0
 20
0.0
 30
0.0
  3
*D89
  1

  0
LINE
  5
CCB2
330
CCB1
100
AcDbEntity
  8
0
 48
25.0
370
    -2
100
AcDbLine
 10
24390.47760092943
 20
2110.075433033267
 30
0.0
 11
24390.47760092943
 21
2118.096600496028
 31
0.0
  0
LINE
  5
CCB3
330
CCB1
100
AcDbEntity
  8
0
 48
25.0
370
    -2
100
AcDbLine
 10
24534.47760092941
 20
2110.075433033267
 30
0.0
 11
24534.47760092941
 21
2118.096600496028
 31
0.0
  0
LINE
  5
CCB4
330
CCB1
100
AcDbEntity
  8
0
 48
25.0
370
    -2
100
AcDbLine
 10
24352.97760092943
 20
2105.596600496028
 30
0.0
 11
24315.47760092942
 21
2105.596600496028
 31
0.0
  0
LINE
  5
CCB5
330
CCB1
100
AcDbEntity
  8
0
 48
25.0
370
    -2
100
AcDbLine
 10
24571.97760092941
 20
2105.596600496028
 30
0.0
 11
24609.47760092941
 21
2105.596600496028
 31
0.0
  0
LINE
  5
CCB6
330
CCB1
100
AcDbEntity
  8
0
 48
25.0
370
    -2
100
AcDbLine
 10
24390.47760092943
 20
2105.596600496028
 30
0.0
 11
24534.47760092941
 21
2105.596600496028
 31
0.0
  0
SOLID
  5
CCB7
330
CCB1
100
AcDbEntity
  8
0
 48
25.0
100
AcDbTrace
 10
24352.97760092943
 20
2111.846600496028
 30
0.0
 11
24352.97760092943
 21
2099.346600496028
 31
0.0
 12
24390.47760092943
 22
2105.596600496028
 32
0.0
 13
24390.47760092943
 23
2105.596600496028
 33
0.0
  0
SOLID
  5
CCB8
330
CCB1
100
AcDbEntity
  8
0
 48
25.0
100
AcDbTrace
 10
24571.97760092941
 20
2111.846600496028
 30
0.0
 11
24571.97760092941
 21
2099.346600496028
 31
0.0
 12
24534.47760092941
 22
2105.596600496028
 32
0.0
 13
24534.47760092941
 23
2105.596600496028
 33
0.0
  0
MTEXT
  5
CCB9
330
CCB1
100
AcDbEntity
  8
0
 48
25.0
100
AcDbMText
 10
24462.47760092942
 20
2155.596600496028
 30
0.0
 40
50.0
 41
0.0
 71
     5
 72
     1
  1
\A1;144
  7
SANWA
 73
     1
 44
1.0
  0
POINT
  5
CCBA
330
CCB1
100
AcDbEntity
  8
DEFPOINTS
 62
     0
 48
25.0
100
AcDbPoint
 10
24390.47760092943
 20
2085.075433033267
 30
0.0
  0
POINT
  5
CCBB
330
CCB1
100
AcDbEntity
  8
DEFPOINTS
 62
     0
 48
25.0
100
AcDbPoint
 10
24534.47760092941
 20
2085.075433033267
 30
0.0
  0
POINT
  5
CCBC
330
CCB1
100
AcDbEntity
  8
DEFPOINTS
 62
     0
 48
25.0
100
AcDbPoint
 10
24534.47760092941
 20
2105.596600496028
 30
0.0
  0
ENDBLK
  5
CCBE
330
CCB1
100
AcDbEntity
  8
0
 48
25.0
100
AcDbBlockEnd
  0
BLOCK
  5
CCCC
330
CCC0
100
AcDbEntity
  8
0
 48
25.0
100
AcDbBlockBegin
  2
*D90
 70
     1
 10
0.0
 20
0.0
 30
0.0
  3
*D90
  1

  0
LINE
  5
CCC1
330
CCC0
100
AcDbEntity
  8
0
 48
25.0
370
    -2
100
AcDbLine
 10
24396.47760092943
 20
2010.075433033267
 30
0.0
 11
24396.47760092943
 21
2007.04004781814
 31
0.0
  0
LINE
  5
CCC2
330
CCC0
100
AcDbEntity
  8
0
 48
25.0
370
    -2
100
AcDbLine
 10
24528.47760092941
 20
2010.075433033267
 30
0.0
 11
24528.47760092941
 21
2007.04004781814
 31
0.0
  0
LINE
  5
CCC3
330
CCC0
100
AcDbEntity
  8
0
 48
25.0
370
    -2
100
AcDbLine
 10
24358.97760092943
 20
1994.54004781814
 30
0.0
 11
24321.47760092942
 21
1994.54004781814
 31
0.0
  0
LINE
  5
CCC4
330
CCC0
100
AcDbEntity
  8
0
 48
25.0
370
    -2
100
AcDbLine
 10
24565.97760092941
 20
1994.54004781814
 30
0.0
 11
24603.47760092941
 21
1994.54004781814
 31
0.0
  0
LINE
  5
CCC5
330
CCC0
100
AcDbEntity
  8
0
 48
25.0
370
    -2
100
AcDbLine
 10
24396.47760092943
 20
1994.54004781814
 30
0.0
 11
24528.47760092941
 21
1994.54004781814
 31
0.0
  0
SOLID
  5
CCC6
330
CCC0
100
AcDbEntity
  8
0
 48
25.0
100
AcDbTrace
 10
24358.97760092943
 20
2000.79004781814
 30
0.0
 11
24358.97760092943
 21
1988.29004781814
 31
0.0
 12
24396.47760092943
 22
1994.54004781814
 32
0.0
 13
24396.47760092943
 23
1994.54004781814
 33
0.0
  0
SOLID
  5
CCC7
330
CCC0
100
AcDbEntity
  8
0
 48
25.0
100
AcDbTrace
 10
24565.97760092941
 20
2000.79004781814
 30
0.0
 11
24565.97760092941
 21
1988.29004781814
 31
0.0
 12
24528.47760092941
 22
1994.54004781814
 32
0.0
 13
24528.47760092941
 23
1994.54004781814
 33
0.0
  0
MTEXT
  5
CCC8
330
CCC0
100
AcDbEntity
  8
0
 48
25.0
100
AcDbMText
 10
24462.47760092942
 20
2044.54004781814
 30
0.0
 40
50.0
 41
0.0
 71
     5
 72
     1
  1
\A1;132
  7
SANWA
 73
     1
 44
1.0
  0
POINT
  5
CCC9
330
CCC0
100
AcDbEntity
  8
DEFPOINTS
 62
     0
 48
25.0
100
AcDbPoint
 10
24396.47760092943
 20
1985.075433033267
 30
0.0
  0
POINT
  5
CCCA
330
CCC0
100
AcDbEntity
  8
DEFPOINTS
 62
     0
 48
25.0
100
AcDbPoint
 10
24528.47760092941
 20
1985.075433033267
 30
0.0
  0
POINT
  5
CCCB
330
CCC0
100
AcDbEntity
  8
DEFPOINTS
 62
     0
 48
25.0
100
AcDbPoint
 10
24528.47760092941
 20
1994.54004781814
 30
0.0
  0
ENDBLK
  5
CCCD
330
CCC0
100
AcDbEntity
  8
0
 48
25.0
100
AcDbBlockEnd
  0
BLOCK
  5
CD28
330
CD1E
100
AcDbEntity
  8
0
 48
25.0
100
AcDbBlockBegin
  2
*D91
 70
     1
 10
0.0
 20
0.0
 30
0.0
  3
*D91
  1

  0
LINE
  5
CDD1
330
CD1E
100
AcDbEntity
  8
寸法引出
 48
25.0
370
    -2
100
AcDbLine
 10
5148.46991020711
 20
3385.075433030023
 30
0.0
 11
5329.511186378411
 21
3385.075433030023
 31
0.0
  0
LINE
  5
CDD2
330
CD1E
100
AcDbEntity
  8
寸法引出
 48
25.0
370
    -2
100
AcDbLine
 10
5178.469910207106
 20
2720.075433030023
 30
0.0
 11
5329.511186378411
 21
2720.075433030023
 31
0.0
  0
LINE
  5
CDD3
330
CD1E
100
AcDbEntity
  8
寸法引出
 48
25.0
370
    -2
100
AcDbLine
 10
5317.011186378412
 20
3347.575433030023
 30
0.0
 11
5317.011186378412
 21
2757.575433030023
 31
0.0
  0
SOLID
  5
CDD4
330
CD1E
100
AcDbEntity
  8
寸法引出
 48
25.0
100
AcDbTrace
 10
5310.761186378411
 20
3347.575433030023
 30
0.0
 11
5323.261186378411
 21
3347.575433030023
 31
0.0
 12
5317.011186378412
 22
3385.075433030023
 32
0.0
 13
5317.011186378412
 23
3385.075433030023
 33
0.0
  0
SOLID
  5
CDD5
330
CD1E
100
AcDbEntity
  8
寸法引出
 48
25.0
100
AcDbTrace
 10
5310.761186378411
 20
2757.575433030023
 30
0.0
 11
5323.261186378411
 21
2757.575433030023
 31
0.0
 12
5317.011186378412
 22
2720.075433030023
 32
0.0
 13
5317.011186378412
 23
2720.075433030023
 33
0.0
  0
MTEXT
  5
CDD6
330
CD1E
100
AcDbEntity
  8
寸法引出
 48
25.0
100
AcDbMText
 10
5267.011186378411
 20
3052.575433030024
 30
0.0
 40
50.0
 41
0.0
 71
     5
 72
     1
  1
\A1;665
  7
SANWA
 11
0.0000000000000001
 21
1.0
 31
0.0
 73
     1
 44
1.0
  0
POINT
  5
CDD7
330
CD1E
100
AcDbEntity
  8
DEFPOINTS
 62
     0
 48
25.0
100
AcDbPoint
 10
5123.469910207109
 20
3385.075433030023
 30
0.0
  0
POINT
  5
CDD8
330
CD1E
100
AcDbEntity
  8
DEFPOINTS
 62
     0
 48
25.0
100
AcDbPoint
 10
5153.469910207107
 20
2720.075433030023
 30
0.0
  0
POINT
  5
CDD9
330
CD1E
100
AcDbEntity
  8
DEFPOINTS
 62
     0
 48
25.0
100
AcDbPoint
 10
5317.011186378412
 20
2720.075433030023
 30
0.0
  0
ENDBLK
  5
CD29
330
CD1E
100
AcDbEntity
  8
0
 48
25.0
100
AcDbBlockEnd
  0
ENDSEC
  0
SECTION
  2
ENTITIES
  0
INSERT
  5
81E3
330
747D
100
AcDbEntity
  8
ASHADE
 62
     1
 48
15.0
100
AcDbBlockReference
  2
AVE_RENDER
 10
0.0
 20
0.0
 30
0.0
1001
AVE_RENDER
1002
{
1070
     7
1000
Pref
1070
    30
1070
    20
1070
     1
1070
     0
1000

1070
    10
1070
     1
1070
    10
1040
1.0
1070
     1
1040
0.7
1040
1.0
1040
0.0
1040
10.0
1010
-1.0
1020
-1.0
1030
-1.0
1040
0.3
1070
    49
1070
     0
1070
     0
1010
1.0
1020
1.0
1030
1.0
1040
45.0
1070
     1
1070
     0
1000
WCS
1040
0.0
1070
     0
1040
10.0
1002
}
  0
INSERT
  5
81E4
330
747D
100
AcDbEntity
  8
ASHADE
 62
     3
 48
15.0
100
AcDbBlockReference
  2
AVE_RENDER
 10
0.0
 20
0.0
 30
0.0
1001
AVE_RENDER
1002
{
1070
     0
1000
Full Opt
1070
     0
1070
     1
1070
     1
1070
     1
1070
     0
1070
     0
1070
     0
1070
     1
1070
     1
1040
0.0001
1040
0.0001
1002
}
  0
INSERT
  5
81E5
330
747D
100
AcDbEntity
  8
ASHADE
 62
     4
 48
15.0
100
AcDbBlockReference
  2
AVE_RENDER
 10
0.0
 20
0.0
 30
0.0
1001
AVE_RENDER
1002
{
1070
     0
1000
Quick Opt
1070
     0
1070
     1
1070
     1
1070
     1
1070
     0
1070
     0
1070
     1
1002
}
  0
INSERT
  5
81E6
330
747D
100
AcDbEntity
  8
ASHADE
 62
     5
 48
15.0
100
AcDbBlockReference
  2
AVE_RENDER
 10
0.0
 20
0.0
 30
0.0
1001
AVE_RENDER
1002
{
1070
     1
1000
Scanl Opt
1070
     2
1070
     0
1070
     2
1040
2.0
1040
4.0
1070
     0
1070
     1
1070
     0
1040
0.03
1002
}
  0
INSERT
  5
81E7
330
747D
100
AcDbEntity
  8
ASHADE
 62
     6
 48
15.0
100
AcDbBlockReference
  2
AVE_RENDER
 10
0.0
 20
0.0
 30
0.0
1001
AVE_RENDER
1002
{
1070
     2
1000
Raytr Opt
1070
     2
1070
     0
1070
     2
1040
2.0
1040
4.0
1070
     0
1070
     1
1070
     1
1040
0.03
1070
     3
1040
0.03
1002
}
  0
INSERT
  5
81E8
330
747D
100
AcDbEntity
  8
ASHADE
 62
     7
 48
15.0
100
AcDbBlockReference
  2
AVE_RENDER
 10
0.0
 20
0.0
 30
0.0
1001
AVE_RENDER
1002
{
1070
     0
1000
RFile Opt
1070
     1
1070
   640
1070
   480
1070
 10000
1070
     1
1070
     8
1070
     8
1070
     0
1070
     0
1070
     0
1070
     0
1070
     0
1070
     0
1070
     0
1002
}
  0
INSERT
  5
81E9
330
747D
100
AcDbEntity
  8
ASHADE
 62
     8
 48
15.0
100
AcDbBlockReference
  2
AVE_RENDER
 10
0.0
 20
0.0
 30
0.0
1001
AVE_RENDER
1002
{
1070
     0
1000
Fog Opt
1070
     0
1070
     0
1040
0.0
1040
1.0
1040
0.0
1040
1.0
1010
0.5
1020
0.5
1030
0.5
1002
}
  0
INSERT
  5
81EA
330
747D
100
AcDbEntity
  8
ASHADE
 62
     9
 48
15.0
100
AcDbBlockReference
  2
AVE_RENDER
 10
0.0
 20
0.0
 30
0.0
1001
AVE_RENDER
1002
{
1070
     0
1000
BG Opt
1070
     0
1070
     1
1010
0.0
1020
0.0
1030
0.0
1010
1.0
1020
0.0
1030
0.0
1010
0.0
1020
1.0
1030
0.0
1010
0.0
1020
0.0
1030
1.0
1040
0.5
1040
0.33
1040
0.0
1000

1070
     1
1000

1070
     1
1070
     1
1040
1.0
1040
1.0
1040
0.0
1040
0.0
1070
     0
1002
}
  0
INSERT
  5
81F1
330
747D
100
AcDbEntity
  8
ASHADE
 62
     1
 48
15.0
100
AcDbBlockReference
  2
AVE_GLOBAL
 10
0.0
 20
0.0
 30
0.0
1001
AVE_MATERIAL
1002
{
1000
*GLOBAL*
1000
2
1000
Global finish.
1002
{
1002
}
1002
{
1070
    63
1002
{
1002
{
1010
-1.0
1020
-1.0
1030
-1.0
1002
}
1040
0.6999999880790711
1000

1040
0.0
1002
{
1002
}
1040
0.0
1002
{
1002
}
1040
0.0
1002
}
1002
{
1002
{
1010
-1.0
1020
-1.0
1030
-1.0
1002
}
1040
1.0
1000

1040
0.0
1002
{
1002
}
1040
0.0
1002
{
1002
}
1040
0.0
1002
}
1002
{
1002
{
1010
-1.0
1020
-1.0
1030
-1.0
1002
}
1040
0.2000000029802322
1000

1040
0.0
1002
{
1002
}
1040
0.0
1002
{
1002
}
1040
0.0
1002
}
1002
{
1070
     0
1002
{
1070
     1
1002
{
1040
1.0
1040
1.0
1000

1040
0.0
1002
{
1002
}
1040
0.0
1002
{
1002
}
1040
0.0
1002
}
1002
}
1040
1.0
1040
0.0
1040
0.0
1002
}
1002
{
1040
1.0
1040
1.0
1000

1040
0.0
1002
{
1002
}
1040
0.0
1002
{
1002
}
1040
0.0
1002
}
1002
{
1040
0.5
1040
1.0
1000

1040
0.0
1002
{
1002
}
1040
0.0
1002
{
1002
}
1040
0.0
1002
}
1002
{
1070
     0
1040
0.0
1002
{
1002
}
1040
1.0
1002
{
1002
}
1040
0.0
1002
}
1002
{
1040
0.0
1002
{
1002
{
1010
0.0
1020
0.0
1030
0.0
1002
}
1040
1.0
1000

1040
0.0
1002
{
1002
}
1040
0.0
1002
{
1002
}
1040
0.0
1002
}
1002
}
1002
{
1002
{
1070
     1
1002
{
1040
0.0
1040
1.0
1000

1040
0.0
1002
{
1002
}
1040
0.0
1002
{
1002
}
1040
0.0
1002
}
1002
}
1040
0.0
1002
{
1002
}
1010
1.0
1020
0.0
1030
0.0
1010
0.0
1020
1.0
1030
0.0
1010
0.0
1020
0.0
1030
1.0
1070
     0
1002
}
1002
{
1002
{
1040
1.0
1040
1.0
1002
{
1070
     1
1002
{
1040
1.0
1040
1.0
1000

1040
0.0
1002
{
1002
}
1040
0.0
1002
{
1002
}
1040
0.0
1002
}
1002
}
1002
}
1070
     0
1040
0.0
1002
{
1002
}
1002
}
1002
{
1002
}
1002
}
1002
{
1071
        3
1070
     3
1070
     0
1002
{
1070
     2
1070
     0
1070
     0
1040
0.0
1002
}
1070
     0
1070
     2
1002
{
1002
}
1002
}
1002
{
1040
8030.0
1040
190.3000030517578
1040
0.3050000071525574
1040
228.0
1040
545.0
1040
14.0
1040
17.39999961853027
1040
0.4560000002384186
1002
}
1002
}
  0
LINE
  5
BFFD
330
747D
100
AcDbEntity
  8
0
100
AcDbLine
 10
0.0
 20
5250.0
 30
0.0
 11
625.0
 21
5250.0
 31
0.0
  0
LINE
  5
BFFE
330
747D
100
AcDbEntity
  8
0
100
AcDbLine
 10
625.0
 20
0.0
 30
0.0
 11
0.0
 21
0.0
 31
0.0
  0
LINE
  5
BFFF
330
747D
100
AcDbEntity
  8
0
100
AcDbLine
 10
0.0
 20
0.0
 30
0.0
 11
0.0
 21
250.0
 31
0.0
  0
LINE
  5
C000
330
747D
100
AcDbEntity
  8
0
100
AcDbLine
 10
0.0
 20
5000.0
 30
0.0
 11
0.0
 21
5250.0
 31
0.0
  0
LINE
  5
C001
330
747D
100
AcDbEntity
  8
枠
100
AcDbLine
 10
7175.0
 20
250.0
 30
0.0
 11
7175.0
 21
5000.0
 31
0.0
  0
LINE
  5
C002
330
747D
100
AcDbEntity
  8
0
 48
25.0
100
AcDbLine
 10
4123.469910207106
 20
3385.075433030023
 30
0.0
 11
4123.469910207106
 21
2275.075433030023
 31
0.0
  0
LINE
  5
C003
330
747D
100
AcDbEntity
  8
0
 48
25.0
100
AcDbLine
 10
6123.469910207106
 20
3385.075433030023
 30
0.0
 11
6123.469910207106
 21
2275.075433030023
 31
0.0
  0
LINE
  5
C004
330
747D
100
AcDbEntity
  8
枠
100
AcDbLine
 10
625.0
 20
250.0
 30
0.0
 11
625.0
 21
5000.0
 31
0.0
  0
LINE
  5
C005
330
747D
100
AcDbEntity
  8
0
 48
15.0
100
AcDbLine
 10
2209.562192101642
 20
3385.075433030025
 30
0.0
 11
2265.801296952762
 21
2435.220701681732
 31
0.0
  0
LINE
  5
C006
330
747D
100
AcDbEntity
  8
0
 48
15.0
100
AcDbLine
 10
2159.562192101642
 20
3385.075433030025
 30
0.0
 11
2159.562192101642
 21
2305.075433030022
 31
0.0
  0
LINE
  5
C007
330
747D
100
AcDbEntity
  8
0
 48
15.0
100
AcDbLine
 10
2453.323087250522
 20
2435.220701681732
 30
0.0
 11
2509.562192101642
 21
3385.075433030025
 31
0.0
  0
LINE
  5
C008
330
747D
100
AcDbEntity
  8
0
 48
15.0
100
AcDbLine
 10
2559.562192101642
 20
3385.075433030025
 30
0.0
 11
2559.562192101642
 21
2305.075433030022
 31
0.0
  0
DIMENSION
  5
C009
330
747D
100
AcDbEntity
  8
寸法引出
 48
25.0
100
AcDbDimension
  2
*D69
 10
2691.305063343781
 20
2385.075433030023
 30
0.0
 11
2641.305063343781
 21
2885.075433030024
 31
0.0
 70
    32
 71
     5
 42
1000.000000000001
  3
SANWA
100
AcDbAlignedDimension
 13
2559.562192101642
 23
3385.075433030024
 33
0.0
 14
2559.562192101642
 24
2385.075433030023
 34
0.0
 50
90.0
100
AcDbRotatedDimension
1001
ACAD
1000
DSTYLE
1002
{
1070
    40
1040
25.0
1070
    41
1040
1.5
1070
    43
1040
5.0
1070
    44
1040
0.5
1070
   140
1040
2.0
1070
   147
1040
1.0
1070
   176
1070
   256
1070
   177
1070
   256
1070
   178
1070
   256
1002
}
  0
DIMENSION
  5
C00A
330
747D
100
AcDbEntity
  8
寸法引出
 48
25.0
100
AcDbDimension
  2
*D68
 10
2799.274464005633
 20
2275.075433030023
 30
0.0
 11
2749.274464005633
 21
2830.075433030024
 31
0.0
 70
    32
 71
     5
 42
1110.000000000001
  3
SANWA
100
AcDbAlignedDimension
 13
2559.562192101642
 23
3385.075433030024
 33
0.0
 14
2529.562192101642
 24
2275.075433030023
 34
0.0
 50
90.0
100
AcDbRotatedDimension
1001
ACAD
1000
DSTYLE
1002
{
1070
    40
1040
25.0
1070
    41
1040
1.5
1070
    43
1040
5.0
1070
    44
1040
0.5
1070
   140
1040
2.0
1070
   147
1040
1.0
1070
   176
1070
   256
1070
   177
1070
   256
1070
   178
1070
   256
1002
}
  0
TEXT
  5
C00B
330
747D
100
AcDbEntity
  8
0
100
AcDbText
 10
6277.347189020751
 20
344.5314540178005
 30
0.0
 40
40.0
  1
三和コンクリート工業株式会社
  7
SANWA
100
AcDbText
  0
LINE
  5
C00C
330
747D
100
AcDbEntity
  8
0
 62
     0
100
AcDbLine
 10
5997.553191489351
 20
830.0000000000064
 30
0.0
 11
7175.0
 21
830.0000000000064
 31
0.0
  0
LINE
  5
C00D
330
747D
100
AcDbEntity
  8
0
 62
     0
100
AcDbLine
 10
5997.553191489351
 20
670.0000000000045
 30
0.0
 11
7175.0
 21
670.0000000000045
 31
0.0
  0
LINE
  5
C00E
330
747D
100
AcDbEntity
  8
0
 62
     0
100
AcDbLine
 10
5337.553191489362
 20
990.000000000009
 30
0.0
 11
7175.0
 21
990.000000000009
 31
0.0
  0
LINE
  5
C00F
330
747D
100
AcDbEntity
  8
0
100
AcDbLine
 10
5337.553191489362
 20
510.0000000000022
 30
0.0
 11
7175.0
 21
510.0000000000022
 31
0.0
  0
LINE
  5
C010
330
747D
100
AcDbEntity
  8
枠
100
AcDbLine
 10
625.0
 20
250.0
 30
0.0
 11
7175.0
 21
250.0000000000054
 31
0.0
  0
LINE
  5
C011
330
747D
100
AcDbEntity
  8
0
100
AcDbLine
 10
5997.553191489351
 20
250.0000000000054
 30
0.0
 11
5997.553191489351
 21
990.000000000009
 31
0.0
  0
LINE
  5
C012
330
747D
100
AcDbEntity
  8
0
100
AcDbLine
 10
6077.553191489325
 20
510.0000000000022
 30
0.0
 11
6077.553191489325
 21
990.000000000009
 31
0.0
  0
LINE
  5
C013
330
747D
100
AcDbEntity
  8
0
100
AcDbLine
 10
5337.553191489362
 20
990.000000000009
 30
0.0
 11
5337.553191489362
 21
870.0000000000045
 31
0.0
  0
CIRCLE
  5
C014
330
747D
100
AcDbEntity
  8
0
 48
25.0
100
AcDbCircle
 10
1993.631977939759
 20
997.4652226668013
 30
0.0
 40
18.0
  0
LINE
  5
C015
330
747D
100
AcDbEntity
  8
0
 48
25.0
100
AcDbLine
 10
1843.631977939759
 20
1220.965222666801
 30
0.0
 11
1843.631977939752
 21
773.9652226668013
 31
0.0
  0
DIMENSION
  5
C016
330
747D
100
AcDbEntity
  8
寸法引出
 48
25.0
100
AcDbDimension
  2
*D71
 10
1993.631977939759
 20
823.2434378874923
 30
0.0
 11
1918.631977939759
 21
873.2434378874923
 31
0.0
 70
    32
  1
50
 71
     5
 42
150.0
  3
SANWA
100
AcDbAlignedDimension
 13
1843.631977939759
 23
923.9652226668013
 33
0.0
 14
1993.631977939759
 24
997.4652226668013
 34
0.0
100
AcDbRotatedDimension
1001
ACAD
1000
DSTYLE
1002
{
1070
    40
1040
25.0
1070
    41
1040
1.5
1070
    43
1040
5.0
1070
    44
1040
0.5
1070
   140
1040
2.0
1070
   147
1040
1.0
1070
   176
1070
   256
1070
   177
1070
   256
1070
   178
1070
   256
1002
}
  0
LINE
  5
C017
330
747D
100
AcDbEntity
  8
0
 48
25.0
100
AcDbLine
 10
2785.962149680086
 20
1064.965222666801
 30
0.0
 11
2785.962149680086
 21
929.9652226668014
 31
0.0
  0
LINE
  5
C018
330
747D
100
AcDbEntity
  8
0
 48
25.0
100
AcDbLine
 10
2104.63197793976
 20
1070.965222666801
 30
0.0
 11
2104.63197793976
 21
923.9652226668013
 31
0.0
  0
LINE
  5
C019
330
747D
100
AcDbEntity
  8
0
 48
25.0
100
AcDbLine
 10
2098.631977939759
 20
1064.965222666801
 30
0.0
 11
2098.631977939767
 21
929.9652226668014
 31
0.0
  0
DIMENSION
  5
C01A
330
747D
100
AcDbEntity
  8
寸法引出
 48
25.0
100
AcDbDimension
  2
*D70
 10
2337.23173669241
 20
1064.965222666801
 30
0.0
 11
2287.23173669241
 21
997.4652226668016
 31
0.0
 70
    32
  1
45
 71
     5
 42
135.0
  3
SANWA
100
AcDbAlignedDimension
 13
2098.631977939767
 23
929.9652226668014
 33
0.0
 14
2098.631977939759
 24
1064.965222666801
 34
0.0
 50
90.0
100
AcDbRotatedDimension
1001
ACAD
1000
DSTYLE
1002
{
1070
   279
1070
     1
1070
    40
1040
25.0
1070
    41
1040
1.5
1070
    43
1040
5.0
1070
    44
1040
0.5
1070
   140
1040
2.0
1070
   147
1040
1.0
1070
   176
1070
   256
1070
   177
1070
   256
1070
   178
1070
   256
1002
}
  0
LINE
  5
C01B
330
747D
100
AcDbEntity
  8
寸法引出
 48
25.0
100
AcDbLine
 10
2337.23173669241
 20
967.4652226668014
 30
0.0
 11
2337.23173669241
 21
1004.965222666801
 31
0.0
  0
LINE
  5
C01C
330
747D
100
AcDbEntity
  8
0
 48
25.0
100
AcDbLine
 10
2881.962149680086
 20
1027.465222666804
 30
0.0
 11
2881.962149680086
 21
967.465222666804
 31
0.0
  0
LINE
  5
C01D
330
747D
100
AcDbEntity
  8
0
 48
25.0
100
AcDbLine
 10
2875.962149680086
 20
1015.465222666804
 30
0.0
 11
2875.962149680086
 21
979.465222666804
 31
0.0
  0
LINE
  5
C01E
330
747D
100
AcDbEntity
  8
0
 48
25.0
100
AcDbLine
 10
1843.631977939759
 20
929.9652226668014
 30
0.0
 11
2098.631977939767
 21
929.9652226668014
 31
0.0
  0
LINE
  5
C01F
330
747D
100
AcDbEntity
  8
0
 48
25.0
100
AcDbLine
 10
1843.631977939759
 20
923.9652226668013
 30
0.0
 11
2104.63197793976
 21
923.9652226668013
 31
0.0
  0
DIMENSION
  5
C020
330
747D
100
AcDbEntity
  8
寸法引出
 48
25.0
100
AcDbDimension
  2
*D72
 10
2785.962149680086
 20
812.2532168494409
 30
0.0
 11
2781.162149680085
 21
862.2532168494409
 31
0.0
 70
    32
  1
3.2
 71
     5
 42
9.600000000002182
  3
SANWA
100
AcDbAlignedDimension
 13
2776.362149680084
 23
923.9652226668013
 33
0.0
 14
2785.962149680086
 24
929.9652226668014
 34
0.0
100
AcDbRotatedDimension
1001
ACAD
1000
DSTYLE
1002
{
1070
    40
1040
25.0
1070
    41
1040
1.5
1070
    43
1040
5.0
1070
    44
1040
0.5
1070
   140
1040
2.0
1070
   147
1040
1.0
1070
   176
1070
   256
1070
   177
1070
   256
1070
   178
1070
   256
1002
}
  0
MTEXT
  5
C021
330
747D
100
AcDbEntity
  8
寸法引出
 48
25.0
100
AcDbMText
 10
2287.23173669241
 20
889.2150609020763
 30
0.0
 40
50.0
 41
0.0
 71
     5
 72
     1
  1
\A1;2
  7
SANWA
 11
0.0000000000000001
 21
1.0
 31
0.0
 73
     1
 44
1.0
  0
LINE
  5
C022
330
747D
100
AcDbEntity
  8
寸法引出
 48
25.0
100
AcDbLine
 10
2337.23173669241
 20
886.4652226668013
 30
0.0
 11
2337.23173669241
 21
848.9652226668013
 31
0.0
  0
LINE
  5
C023
330
747D
100
AcDbEntity
  8
寸法引出
 48
25.0
100
AcDbLine
 10
2129.63197793976
 20
923.9652226668013
 30
0.0
 11
2349.73173669241
 21
923.9652226668013
 31
0.0
  0
LINE
  5
C024
330
747D
100
AcDbEntity
  8
寸法引出
 48
25.0
100
AcDbLine
 10
2123.631977939767
 20
929.9652226668014
 30
0.0
 11
2349.73173669241
 21
929.9652226668014
 31
0.0
  0
LINE
  5
C025
330
747D
100
AcDbEntity
  8
0
 48
25.0
100
AcDbLine
 10
2098.631977939767
 20
929.9652226668014
 30
0.0
 11
2104.63197793976
 21
923.9652226668013
 31
0.0
  0
SOLID
  5
C026
330
747D
100
AcDbEntity
  8
寸法引出
 48
25.0
100
AcDbTrace
 10
2330.981736692411
 20
886.4652226668013
 30
0.0
 11
2343.48173669241
 21
886.4652226668013
 31
0.0
 12
2337.23173669241
 22
923.9652226668013
 32
0.0
 13
2337.23173669241
 23
923.9652226668013
 33
0.0
  0
LINE
  5
C027
330
747D
100
AcDbEntity
  8
寸法引出
 48
25.0
100
AcDbLine
 10
2337.23173669241
 20
923.9652226668013
 30
0.0
 11
2337.23173669241
 21
929.9652226668014
 31
0.0
  0
SOLID
  5
C028
330
747D
100
AcDbEntity
  8
寸法引出
 48
25.0
100
AcDbTrace
 10
2330.981736692411
 20
967.4652226668014
 30
0.0
 11
2343.48173669241
 21
967.4652226668014
 31
0.0
 12
2337.23173669241
 22
929.9652226668014
 32
0.0
 13
2337.23173669241
 23
929.9652226668014
 33
0.0
  0
LINE
  5
C029
330
747D
100
AcDbEntity
  8
0
 48
25.0
100
AcDbLine
 10
2776.362149680084
 20
923.9652226668013
 30
0.0
 11
2776.362149680076
 21
773.9652226668013
 31
0.0
  0
LINE
  5
C02A
330
747D
100
AcDbEntity
  8
0
 48
25.0
100
AcDbLine
 10
2875.962149680086
 20
973.4652226668041
 30
0.0
 11
2875.962149680086
 21
967.465222666804
 31
0.0
  0
LINE
  5
C02B
330
747D
100
AcDbEntity
  8
0
 48
25.0
100
AcDbLine
 10
2875.962149680086
 20
967.465222666804
 30
0.0
 11
2881.962149680086
 21
967.465222666804
 31
0.0
  0
LINE
  5
C02C
330
747D
100
AcDbEntity
  8
0
 48
25.0
100
AcDbLine
 10
2785.962149680083
 20
929.9652226668014
 30
0.0
 11
2776.362149680076
 21
923.9652226668013
 31
0.0
  0
LINE
  5
C02D
330
747D
100
AcDbEntity
  8
0
 48
25.0
100
AcDbLine
 10
2785.962149680086
 20
979.465222666804
 30
0.0
 11
2875.962149680086
 21
979.465222666804
 31
0.0
  0
LINE
  5
C02E
330
747D
100
AcDbEntity
  8
0
 48
25.0
100
AcDbLine
 10
2785.962149680086
 20
973.4652226668041
 30
0.0
 11
2875.962149680086
 21
973.4652226668041
 31
0.0
  0
HATCH
  5
C02F
330
747D
100
AcDbEntity
  8
0
100
AcDbHatch
 10
0.0
 20
0.0
 30
0.0
210
0.0
220
0.0
230
1.0
  2
SOLID
 70
     1
 71
     0
 91
        4
 92
        7
 72
     1
 73
     1
 93
        2
 10
5814.65529385471
 20
121.5279938300056
 42
1.0
 10
5654.704872709524
 20
121.5279938300056
 42
1.0
 97
        0
 92
       22
 72
     1
 73
     1
 93
        2
 10
5810.65529385471
 20
121.5279938300056
 42
-1.0
 10
5658.704872709524
 20
121.5279938300056
 42
-1.0
 97
        0
 92
      136
 93
        4
 72
     1
 10
5694.397212041746
 20
118.5216325719377
 11
5778.282926327461
 21
118.5216325719377
 72
     1
 10
5778.282926327461
 20
118.5216325719377
 11
5778.282926327461
 21
194.6359182862235
 72
     1
 10
5778.282926327461
 20
194.6359182862235
 11
5694.397212041746
 21
194.6359182862235
 72
     1
 10
5694.397212041746
 20
194.6359182862235
 11
5694.397212041746
 21
118.5216325719377
 97
        0
 92
      136
 93
        4
 72
     1
 10
5692.828023008566
 20
58.98932838059899
 11
5777.970880151421
 21
58.98932838059899
 72
     1
 10
5777.970880151436
 20
58.98932838059899
 11
5777.970880151436
 21
138.8750426663132
 72
     1
 10
5777.970880151436
 20
138.8750426663132
 11
5692.82802300858
 21
138.8750426663132
 72
     1
 10
5692.828023008566
 20
138.8750426663132
 11
5692.828023008566
 21
58.98932838059898
 97
        0
 75
     0
 76
     1
 47
0.0602706122334892
 98
        2
 10
5772.997226392618
 20
190.2767456646358
 10
5772.997226392618
 20
190.2767456646358
  0
CIRCLE
  5
C030
330
747D
100
AcDbEntity
  8
0
100
AcDbCircle
 10
5734.680083282139
 20
121.5279938300054
 30
0.0
 40
79.97521057257928
  0
CIRCLE
  5
C031
330
747D
100
AcDbEntity
  8
0
100
AcDbCircle
 10
5734.680083282139
 20
121.5279938300054
 30
0.0
 40
75.97521057257927
  0
HATCH
  5
C032
330
747D
100
AcDbEntity
  8
0
100
AcDbHatch
 10
0.0
 20
0.0
 30
0.0
210
0.0
220
0.0
230
1.0
  2
SOLID
 70
     1
 71
     0
 91
        4
 92
        7
 72
     1
 73
     1
 93
        2
 10
5612.329075578863
 20
121.5279938300056
 42
1.0
 10
5452.378654433735
 20
121.5279938300056
 42
1.0
 97
        0
 92
       22
 72
     1
 73
     1
 93
        2
 10
5608.329075578862
 20
121.5279938300056
 42
-1.0
 10
5456.378654433706
 20
121.5279938300056
 42
-1.0
 97
        0
 92
      136
 93
        4
 72
     1
 10
5491.556708051649
 20
113.8021031153554
 11
5576.470993765935
 21
113.8021031153554
 72
     1
 10
5576.47099376595
 20
113.8021031153554
 11
5576.47099376595
 21
193.0021031153554
 72
     1
 10
5576.47099376595
 20
193.0021031153554
 11
5491.556708051663
 21
193.0021031153554
 72
     1
 10
5491.556708051649
 20
193.0021031153554
 11
5491.556708051649
 21
113.8021031153554
 97
        0
 92
       24
 93
        4
 72
     1
 10
5491.873233304184
 20
54.37358697902701
 11
5574.273233304186
 21
54.37358697902701
 72
     1
 10
5574.27323330415
 20
54.37358697902701
 11
5574.27323330415
 21
126.0307298361698
 72
     1
 10
5574.27323330415
 20
126.0307298361698
 11
5491.873233304148
 21
126.0307298361698
 72
     1
 10
5491.873233304184
 20
126.0307298361698
 11
5491.873233304184
 21
54.37358697902702
 97
        0
 75
     0
 76
     1
 47
0.0602706122334892
 98
        2
 10
5570.671008116798
 20
190.2767456646358
 10
5570.671008116798
 20
190.2767456646358
  0
TEXT
  5
C033
330
747D
100
AcDbEntity
  8
0
 48
2.0
100
AcDbText
 10
5504.756708051675
 20
132.7163888296408
 30
0.0
 40
40.0
  1
蒔
  7
SANWA
100
AcDbText
  0
CIRCLE
  5
C034
330
747D
100
AcDbEntity
  8
0
100
AcDbCircle
 10
5532.353865006328
 20
121.5279938300054
 30
0.0
 40
75.97521057257927
  0
CIRCLE
  5
C035
330
747D
100
AcDbEntity
  8
0
100
AcDbCircle
 10
5532.353865006328
 20
121.5279938300054
 30
0.0
 40
79.97521057257928
  0
TEXT
  5
C036
330
747D
100
AcDbEntity
  8
0
 48
2.0
100
AcDbText
 10
5707.082926327487
 20
134.8644897147951
 30
0.0
 40
40.0
  1
大
  7
SANWA
100
AcDbText
  0
TEXT
  5
C037
330
747D
100
AcDbEntity
  8
0
 48
2.0
100
AcDbText
 10
5503.816090447028
 20
71.80215840759865
 30
0.0
 40
40.0
  1
田
  7
SANWA
100
AcDbText
  0
TEXT
  5
C038
330
747D
100
AcDbEntity
  8
0
 48
2.0
100
AcDbText
 10
5706.142308722883
 20
78.24647123774184
 30
0.0
 40
40.0
  1
嶋
  7
SANWA
100
AcDbText
  0
TEXT
  5
C039
330
747D
100
AcDbEntity
  8
0
 48
2.0
100
AcDbText
 10
6015.480113215563
 20
541.5684862348999
 30
0.0
 40
27.99999999999999
  1
格
  7
SANWA
100
AcDbText
  0
LINE
  5
C03A
330
747D
100
AcDbEntity
  8
0
 62
     0
100
AcDbLine
 10
5337.553191489362
 20
630.0000000000068
 30
0.0
 11
5337.553191489362
 21
250.0000000000054
 31
0.0
  0
LINE
  5
C03B
330
747D
100
AcDbEntity
  8
0
100
AcDbLine
 10
5337.553191489362
 20
570.0000000000045
 30
0.0
 11
5337.553191489362
 21
630.0000000000068
 31
0.0
  0
LINE
  5
C03C
330
747D
100
AcDbEntity
  8
0
100
AcDbLine
 10
5337.553191489362
 20
630.0000000000068
 30
0.0
 11
5337.553191489362
 21
499.8919161829462
 31
0.0
  0
LINE
  5
C03D
330
747D
100
AcDbEntity
  8
0
 62
     0
100
AcDbLine
 10
5337.553191489362
 20
570.0000000000045
 30
0.0
 11
5997.553191489351
 21
570.0000000000045
 31
0.0
  0
LINE
  5
C03E
330
747D
100
AcDbEntity
  8
0
 62
     0
100
AcDbLine
 10
5337.553191489362
 20
450.0
 30
0.0
 11
5997.553191489351
 21
450.0
 31
0.0
  0
LINE
  5
C03F
330
747D
100
AcDbEntity
  8
0
100
AcDbLine
 10
5557.553191489343
 20
250.0000000000054
 30
0.0
 11
5557.553191489343
 21
570.0000000000045
 31
0.0
  0
TEXT
  5
C040
330
747D
100
AcDbEntity
  8
0
 48
2.0
100
AcDbText
 10
5422.081935578171
 20
356.9821364303525
 30
0.0
 40
40.0
  1
河
  7
SANWA
100
AcDbText
  0
HATCH
  5
C041
330
747D
100
AcDbEntity
  8
0
100
AcDbHatch
 10
0.0
 20
0.0
 30
0.0
210
0.0
220
0.0
230
1.0
  2
SOLID
 70
     1
 71
     0
 91
        2
 92
        7
 72
     1
 73
     1
 93
        2
 10
5529.654303105345
 20
351.6970659978517
 42
1.0
 10
5369.703881960217
 20
351.6970659978517
 42
1.0
 97
        0
 92
       22
 72
     1
 73
     1
 93
        2
 10
5525.654303105373
 20
351.6970659978517
 42
-1.0
 10
5373.703881960217
 20
351.6970659978517
 42
-1.0
 97
        0
 75
     0
 76
     1
 47
0.0602706122334892
 98
        2
 10
5487.99623564331
 20
420.4458178324818
 10
5487.99623564331
 20
420.4458178324818
  0
CIRCLE
  5
C042
330
747D
100
AcDbEntity
  8
0
100
AcDbCircle
 10
5449.679092532824
 20
351.6970659978515
 30
0.0
 40
75.97521057257927
  0
CIRCLE
  5
C043
330
747D
100
AcDbEntity
  8
0
100
AcDbCircle
 10
5449.679092532824
 20
351.6970659978515
 30
0.0
 40
79.97521057257928
  0
TEXT
  5
C044
330
747D
100
AcDbEntity
  8
0
 48
2.0
100
AcDbText
 10
5421.141317973525
 20
300.3641179532996
 30
0.0
 40
40.0
  1
口
  7
SANWA
100
AcDbText
  0
TEXT
  5
C045
330
747D
100
AcDbEntity
  8
0
 48
2.0
100
AcDbText
 10
5385.360299888547
 20
459.6196585260768
 30
0.0
 40
40.0
  1
検図
  7
SANWA
100
AcDbText
  0
TEXT
  5
C046
330
747D
100
AcDbEntity
  8
0
 48
2.0
100
AcDbText
 10
5391.248993407273
 20
522.0856316808067
 30
0.0
 40
40.0
  1
製図
  7
SANWA
100
AcDbText
  0
LINE
  5
C047
330
747D
100
AcDbEntity
  8
0
100
AcDbLine
 10
5337.553191489362
 20
570.0000000000045
 30
0.0
 11
5337.553191489362
 21
510.0000000000022
 31
0.0
  0
ARC
  5
C048
330
747D
100
AcDbEntity
  8
0
100
AcDbCircle
 10
6133.560357219678
 20
372.0146930146711
 30
0.0
 40
69.10631488841319
100
AcDbArc
 50
141.6476737862061
 51
263.3523262137979
  0
ARC
  5
C049
330
747D
100
AcDbEntity
  8
0
100
AcDbCircle
 10
6133.560357219678
 20
372.0146930146711
 30
0.0
 40
73.1063148884132
100
AcDbArc
 50
138.1364954470877
 51
266.8635045529165
  0
ARC
  5
C04A
330
747D
100
AcDbEntity
  8
0
100
AcDbCircle
 10
6133.560357219678
 20
372.0146930146711
 30
0.0
 40
59.10631488841318
100
AcDbArc
 50
142.7788203119019
 51
262.2211796880995
  0
ARC
  5
C04B
330
747D
100
AcDbEntity
  8
0
100
AcDbCircle
 10
6133.560357219678
 20
372.0146930146711
 30
0.0
 40
55.10631488841318
100
AcDbArc
 50
139.1625874111294
 51
265.8374125888726
  0
TEXT
  5
C04C
330
747D
100
AcDbEntity
  8
0
100
AcDbText
 10
6111.181671391569
 20
344.5314540178005
 30
0.0
 40
30.0
  1
和
  7
SANWA
100
AcDbText
  0
TEXT
  5
C04D
330
747D
100
AcDbEntity
  8
0
 48
2.0
100
AcDbText
 10
5866.335893084521
 20
368.186503452378
 30
0.0
 40
40.0
  1
中
  7
SANWA
100
AcDbText
  0
ARC
  5
C04E
330
747D
100
AcDbEntity
  8
0
100
AcDbCircle
 10
6133.560357219678
 20
372.0146930146711
 30
0.0
 40
55.10631488841318
100
AcDbArc
 50
274.1625874111285
 51
40.8374125888707
  0
ARC
  5
C04F
330
747D
100
AcDbEntity
  8
0
100
AcDbCircle
 10
6133.560357219678
 20
372.0146930146711
 30
0.0
 40
59.10631488841318
100
AcDbArc
 50
277.7788203119025
 51
37.2211796880979
  0
ARC
  5
C050
330
747D
100
AcDbEntity
  8
0
100
AcDbCircle
 10
6133.560357219678
 20
372.0146930146711
 30
0.0
 40
73.1063148884132
100
AcDbArc
 50
273.1364954470843
 51
41.86350455291269
  0
ARC
  5
C051
330
747D
100
AcDbEntity
  8
0
100
AcDbCircle
 10
6133.560357219678
 20
372.0146930146711
 30
0.0
 40
69.10631488841319
100
AcDbArc
 50
276.6476737862029
 51
38.35232621379395
  0
HATCH
  5
C052
330
747D
100
AcDbEntity
  8
0
100
AcDbHatch
 10
0.0
 20
0.0
 30
0.0
210
0.0
220
0.0
230
1.0
  2
SOLID
 70
     1
 71
     0
 91
        6
 92
        7
 72
     1
 73
     1
 93
        4
 10
6084.772249800881
 20
426.4596546829295
 42
0.0
 10
6097.525524441357
 20
413.7063800424442
 42
-0.3722683533228753
 10
6169.595189997956
 20
413.7063800424442
 42
0.0
 10
6182.348464638402
 20
426.4596546829324
 42
0.3824979940290045
 97
        0
 92
       22
 72
     1
 73
     1
 93
        4
 10
6176.440513371781
 20
426.2085576657966
 42
0.0
 10
6169.313383793983
 20
419.0814280879919
 42
0.3367429548951066
 10
6097.8073306453
 20
419.0814280879948
 42
0.0
 10
6090.680201067502
 20
426.2085576657938
 42
-0.347770427523089
 97
        0
 92
        7
 72
     1
 73
     1
 93
        4
 10
6175.252044247463
 20
408.0495257929527
 42
-0.6168583269099046
 10
6137.560357219656
 20
317.0537437817699
 42
0.0
 10
6137.560357219656
 20
299.0178898205272
 42
0.6292889159379735
 10
6188.00531888791
 20
420.802800433438
 42
0.0
 97
        0
 92
       22
 72
     1
 73
     1
 93
        4
 10
6187.754221870797
 20
414.8948491668107
 42
-0.5873104908889238
 10
6141.560357219656
 20
303.3729946276309
 42
0.0
 10
6141.560357219656
 20
313.4522779373469
 42
0.5741105922167471
 10
6180.627092292969
 20
407.7677195890089
 42
0.0
 97
        0
 92
        7
 72
     1
 73
     1
 93
        4
 10
6079.115395551372
 20
420.802800433438
 42
0.6292889159379591
 10
6129.560357219656
 20
299.0178898205272
 42
0.0
 10
6129.560357219656
 20
317.0537437817699
 42
-0.6168583269099637
 10
6091.868670191878
 20
408.0495257929527
 42
0.0
 97
        0
 92
       22
 72
     1
 73
     1
 93
        4
 10
6086.493622146313
 20
407.7677195890089
 42
0.5741105922167495
 10
6125.560357219685
 20
313.4522779373469
 42
0.0
 10
6125.560357219685
 20
303.3729946276309
 42
-0.5873104908889167
 10
6079.366492568516
 20
414.8948491668107
 42
0.0
 97
        0
 75
     0
 76
     1
 47
0.0143554168026844
 98
        6
 10
6165.580827973259
 20
434.8088762841882
 10
6165.580827973259
 20
434.8088762841882
 10
6180.523262244765
 20
411.5531024217716
 10
6180.523262244765
 20
411.5531024217716
 10
6088.282422260032
 20
410.6917769343397
 10
6088.282422260032
 20
410.6917769343397
  0
LINE
  5
C053
330
747D
100
AcDbEntity
  8
0
100
AcDbLine
 10
5777.553191489325
 20
250.0000000000054
 30
0.0
 11
5777.553191489325
 21
510.0000000000022
 31
0.0
  0
HATCH
  5
C054
330
747D
100
AcDbEntity
  8
0
100
AcDbHatch
 10
0.0
 20
0.0
 30
0.0
210
0.0
220
0.0
230
1.0
  2
SOLID
 70
     1
 71
     0
 91
        4
 92
        7
 72
     1
 73
     1
 93
        2
 10
5973.908260611745
 20
354.8500075675885
 42
1.0
 10
5813.957839466559
 20
354.8500075675885
 42
1.0
 97
        0
 92
       22
 72
     1
 73
     1
 93
        2
 10
5969.908260611744
 20
354.8500075675885
 42
-1.0
 10
5817.957839466559
 20
354.8500075675885
 42
-1.0
 97
        0
 92
      136
 93
        4
 72
     1
 10
5853.021607370218
 20
348.2436463095206
 11
5938.164464513072
 21
348.2436463095206
 72
     1
 10
5938.164464513087
 20
348.2436463095206
 11
5938.164464513087
 21
428.1293605952349
 72
     1
 10
5938.164464513087
 20
428.1293605952349
 11
5853.021607370232
 21
428.1293605952349
 72
     1
 10
5853.021607370218
 20
428.1293605952349
 11
5853.021607370218
 21
348.2436463095206
 97
        0
 92
      136
 93
        4
 72
     1
 10
5852.880989765588
 20
294.254199261039
 11
5936.423846908445
 21
294.254199261039
 72
     1
 10
5936.423846908452
 20
294.254199261039
 11
5936.423846908452
 21
369.3399135467533
 72
     1
 10
5936.423846908452
 20
369.3399135467533
 11
5852.880989765595
 21
369.3399135467533
 72
     1
 10
5852.880989765588
 20
369.3399135467533
 11
5852.880989765588
 21
294.254199261039
 97
        0
 75
     0
 76
     1
 47
0.0602706122334892
 98
        2
 10
5932.250193149652
 20
423.5987594022187
 10
5932.250193149652
 20
423.5987594022187
  0
CIRCLE
  5
C055
330
747D
100
AcDbEntity
  8
0
100
AcDbCircle
 10
5893.933050039173
 20
354.8500075675883
 30
0.0
 40
75.97521057257927
  0
CIRCLE
  5
C056
330
747D
100
AcDbEntity
  8
0
100
AcDbCircle
 10
5893.933050039173
 20
354.8500075675883
 30
0.0
 40
79.97521057257928
  0
TEXT
  5
C057
330
747D
100
AcDbEntity
  8
0
 48
2.0
100
AcDbText
 10
5865.395275479918
 20
311.5684849753247
 30
0.0
 40
40.0
  1
川
  7
SANWA
100
AcDbText
  0
LINE
  5
C058
330
747D
100
AcDbEntity
  8
0
100
AcDbLine
 10
6129.560357219681
 20
299.0178898205272
 30
0.0
 11
6129.560357219681
 21
317.0537437817702
 31
0.0
  0
LINE
  5
C059
330
747D
100
AcDbEntity
  8
0
100
AcDbLine
 10
6137.560357219674
 20
299.0178898205272
 30
0.0
 11
6137.560357219674
 21
317.0537437817702
 31
0.0
  0
LINE
  5
C05A
330
747D
100
AcDbEntity
  8
0
100
AcDbLine
 10
6141.56035721967
 20
303.3729946276307
 30
0.0
 11
6141.56035721967
 21
313.4522779373469
 31
0.0
  0
LINE
  5
C05B
330
747D
100
AcDbEntity
  8
0
100
AcDbLine
 10
6125.560357219685
 20
303.3729946276307
 30
0.0
 11
6125.560357219685
 21
313.4522779373469
 31
0.0
  0
TEXT
  5
C05C
330
747D
100
AcDbEntity
  8
0
 48
2.0
100
AcDbText
 10
5615.12664304264
 20
461.8928629188303
 30
0.0
 40
40.0
  1
設計
  7
SANWA
100
AcDbText
  0
TEXT
  5
C05D
330
747D
100
AcDbEntity
  8
0
 48
2.0
100
AcDbText
 10
5831.24899340728
 20
462.0856316808044
 30
0.0
 40
40.0
  1
製図
  7
SANWA
100
AcDbText
  0
TEXT
  5
C05E
330
747D
100
AcDbEntity
  8
0
 48
2.0
100
AcDbText
 10
5648.287171582342
 20
522.0856316808067
 30
0.0
 40
40.0
  1
2003. 1. 6
  7
SANWA
100
AcDbText
  0
ARC
  5
C05F
330
747D
100
AcDbEntity
  8
0
100
AcDbCircle
 10
6133.560357219678
 20
372.0146930146711
 30
0.0
 40
55.10631488841318
100
AcDbArc
 50
49.16258741113066
 51
130.83741258887
  0
ARC
  5
C060
330
747D
100
AcDbEntity
  8
0
100
AcDbCircle
 10
6133.560357219678
 20
372.0146930146711
 30
0.0
 40
59.10631488841318
100
AcDbArc
 50
52.77882031190561
 51
127.2211796880944
  0
TEXT
  5
C061
330
747D
100
AcDbEntity
  8
0
100
AcDbText
 10
6111.181671391569
 20
384.3868193377375
 30
0.0
 40
30.0
  1
三
  7
SANWA
100
AcDbText
  0
ARC
  5
C062
330
747D
100
AcDbEntity
  8
0
100
AcDbCircle
 10
6133.560357219678
 20
372.0146930146711
 30
0.0
 40
69.10631488841319
100
AcDbArc
 50
51.64767378620884
 51
128.3523262138006
  0
ARC
  5
C063
330
747D
100
AcDbEntity
  8
0
100
AcDbCircle
 10
6133.560357219678
 20
372.0146930146711
 30
0.0
 40
73.1063148884132
100
AcDbArc
 50
48.13649544708379
 51
131.8635045529163
  0
LINE
  5
C064
330
747D
100
AcDbEntity
  8
0
100
AcDbLine
 10
6091.868670191892
 20
408.0495257929555
 30
0.0
 11
6079.037959089786
 21
420.8802368950783
 31
0.0
  0
LINE
  5
C065
330
747D
100
AcDbEntity
  8
0
100
AcDbLine
 10
6086.493622146329
 20
407.7677195890092
 30
0.0
 11
6079.366492568537
 21
414.8948491668079
 31
0.0
  0
LINE
  5
C066
330
747D
100
AcDbEntity
  8
0
100
AcDbLine
 10
6097.525524441382
 20
413.7063800424471
 30
0.0
 11
6084.694813339276
 21
426.5370911445698
 31
0.0
  0
LINE
  5
C067
330
747D
100
AcDbEntity
  8
0
100
AcDbLine
 10
6097.807330645312
 20
419.0814280879976
 30
0.0
 11
6090.680201067517
 21
426.2085576657909
 31
0.0
  0
LINE
  5
C068
330
747D
100
AcDbEntity
  8
0
100
AcDbLine
 10
6180.627092292983
 20
407.7677195890092
 30
0.0
 11
6187.754221870775
 21
414.8948491668079
 31
0.0
  0
LINE
  5
C069
330
747D
100
AcDbEntity
  8
0
100
AcDbLine
 10
6175.252044247463
 20
408.0495257929555
 30
0.0
 11
6188.005318887917
 21
420.8028004334383
 31
0.0
  0
LINE
  5
C06A
330
747D
100
AcDbEntity
  8
0
100
AcDbLine
 10
6169.595189997973
 20
413.7063800424471
 30
0.0
 11
6182.348464638428
 21
426.4596546829352
 31
0.0
  0
LINE
  5
C06B
330
747D
100
AcDbEntity
  8
0
100
AcDbLine
 10
6169.313383793997
 20
419.0814280879976
 30
0.0
 11
6176.440513371792
 21
426.2085576657964
 31
0.0
  0
TEXT
  5
C06C
330
747D
100
AcDbEntity
  8
0
 48
2.0
100
AcDbText
 10
5542.345604725415
 20
928.7954769413772
 30
0.0
 40
40.0
  1
図面
  7
SANWA
100
AcDbText
  0
TEXT
  5
C06D
330
747D
100
AcDbEntity
  8
0
 48
2.0
100
AcDbText
 10
5544.098121932351
 20
723.9731911170224
 30
0.0
 40
40.0
  1
縮    尺
  7
SANWA
100
AcDbText
  0
TEXT
  5
C06E
330
747D
100
AcDbEntity
  8
0
 48
2.0
100
AcDbText
 10
5572.484217939949
 20
630.9755021622549
 30
0.0
 40
40.0
  1
1 : 25
  7
SANWA
100
AcDbText
  0
LINE
  5
C06F
330
747D
100
AcDbEntity
  8
0
 62
     0
100
AcDbLine
 10
5337.553191489362
 20
910.0000000000028
 30
0.0
 11
5997.553191489351
 21
910.0000000000028
 31
0.0
  0
LINE
  5
C070
330
747D
100
AcDbEntity
  8
0
 62
     0
100
AcDbLine
 10
5337.553191489362
 20
910.0000000000028
 30
0.0
 11
5997.553191489351
 21
910.0000000000028
 31
0.0
  0
LINE
  5
C071
330
747D
100
AcDbEntity
  8
0
 62
     0
100
AcDbLine
 10
5337.553191489362
 20
790.000000000009
 30
0.0
 11
5997.553191489351
 21
790.000000000009
 31
0.0
  0
LINE
  5
C072
330
747D
100
AcDbEntity
  8
0
 62
     0
100
AcDbLine
 10
5337.553191489362
 20
710.0000000000022
 30
0.0
 11
5997.553191489351
 21
710.0000000000022
 31
0.0
  0
LINE
  5
C073
330
747D
100
AcDbEntity
  8
0
 62
     0
100
AcDbLine
 10
5337.553191489362
 20
870.0000000000045
 30
0.0
 11
5337.553191489362
 21
630.0000000000068
 31
0.0
  0
LINE
  5
C074
330
747D
100
AcDbEntity
  8
0
100
AcDbLine
 10
5337.553191489362
 20
726.7609459798336
 30
0.0
 11
5337.553191489362
 21
882.1169115701533
 31
0.0
  0
LINE
  5
C075
330
747D
100
AcDbEntity
  8
0
100
AcDbLine
 10
5337.553191489362
 20
670.0000000000045
 30
0.0
 11
5337.553191489362
 21
726.7609459798336
 31
0.0
  0
TEXT
  5
C076
330
747D
100
AcDbEntity
  8
0
 48
2.0
100
AcDbText
 10
6014.605708847332
 20
777.3913655001133
 30
0.0
 40
27.99999999999999
  1
呼
  7
SANWA
100
AcDbText
  0
TEXT
  5
C077
330
747D
100
AcDbEntity
  8
0
 48
2.0
100
AcDbText
 10
6015.480113215563
 20
601.1410255214627
 30
0.0
 40
27.99999999999999
  1
規
  7
SANWA
100
AcDbText
  0
TEXT
  5
C078
330
747D
100
AcDbEntity
  8
0
 48
2.0
100
AcDbText
 10
6014.208558144768
 20
739.0543600013415
 30
0.0
 40
27.99999999999999
  1
び
  7
SANWA
100
AcDbText
  0
TEXT
  5
C079
330
747D
100
AcDbEntity
  8
0
 48
2.0
100
AcDbText
 10
6014.775609774872
 20
699.8772475912174
 30
0.0
 40
27.99999999999999
  1
名
  7
SANWA
100
AcDbText
  0
TEXT
  5
C07A
330
747D
100
AcDbEntity
  8
0
 48
2.0
100
AcDbText
 10
5653.898808185753
 20
931.0686527376557
 30
0.0
 40
40.0
  1
番号
  7
SANWA
100
AcDbText
  0
TEXT
  5
C07B
330
747D
100
AcDbEntity
  8
0
 48
2.0
100
AcDbText
 10
6014.721730996193
 20
868.3271054076557
 30
0.0
 40
27.99999999999999
  1
名
  7
SANWA
100
AcDbText
  0
TEXT
  5
C07C
330
747D
100
AcDbEntity
  8
0
 48
2.0
100
AcDbText
 10
6016.23849543494
 20
933.9614944784161
 30
0.0
 40
27.99999999999999
  1
品
  7
SANWA
100
AcDbText
  0
LINE
  5
C07D
330
747D
100
AcDbEntity
  8
0
 48
25.0
100
AcDbLine
 10
1843.631977939759
 20
1064.965222666801
 30
0.0
 11
2098.631977939759
 21
1064.965222666801
 31
0.0
  0
LINE
  5
C07E
330
747D
100
AcDbEntity
  8
0
 48
25.0
100
AcDbLine
 10
1843.631977939759
 20
1070.965222666801
 30
0.0
 11
2104.63197793976
 21
1070.965222666801
 31
0.0
  0
DIMENSION
  5
C07F
330
747D
100
AcDbEntity
  8
寸法引出
 48
25.0
100
AcDbDimension
  2
*D73
 10
2098.631977939759
 20
1151.460115882503
 30
0.0
 11
1971.13197793976
 21
1201.460115882503
 31
0.0
 70
    32
  1
85
 71
     5
 42
255.0
  3
SANWA
100
AcDbAlignedDimension
 13
1843.631977939759
 23
1070.965222666801
 33
0.0
 14
2098.631977939759
 24
1064.965222666801
 34
0.0
100
AcDbRotatedDimension
1001
ACAD
1000
DSTYLE
1002
{
1070
    40
1040
25.0
1070
    41
1040
1.5
1070
    43
1040
5.0
1070
    44
1040
0.5
1070
   140
1040
2.0
1070
   147
1040
1.0
1070
   176
1070
   256
1070
   177
1070
   256
1070
   178
1070
   256
1002
}
  0
LINE
  5
C080
330
747D
100
AcDbEntity
  8
0
 48
25.0
100
AcDbLine
 10
2776.362149680084
 20
1425.742488370167
 30
0.0
 11
2776.362149680084
 21
1070.965222666801
 31
0.0
  0
MTEXT
  5
C081
330
747D
100
AcDbEntity
  8
寸法引出
 48
25.0
100
AcDbMText
 10
2632.535234187973
 20
1215.909548903701
 30
0.0
 40
50.0
 41
0.0
 71
     5
 72
     1
  1
天端より150
  7
SANWA
 11
0.0000000000000001
 21
1.0
 31
0.0
 73
     1
 44
1.0
  0
LINE
  5
C082
330
747D
100
AcDbEntity
  8
寸法引出
 48
25.0
100
AcDbLine
 10
2690.239146125604
 20
1034.965222666801
 30
0.0
 11
2690.239146125604
 21
1425.742488370167
 31
0.0
  0
LINE
  5
C083
330
747D
100
AcDbEntity
  8
寸法引出
 48
25.0
100
AcDbLine
 10
2730.962149680086
 20
997.4652226668013
 30
0.0
 11
2677.739146125604
 21
997.4652226668013
 31
0.0
  0
DIMENSION
  5
C084
330
747D
100
AcDbEntity
  8
寸法引出
 48
25.0
100
AcDbDimension
  2
*D74
 10
2104.63197793976
 20
1151.460115882503
 30
0.0
 11
2101.63197793976
 21
1201.460115882503
 31
0.0
 70
    32
  1
2
 71
     5
 42
6.0
  3
SANWA
100
AcDbAlignedDimension
 13
2098.631977939759
 23
1064.965222666801
 33
0.0
 14
2104.63197793976
 24
1070.965222666801
 34
0.0
100
AcDbRotatedDimension
1001
ACAD
1000
DSTYLE
1002
{
1070
   279
1070
     1
1070
    40
1040
25.0
1070
    41
1040
1.5
1070
    43
1040
5.0
1070
    44
1040
0.5
1070
   140
1040
2.0
1070
   147
1040
1.0
1070
   176
1070
   256
1070
   177
1070
   256
1070
   178
1070
   256
1002
}
  0
SOLID
  5
C085
330
747D
100
AcDbEntity
  8
寸法引出
 48
25.0
100
AcDbTrace
 10
2330.981736692411
 20
1108.465222666801
 30
0.0
 11
2343.48173669241
 21
1108.465222666801
 31
0.0
 12
2337.23173669241
 22
1070.965222666801
 32
0.0
 13
2337.23173669241
 23
1070.965222666801
 33
0.0
  0
LINE
  5
C086
330
747D
100
AcDbEntity
  8
寸法引出
 48
25.0
100
AcDbLine
 10
2123.63197793976
 20
1064.965222666801
 30
0.0
 11
2349.73173669241
 21
1064.965222666801
 31
0.0
  0
LINE
  5
C087
330
747D
100
AcDbEntity
  8
寸法引出
 48
25.0
100
AcDbLine
 10
2129.63197793976
 20
1070.965222666801
 30
0.0
 11
2349.73173669241
 21
1070.965222666801
 31
0.0
  0
LINE
  5
C088
330
747D
100
AcDbEntity
  8
0
 48
25.0
100
AcDbLine
 10
2098.631977939759
 20
1064.965222666801
 30
0.0
 11
2104.63197793976
 21
1070.965222666801
 31
0.0
  0
LINE
  5
C089
330
747D
100
AcDbEntity
  8
寸法引出
 48
25.0
100
AcDbLine
 10
2337.23173669241
 20
1027.465222666801
 30
0.0
 11
2337.23173669241
 21
989.9652226668013
 31
0.0
  0
LINE
  5
C08A
330
747D
100
AcDbEntity
  8
寸法引出
 48
25.0
100
AcDbLine
 10
2337.23173669241
 20
1064.965222666801
 30
0.0
 11
2337.23173669241
 21
1070.965222666801
 31
0.0
  0
SOLID
  5
C08B
330
747D
100
AcDbEntity
  8
寸法引出
 48
25.0
100
AcDbTrace
 10
2330.981736692411
 20
1027.465222666801
 30
0.0
 11
2343.48173669241
 21
1027.465222666801
 31
0.0
 12
2337.23173669241
 22
1064.965222666801
 32
0.0
 13
2337.23173669241
 23
1064.965222666801
 33
0.0
  0
LINE
  5
C08C
330
747D
100
AcDbEntity
  8
寸法引出
 48
25.0
100
AcDbLine
 10
2337.23173669241
 20
1108.465222666801
 30
0.0
 11
2337.23173669241
 21
1145.965222666801
 31
0.0
  0
MTEXT
  5
C08D
330
747D
100
AcDbEntity
  8
寸法引出
 48
25.0
100
AcDbMText
 10
2287.23173669241
 20
1107.81261564068
 30
0.0
 40
50.0
 41
0.0
 71
     5
 72
     1
  1
\A1;2
  7
SANWA
 11
0.0000000000000001
 21
1.0
 31
0.0
 73
     1
 44
1.0
  0
SOLID
  5
C08E
330
747D
100
AcDbEntity
  8
寸法引出
 48
25.0
100
AcDbTrace
 10
2683.989146125604
 20
1034.965222666801
 30
0.0
 11
2696.489146125605
 21
1034.965222666801
 31
0.0
 12
2690.239146125604
 22
997.4652226668013
 32
0.0
 13
2690.239146125604
 23
997.4652226668013
 33
0.0
  0
MTEXT
  5
C08F
330
747D
100
AcDbEntity
  8
寸法引出
 48
25.0
100
AcDbMText
 10
3155.105390915541
 20
1158.217860262669
 30
0.0
 40
50.0
 41
0.0
 71
     5
 72
     1
  1
ｲﾝｻｰﾄM12×32
  7
SANWA
 73
     1
 44
1.0
  0
LEADER
  5
C090
330
747D
100
AcDbEntity
  8
寸法引出
 48
25.0
100
AcDbLeader
  3
SANWA
 76
     3
 10
2830.962149680086
 20
1021.465222666803
 30
0.0
 10
2909.992328055174
 20
1108.328197048177
 30
0.0
 10
3398.54750172576
 20
1108.328197048177
 30
0.0
1001
ACAD
1000
DSTYLE
1002
{
1070
    77
1070
     0
1070
    40
1040
25.0
1070
    41
1040
1.5
1070
    43
1040
5.0
1070
    44
1040
0.5
1070
   140
1040
2.0
1070
   147
1040
1.0
1070
   176
1070
   256
1070
   177
1070
   256
1070
   178
1070
   256
1002
}
  0
LINE
  5
C091
330
747D
100
AcDbEntity
  8
0
  6
CENTER2
 48
10.0
100
AcDbLine
 10
2755.962149680086
 20
997.4652226668013
 30
0.0
 11
2911.962149680086
 21
997.4652226668013
 31
0.0
  0
LINE
  5
C092
330
747D
100
AcDbEntity
  8
0
 48
25.0
100
AcDbLine
 10
2875.962149680086
 20
1027.465222666804
 30
0.0
 11
2875.962149680086
 21
1021.465222666803
 31
0.0
  0
LINE
  5
C093
330
747D
100
AcDbEntity
  8
0
 48
25.0
100
AcDbLine
 10
2875.962149680086
 20
1027.465222666804
 30
0.0
 11
2881.962149680086
 21
1027.465222666804
 31
0.0
  0
LINE
  5
C094
330
747D
100
AcDbEntity
  8
0
 48
25.0
100
AcDbLine
 10
2776.362149680084
 20
1070.965222666801
 30
0.0
 11
2785.962149680086
 21
1064.965222666801
 31
0.0
  0
LINE
  5
C095
330
747D
100
AcDbEntity
  8
0
 48
25.0
100
AcDbLine
 10
2785.962149680086
 20
1015.465222666804
 30
0.0
 11
2875.962149680086
 21
1015.465222666804
 31
0.0
  0
LINE
  5
C096
330
747D
100
AcDbEntity
  8
0
 48
25.0
100
AcDbLine
 10
2785.962149680086
 20
1021.465222666803
 30
0.0
 11
2875.962149680086
 21
1021.465222666803
 31
0.0
  0
TEXT
  5
C097
330
747D
100
AcDbEntity
  8
0
100
AcDbText
 10
2128.872002855437
 20
1549.214260489776
 30
0.0
 40
60.0
  1
継手部詳細図
  7
SANWA
 72
     4
 11
2392.186288569722
 21
1579.89997477549
 31
0.0
100
AcDbText
  0
LINE
  5
C098
330
747D
100
AcDbEntity
  8
0
100
AcDbLine
 10
2111.404005921263
 20
1529.135985872658
 30
0.0
 11
2669.347562151826
 21
1529.135985872658
 31
0.0
  0
DIMENSION
  5
C099
330
747D
100
AcDbEntity
  8
寸法引出
 48
25.0
100
AcDbDimension
  2
*D78
 10
2269.562192101643
 20
2097.763505928476
 30
0.0
 11
2214.562192101642
 21
2147.763505928475
 31
0.0
 70
    32
 71
     5
 42
110.0
  3
SANWA
100
AcDbAlignedDimension
 13
2159.562192101642
 23
2305.075433030022
 33
0.0
 14
2269.562192101643
 24
2275.075433030023
 34
0.0
100
AcDbRotatedDimension
1001
ACAD
1000
DSTYLE
1002
{
1070
    40
1040
25.0
1070
    41
1040
1.5
1070
    43
1040
5.0
1070
    44
1040
0.5
1070
   140
1040
2.0
1070
   147
1040
1.0
1070
   176
1070
   256
1070
   177
1070
   256
1070
   178
1070
   256
1002
}
  0
DIMENSION
  5
C09A
330
747D
100
AcDbEntity
  8
寸法引出
 48
25.0
100
AcDbDimension
  2
*D77
 10
2449.562192101643
 20
2097.763505928476
 30
0.0
 11
2359.562192101642
 21
2147.763505928475
 31
0.0
 70
    32
 71
     5
 42
180.0
  3
SANWA
100
AcDbAlignedDimension
 13
2269.562192101643
 23
2275.075433030023
 33
0.0
 14
2449.562192101643
 24
2275.075433030023
 34
0.0
100
AcDbRotatedDimension
1001
ACAD
1000
DSTYLE
1002
{
1070
   279
1070
     1
1070
    40
1040
25.0
1070
    41
1040
1.5
1070
    43
1040
5.0
1070
    44
1040
0.5
1070
   140
1040
2.0
1070
   147
1040
1.0
1070
   176
1070
   256
1070
   177
1070
   256
1070
   178
1070
   256
1002
}
  0
DIMENSION
  5
C09B
330
747D
100
AcDbEntity
  8
寸法引出
 48
25.0
100
AcDbDimension
  2
*D76
 10
2691.305063343781
 20
2275.075433030023
 30
0.0
 11
2641.305063343781
 21
2330.075433030023
 31
0.0
 70
    32
 71
     5
 42
110.0
  3
SANWA
100
AcDbAlignedDimension
 13
2559.562192101642
 23
2385.075433030023
 33
0.0
 14
2529.562192101642
 24
2275.075433030023
 34
0.0
 50
90.0
100
AcDbRotatedDimension
1001
ACAD
1000
DSTYLE
1002
{
1070
   279
1070
     1
1070
    40
1040
25.0
1070
    41
1040
1.5
1070
    43
1040
5.0
1070
    44
1040
0.5
1070
   140
1040
2.0
1070
   147
1040
1.0
1070
   176
1070
   256
1070
   177
1070
   256
1070
   178
1070
   256
1002
}
  0
DIMENSION
  5
C09C
330
747D
100
AcDbEntity
  8
寸法引出
 48
25.0
100
AcDbDimension
  2
*D75
 10
2559.562192101642
 20
2097.763505928476
 30
0.0
 11
2504.562192101642
 21
2147.763505928475
 31
0.0
 70
    32
 71
     5
 42
110.0
  3
SANWA
100
AcDbAlignedDimension
 13
2449.562192101643
 23
2275.075433030023
 33
0.0
 14
2559.562192101642
 24
2305.075433030022
 34
0.0
100
AcDbRotatedDimension
1001
ACAD
1000
DSTYLE
1002
{
1070
   279
1070
     1
1070
    40
1040
25.0
1070
    41
1040
1.5
1070
    43
1040
5.0
1070
    44
1040
0.5
1070
   140
1040
2.0
1070
   147
1040
1.0
1070
   176
1070
   256
1070
   177
1070
   256
1070
   178
1070
   256
1002
}
  0
LEADER
  5
C09D
330
747D
100
AcDbEntity
  8
寸法引出
 48
25.0
100
AcDbLeader
  3
SANWA
 76
     3
 10
2338.106320209386
 20
2385.843674084982
 30
0.0
 10
2279.791076480411
 20
2491.413061181903
 30
0.0
 10
2442.413663155574
 20
2491.413061181903
 30
0.0
1001
ACAD
1000
DSTYLE
1002
{
1070
    77
1070
     0
1070
    40
1040
25.0
1070
    41
1040
1.5
1070
    43
1040
5.0
1070
    44
1040
0.5
1070
   140
1040
2.0
1070
   147
1040
1.0
1070
   176
1070
   256
1070
   177
1070
   256
1070
   178
1070
   256
1002
}
  0
MTEXT
  5
C09E
330
747D
100
AcDbEntity
  8
寸法引出
 48
25.0
100
AcDbMText
 10
2059.582901896236
 20
2442.018688333454
 30
0.0
 40
50.0
 41
0.0
 71
     5
 72
     1
  1
50r
  7
SANWA
 73
     1
 44
1.0
  0
ARC
  5
C09F
330
747D
100
AcDbEntity
  8
0
 48
25.0
100
AcDbCircle
 10
2403.463121756096
 20
2438.960199093815
 30
0.0
 40
50.0
100
AcDbArc
 50
280.1137927058523
 51
355.7108466711807
  0
ARC
  5
C0A0
330
747D
100
AcDbEntity
  8
0
 48
25.0
100
AcDbCircle
 10
2315.661262447189
 20
2438.960199093815
 30
0.0
 40
50.0
100
AcDbArc
 50
184.2891533288194
 51
259.8862072941477
  0
LINE
  5
C0A1
330
747D
100
AcDbEntity
  8
0
  6
CENTER2
 48
10.0
100
AcDbLine
 10
2359.562192101642
 20
2435.075433030023
 30
0.0
 11
2359.562192101642
 21
2225.075433030022
 31
0.0
  0
ARC
  5
C0A2
330
747D
100
AcDbEntity
  8
0
 48
25.0
100
AcDbCircle
 10
2359.562192101642
 20
2685.075433030023
 30
0.0
 40
300.0
100
AcDbArc
 50
259.8862072941477
 51
280.1137927058519
  0
LINE
  5
C0A3
330
747D
100
AcDbEntity
  8
0
 48
15.0
100
AcDbLine
 10
2189.562192101643
 20
2275.075433030023
 30
0.0
 11
2529.562192101642
 21
2275.075433030023
 31
0.0
  0
LINE
  5
C0A4
330
747D
100
AcDbEntity
  8
0
 48
15.0
100
AcDbLine
 10
2189.562192101643
 20
2275.075433030023
 30
0.0
 11
2159.562192101642
 21
2305.075433030022
 31
0.0
  0
LEADER
  5
C0A5
330
747D
100
AcDbEntity
  8
寸法引出
 48
25.0
100
AcDbLeader
  3
SANWA
 76
     2
 10
2278.555263528731
 20
2405.446845870608
 30
0.0
 10
1997.223571049456
 20
2405.446845870608
 30
0.0
1001
ACAD
1000
DSTYLE
1002
{
1070
    77
1070
     0
1070
    40
1040
25.0
1070
    41
1040
1.5
1070
    43
1040
5.0
1070
    44
1040
0.5
1070
   140
1040
2.0
1070
   147
1040
1.0
1070
   176
1070
   256
1070
   177
1070
   256
1070
   178
1070
   256
1002
}
  0
LINE
  5
C0A6
330
747D
100
AcDbEntity
  8
0
 48
15.0
100
AcDbLine
 10
2529.562192101642
 20
2275.075433030023
 30
0.0
 11
2559.562192101642
 21
2305.075433030022
 31
0.0
  0
MTEXT
  5
C0A7
330
747D
100
AcDbEntity
  8
寸法引出
 48
25.0
100
AcDbMText
 10
2365.833323220304
 20
2527.984903644749
 30
0.0
 40
50.0
 41
0.0
 71
     5
 72
     1
  1
300r
  7
SANWA
 73
     1
 44
1.0
  0
LINE
  5
C0A8
330
747D
100
AcDbEntity
  8
0
100
AcDbLine
 10
5997.553191489351
 20
990.000000000009
 30
0.0
 11
6035.462120509059
 21
990.000000000009
 31
0.0
  0
LINE
  5
C0A9
330
747D
100
AcDbEntity
  8
0
 48
25.0
100
AcDbLine
 10
4123.469910207106
 20
2275.075433030023
 30
0.0
 11
6123.469910207106
 21
2275.075433030023
 31
0.0
  0
LINE
  5
C0AA
330
747D
100
AcDbEntity
  8
0
  6
HIDDEN2
 48
25.0
100
AcDbLine
 10
4123.469910207106
 20
2385.075433030024
 30
0.0
 11
6123.469910207106
 21
2385.075433030024
 31
0.0
  0
LINE
  5
C0AB
330
747D
100
AcDbEntity
  8
0
100
AcDbLine
 10
7425.0
 20
250.0
 30
0.0
 11
7425.0
 21
0.0
 31
0.0
  0
LINE
  5
C0AC
330
747D
100
AcDbEntity
  8
0
100
AcDbLine
 10
7425.0
 20
0.0
 30
0.0
 11
7175.0
 21
0.0
 31
0.0
  0
TEXT
  5
C0AD
330
747D
100
AcDbEntity
  8
0
100
AcDbText
 10
6406.848024316115
 20
570.4571428571519
 30
0.0
 40
40.0
  1
300×1000×2000
  7
SANWA
 72
     4
 11
6626.276595744686
 21
590.000000000009
 31
0.0
100
AcDbText
  0
TEXT
  5
C0AE
330
747D
100
AcDbEntity
  8
0
100
AcDbText
 10
6362.9623100304
 20
890.0000000000027
 30
0.0
 40
40.0
  1
マルチスリット側溝
  7
SANWA
 72
     4
 11
6626.276595744686
 21
910.0000000000028
 31
0.0
100
AcDbText
  0
LINE
  5
C0AF
330
747D
100
AcDbEntity
  8
枠
100
AcDbLine
 10
625.0
 20
5000.0
 30
0.0
 11
7175.0
 21
5000.0
 31
0.0
  0
DIMENSION
  5
C0B0
330
747D
100
AcDbEntity
  8
寸法引出
 48
25.0
100
AcDbDimension
  2
*D82
 10
2209.562192101642
 20
3536.260908638377
 30
0.0
 11
2184.562192101642
 21
3586.260908638377
 31
0.0
 70
    32
 71
     5
 42
50.0
  3
SANWA
100
AcDbAlignedDimension
 13
2159.562192101642
 23
3385.075433030024
 33
0.0
 14
2209.562192101642
 24
3385.075433030024
 34
0.0
100
AcDbRotatedDimension
1001
ACAD
1000
DSTYLE
1002
{
1070
    40
1040
25.0
1070
    41
1040
1.5
1070
    43
1040
5.0
1070
    44
1040
0.5
1070
   140
1040
2.0
1070
   147
1040
1.0
1070
   176
1070
   256
1070
   177
1070
   256
1070
   178
1070
   256
1002
}
  0
DIMENSION
  5
C0B1
330
747D
100
AcDbEntity
  8
寸法引出
 48
25.0
100
AcDbDimension
  2
*D81
 10
2509.562192101642
 20
3536.260908638377
 30
0.0
 11
2359.562192101642
 21
3586.260908638377
 31
0.0
 70
    32
 71
     5
 42
300.0
  3
SANWA
100
AcDbAlignedDimension
 13
2209.562192101642
 23
3385.075433030024
 33
0.0
 14
2509.562192101642
 24
3385.075433030024
 34
0.0
100
AcDbRotatedDimension
1001
ACAD
1000
DSTYLE
1002
{
1070
   279
1070
     1
1070
    40
1040
25.0
1070
    41
1040
1.5
1070
    43
1040
5.0
1070
    44
1040
0.5
1070
   140
1040
2.0
1070
   147
1040
1.0
1070
   176
1070
   256
1070
   177
1070
   256
1070
   178
1070
   256
1002
}
  0
DIMENSION
  5
C0B2
330
747D
100
AcDbEntity
  8
寸法引出
 48
25.0
100
AcDbDimension
  2
*D80
 10
2559.562192101642
 20
3536.260908638377
 30
0.0
 11
2534.562192101642
 21
3586.260908638377
 31
0.0
 70
    32
 71
     5
 42
50.0
  3
SANWA
100
AcDbAlignedDimension
 13
2509.562192101642
 23
3385.075433030024
 33
0.0
 14
2559.562192101642
 24
3385.075433030024
 34
0.0
100
AcDbRotatedDimension
1001
ACAD
1000
DSTYLE
1002
{
1070
   279
1070
     1
1070
    40
1040
25.0
1070
    41
1040
1.5
1070
    43
1040
5.0
1070
    44
1040
0.5
1070
   140
1040
2.0
1070
   147
1040
1.0
1070
   176
1070
   256
1070
   177
1070
   256
1070
   178
1070
   256
1002
}
  0
DIMENSION
  5
C0B3
330
747D
100
AcDbEntity
  8
寸法引出
 48
25.0
100
AcDbDimension
  2
*D79
 10
2559.562192101642
 20
3666.822907436358
 30
0.0
 11
2359.562192101642
 21
3716.822907436358
 31
0.0
 70
    32
 71
     5
 42
400.0
  3
SANWA
100
AcDbAlignedDimension
 13
2159.562192101642
 23
3385.075433030024
 33
0.0
 14
2559.562192101642
 24
3385.075433030024
 34
0.0
100
AcDbRotatedDimension
1001
ACAD
1000
DSTYLE
1002
{
1070
    40
1040
25.0
1070
    41
1040
1.5
1070
    43
1040
5.0
1070
    44
1040
0.5
1070
   140
1040
2.0
1070
   147
1040
1.0
1070
   176
1070
   256
1070
   177
1070
   256
1070
   178
1070
   256
1002
}
  0
DIMENSION
  5
C0B4
330
747D
100
AcDbEntity
  8
寸法引出
 48
25.0
100
AcDbDimension
  2
*D83
 10
2024.56721373256
 20
3235.075433030025
 30
0.0
 11
1974.567213732559
 21
3310.075433030025
 31
0.0
 70
    32
 71
     5
 42
150.0
  3
SANWA
100
AcDbAlignedDimension
 13
2159.562192101642
 23
3385.075433030025
 33
0.0
 14
2159.562192101642
 24
3235.075433030025
 34
0.0
 50
90.0
100
AcDbRotatedDimension
1001
ACAD
1000
DSTYLE
1002
{
1070
    40
1040
25.0
1070
    41
1040
1.5
1070
    43
1040
5.0
1070
    44
1040
0.5
1070
   140
1040
2.0
1070
   147
1040
1.0
1070
   176
1070
   256
1070
   177
1070
   256
1070
   178
1070
   256
1002
}
  0
LINE
  5
C0BC
330
747D
100
AcDbEntity
  8
0
 48
25.0
100
AcDbLine
 10
2556.362192101642
 20
3257.575433030025
 30
0.0
 11
2556.362192101642
 21
3212.575433030025
 31
0.0
  0
LINE
  5
C0BD
330
747D
100
AcDbEntity
  8
0
 48
25.0
100
AcDbLine
 10
2526.362192101641
 20
3241.075433030025
 30
0.0
 11
2526.362192101641
 21
3229.075433030025
 31
0.0
  0
LINE
  5
C0BE
330
747D
100
AcDbEntity
  8
0
 48
25.0
100
AcDbLine
 10
2524.362192101642
 20
3245.075433030025
 30
0.0
 11
2524.362192101642
 21
3225.075433030025
 31
0.0
  0
LINE
  5
C0C0
330
747D
100
AcDbEntity
  8
0
 48
25.0
100
AcDbLine
 10
2162.762192101643
 20
3257.575433030025
 30
0.0
 11
2162.762192101643
 21
3212.575433030025
 31
0.0
  0
LINE
  5
C0C1
330
747D
100
AcDbEntity
  8
0
 48
25.0
100
AcDbLine
 10
2194.762192101643
 20
3245.075433030025
 30
0.0
 11
2194.762192101643
 21
3225.075433030025
 31
0.0
  0
LINE
  5
C0C2
330
747D
100
AcDbEntity
  8
0
 48
25.0
100
AcDbLine
 10
2192.762192101643
 20
3241.075433030025
 30
0.0
 11
2192.762192101643
 21
3229.075433030025
 31
0.0
  0
LINE
  5
C0C4
330
747D
100
AcDbEntity
  8
0
 48
25.0
100
AcDbLine
 10
2162.762192101643
 20
3227.075433030025
 30
0.0
 11
2192.762192101643
 21
3227.075433030025
 31
0.0
  0
LINE
  5
C0C5
330
747D
100
AcDbEntity
  8
0
 48
25.0
100
AcDbLine
 10
2162.762192101643
 20
3229.075433030025
 30
0.0
 11
2192.762192101643
 21
3229.075433030025
 31
0.0
  0
LINE
  5
C0C6
330
747D
100
AcDbEntity
  8
0
 48
25.0
100
AcDbLine
 10
2159.562192101642
 20
3210.575433030025
 30
0.0
 11
2162.762192101643
 21
3212.575433030025
 31
0.0
  0
LINE
  5
C0C7
330
747D
100
AcDbEntity
  8
0
 48
25.0
100
AcDbLine
 10
2192.762192101643
 20
3227.075433030025
 30
0.0
 11
2192.762192101643
 21
3225.075433030025
 31
0.0
  0
LINE
  5
C0C8
330
747D
100
AcDbEntity
  8
0
 48
25.0
100
AcDbLine
 10
2192.762192101643
 20
3225.075433030025
 30
0.0
 11
2194.762192101643
 21
3225.075433030025
 31
0.0
  0
LINE
  5
C0C9
330
747D
100
AcDbEntity
  8
0
 48
25.0
100
AcDbLine
 10
2556.362192101642
 20
3229.075433030025
 30
0.0
 11
2526.362192101641
 21
3229.075433030025
 31
0.0
  0
LINE
  5
C0CA
330
747D
100
AcDbEntity
  8
0
 48
25.0
100
AcDbLine
 10
2556.362192101642
 20
3227.075433030025
 30
0.0
 11
2526.362192101641
 21
3227.075433030025
 31
0.0
  0
LINE
  5
C0CB
330
747D
100
AcDbEntity
  8
0
 48
25.0
100
AcDbLine
 10
2526.362192101641
 20
3225.075433030025
 30
0.0
 11
2524.362192101642
 21
3225.075433030025
 31
0.0
  0
LINE
  5
C0CC
330
747D
100
AcDbEntity
  8
0
 48
25.0
100
AcDbLine
 10
2526.362192101641
 20
3227.075433030025
 30
0.0
 11
2526.362192101641
 21
3225.075433030025
 31
0.0
  0
LINE
  5
C0CD
330
747D
100
AcDbEntity
  8
0
 48
25.0
100
AcDbLine
 10
2559.562192101642
 20
3210.575433030025
 30
0.0
 11
2556.362192101642
 21
3212.575433030025
 31
0.0
  0
LINE
  5
C0CE
330
747D
100
AcDbEntity
  8
0
 48
25.0
100
AcDbLine
 10
2162.762192101643
 20
3241.075433030025
 30
0.0
 11
2192.762192101643
 21
3241.075433030025
 31
0.0
  0
LINE
  5
C0CF
330
747D
100
AcDbEntity
  8
0
 48
25.0
100
AcDbLine
 10
2162.762192101643
 20
3243.075433030025
 30
0.0
 11
2192.762192101643
 21
3243.075433030025
 31
0.0
  0
LINE
  5
C0D0
330
747D
100
AcDbEntity
  8
0
 48
25.0
100
AcDbLine
 10
2159.562192101642
 20
3259.575433030025
 30
0.0
 11
2162.762192101643
 21
3257.575433030025
 31
0.0
  0
LINE
  5
C0D1
330
747D
100
AcDbEntity
  8
0
 48
25.0
100
AcDbLine
 10
2192.762192101643
 20
3245.075433030025
 30
0.0
 11
2192.762192101643
 21
3243.075433030025
 31
0.0
  0
LINE
  5
C0D2
330
747D
100
AcDbEntity
  8
0
 48
25.0
100
AcDbLine
 10
2192.762192101643
 20
3245.075433030025
 30
0.0
 11
2194.762192101643
 21
3245.075433030025
 31
0.0
  0
LINE
  5
C0D3
330
747D
100
AcDbEntity
  8
0
 48
15.0
100
AcDbLine
 10
2159.562192101642
 20
3385.075433030025
 30
0.0
 11
2209.562192101642
 21
3385.075433030025
 31
0.0
  0
LINE
  5
C0D4
330
747D
100
AcDbEntity
  8
0
 48
25.0
100
AcDbLine
 10
2556.362192101642
 20
3243.075433030025
 30
0.0
 11
2526.362192101641
 21
3243.075433030025
 31
0.0
  0
LINE
  5
C0D5
330
747D
100
AcDbEntity
  8
0
 48
25.0
100
AcDbLine
 10
2556.362192101642
 20
3241.075433030025
 30
0.0
 11
2526.362192101641
 21
3241.075433030025
 31
0.0
  0
LINE
  5
C0D6
330
747D
100
AcDbEntity
  8
0
 48
25.0
100
AcDbLine
 10
2526.362192101641
 20
3245.075433030025
 30
0.0
 11
2524.362192101642
 21
3245.075433030025
 31
0.0
  0
LINE
  5
C0D7
330
747D
100
AcDbEntity
  8
0
 48
25.0
100
AcDbLine
 10
2526.362192101641
 20
3245.075433030025
 30
0.0
 11
2526.362192101641
 21
3243.075433030025
 31
0.0
  0
LINE
  5
C0D8
330
747D
100
AcDbEntity
  8
0
 48
25.0
100
AcDbLine
 10
2559.562192101642
 20
3259.575433030025
 30
0.0
 11
2556.362192101642
 21
3257.575433030025
 31
0.0
  0
LINE
  5
C0D9
330
747D
100
AcDbEntity
  8
0
 48
15.0
100
AcDbLine
 10
2509.562192101642
 20
3385.075433030025
 30
0.0
 11
2559.562192101642
 21
3385.075433030025
 31
0.0
  0
TEXT
  5
C0DA
330
747D
100
AcDbEntity
  8
0
100
AcDbText
 10
2090.198783102188
 20
3834.62979896192
 30
0.0
 40
60.0
  1
正面図
  7
SANWA
 72
     4
 11
2221.855925959331
 21
3864.458370390492
 31
0.0
100
AcDbText
  0
LINE
  5
C0DB
330
747D
100
AcDbEntity
  8
0
100
AcDbLine
 10
2094.919033130914
 20
3813.694381487665
 30
0.0
 11
2341.898814353495
 21
3813.694381487665
 31
0.0
  0
DIMENSION
  5
C0DC
330
747D
100
AcDbEntity
  8
寸法引出
 48
25.0
100
AcDbDimension
  2
*D67
 10
6123.469910207106
 20
3531.360045059736
 30
0.0
 11
6063.469910207107
 21
3581.360045059736
 31
0.0
 70
    32
 71
     5
 42
120.0
  3
SANWA
100
AcDbAlignedDimension
 13
6003.469910207106
 23
3385.075433030023
 33
0.0
 14
6123.469910207106
 24
3385.075433030023
 34
0.0
100
AcDbRotatedDimension
1001
ACAD
1000
DSTYLE
1002
{
1070
   279
1070
     1
1070
    40
1040
25.0
1070
    41
1040
1.5
1070
    43
1040
5.0
1070
    44
1040
0.5
1070
   140
1040
2.0
1070
   147
1040
1.0
1070
   176
1070
   256
1070
   177
1070
   256
1070
   178
1070
   256
1002
}
  0
DIMENSION
  5
C0DD
330
747D
100
AcDbEntity
  8
寸法引出
 48
25.0
100
AcDbDimension
  2
*D66
 10
5243.469910207107
 20
3531.360045059736
 30
0.0
 11
5123.469910207106
 21
3581.360045059736
 31
0.0
 70
    32
 71
     5
 42
240.0
  3
SANWA
100
AcDbAlignedDimension
 13
5003.469910207106
 23
3385.075433030023
 33
0.0
 14
5243.469910207107
 24
3385.075433030023
 34
0.0
100
AcDbRotatedDimension
1001
ACAD
1000
DSTYLE
1002
{
1070
   279
1070
     1
1070
    40
1040
25.0
1070
    41
1040
1.5
1070
    43
1040
5.0
1070
    44
1040
0.5
1070
   140
1040
2.0
1070
   147
1040
1.0
1070
   176
1070
   256
1070
   177
1070
   256
1070
   178
1070
   256
1002
}
  0
DIMENSION
  5
C0DE
330
747D
100
AcDbEntity
  8
寸法引出
 48
25.0
100
AcDbDimension
  2
*D63
 10
4243.469910207106
 20
3531.360045059736
 30
0.0
 11
4183.469910207106
 21
3581.360045059736
 31
0.0
 70
    32
 71
     5
 42
120.0
  3
SANWA
100
AcDbAlignedDimension
 13
4123.469910207106
 23
3385.075433030023
 33
0.0
 14
4243.469910207106
 24
3385.075433030023
 34
0.0
100
AcDbRotatedDimension
1001
ACAD
1000
DSTYLE
1002
{
1070
    40
1040
25.0
1070
    41
1040
1.5
1070
    43
1040
5.0
1070
    44
1040
0.5
1070
   140
1040
2.0
1070
   147
1040
1.0
1070
   176
1070
   256
1070
   177
1070
   256
1070
   178
1070
   256
1002
}
  0
DIMENSION
  5
C0DF
330
747D
100
AcDbEntity
  8
寸法引出
 48
25.0
100
AcDbDimension
  2
*D62
 10
5003.469910207106
 20
3531.360045059736
 30
0.0
 11
4623.469910207106
 21
3581.360045059736
 31
0.0
 70
    32
 71
     5
 42
760.0
  3
SANWA
100
AcDbAlignedDimension
 13
4243.469910207106
 23
3385.075433030023
 33
0.0
 14
5003.469910207106
 24
3385.075433030023
 34
0.0
100
AcDbRotatedDimension
1001
ACAD
1000
DSTYLE
1002
{
1070
   279
1070
     1
1070
    40
1040
25.0
1070
    41
1040
1.5
1070
    43
1040
5.0
1070
    44
1040
0.5
1070
   140
1040
2.0
1070
   147
1040
1.0
1070
   176
1070
   256
1070
   177
1070
   256
1070
   178
1070
   256
1002
}
  0
DIMENSION
  5
C0E0
330
747D
100
AcDbEntity
  8
寸法引出
 48
25.0
100
AcDbDimension
  2
*D61
 10
6123.469910207106
 20
3654.488116556486
 30
0.0
 11
5123.469910207106
 21
3704.488116556486
 31
0.0
 70
    32
 71
     5
 42
2000.0
  3
SANWA
100
AcDbAlignedDimension
 13
4123.469910207106
 23
3385.075433030023
 33
0.0
 14
6123.469910207106
 24
3385.075433030023
 34
0.0
100
AcDbRotatedDimension
1001
ACAD
1000
DSTYLE
1002
{
1070
    40
1040
25.0
1070
    41
1040
1.5
1070
    43
1040
5.0
1070
    44
1040
0.5
1070
   140
1040
2.0
1070
   147
1040
1.0
1070
   176
1070
   256
1070
   177
1070
   256
1070
   178
1070
   256
1002
}
  0
DIMENSION
  5
C0E1
330
747D
100
AcDbEntity
  8
寸法引出
 48
25.0
100
AcDbDimension
  2
*D60
 10
6003.469910207106
 20
3531.360045059736
 30
0.0
 11
5623.469910207106
 21
3581.360045059736
 31
0.0
 70
    32
 71
     5
 42
760.0
  3
SANWA
100
AcDbAlignedDimension
 13
5243.469910207107
 23
3385.075433030023
 33
0.0
 14
6003.469910207106
 24
3385.075433030023
 34
0.0
100
AcDbRotatedDimension
1001
ACAD
1000
DSTYLE
1002
{
1070
   279
1070
     1
1070
    40
1040
25.0
1070
    41
1040
1.5
1070
    43
1040
5.0
1070
    44
1040
0.5
1070
   140
1040
2.0
1070
   147
1040
1.0
1070
   176
1070
   256
1070
   177
1070
   256
1070
   178
1070
   256
1002
}
  0
LINE
  5
C0E2
330
747D
100
AcDbEntity
  8
0
 48
25.0
100
AcDbLine
 10
4123.469910207106
 20
3385.075433030023
 30
0.0
 11
6123.469910207106
 21
3385.075433030023
 31
0.0
  0
DIMENSION
  5
C0E3
330
747D
100
AcDbEntity
  8
寸法引出
 48
25.0
100
AcDbDimension
  2
*D64
 10
4173.469910207106
 20
3100.00044002426
 30
0.0
 11
4148.469910207106
 21
3150.00044002426
 31
0.0
 70
    32
 71
     5
 42
50.0
  3
SANWA
100
AcDbAlignedDimension
 13
4123.469910207106
 23
3210.575433030023
 33
0.0
 14
4173.469910207106
 24
3235.075433030023
 34
0.0
100
AcDbRotatedDimension
1001
ACAD
1000
DSTYLE
1002
{
1070
    40
1040
25.0
1070
    41
1040
1.5
1070
    43
1040
5.0
1070
    44
1040
0.5
1070
   140
1040
2.0
1070
   147
1040
1.0
1070
   176
1070
   256
1070
   177
1070
   256
1070
   178
1070
   256
1002
}
  0
LINE
  5
C0E4
330
747D
100
AcDbEntity
  8
0
 48
25.0
100
AcDbLine
 10
4123.469910207106
 20
3212.575433030023
 30
0.0
 11
4208.469910207106
 21
3212.575433030023
 31
0.0
  0
LINE
  5
C0E5
330
747D
100
AcDbEntity
  8
0
 48
25.0
100
AcDbLine
 10
4123.469910207106
 20
3210.575433030023
 30
0.0
 11
4210.469910207103
 21
3210.575433030023
 31
0.0
  0
LINE
  5
C0E6
330
747D
100
AcDbEntity
  8
0
 48
25.0
100
AcDbLine
 10
4123.469910207106
 20
3259.575433030023
 30
0.0
 11
4210.469910207106
 21
3259.575433030023
 31
0.0
  0
LINE
  5
C0E7
330
747D
100
AcDbEntity
  8
0
 48
25.0
100
AcDbLine
 10
4123.469910207106
 20
3257.575433030023
 30
0.0
 11
4208.469910207102
 21
3257.575433030023
 31
0.0
  0
DIMENSION
  5
C0E8
330
747D
100
AcDbEntity
  8
寸法引出
 48
25.0
100
AcDbDimension
  2
*D65
 10
3996.237552926137
 20
3385.075433030023
 30
0.0
 11
3946.237552926136
 21
3310.075433030024
 31
0.0
 70
    32
 71
     5
 42
150.0
  3
SANWA
100
AcDbAlignedDimension
 13
4123.469910207106
 23
3235.075433030023
 33
0.0
 14
4123.469910207106
 24
3385.075433030023
 34
0.0
 50
90.0
100
AcDbRotatedDimension
1001
ACAD
1000
DSTYLE
1002
{
1070
    40
1040
25.0
1070
    41
1040
1.5
1070
    43
1040
5.0
1070
    44
1040
0.5
1070
   140
1040
2.0
1070
   147
1040
1.0
1070
   176
1070
   256
1070
   177
1070
   256
1070
   178
1070
   256
1002
}
  0
LINE
  5
C0E9
330
747D
100
AcDbEntity
  8
0
 48
25.0
100
AcDbLine
 10
4208.469910207102
 20
3257.575433030023
 30
0.0
 11
4208.469910207106
 21
3212.575433030023
 31
0.0
  0
LINE
  5
C0EA
330
747D
100
AcDbEntity
  8
0
 48
25.0
100
AcDbLine
 10
4210.469910207106
 20
3259.575433030023
 30
0.0
 11
4210.469910207103
 21
3210.575433030023
 31
0.0
  0
CIRCLE
  5
C0EB
330
747D
100
AcDbEntity
  8
0
 48
25.0
100
AcDbCircle
 10
4173.469910207106
 20
3235.075433030023
 30
0.0
 40
6.0
  0
LINE
  5
C0EC
330
747D
100
AcDbEntity
  8
0
 48
25.0
100
AcDbLine
 10
4210.469910207103
 20
3210.575433030023
 30
0.0
 11
4208.469910207106
 21
3212.575433030023
 31
0.0
  0
LINE
  5
C0ED
330
747D
100
AcDbEntity
  8
0
 48
25.0
100
AcDbLine
 10
4210.469910207106
 20
3259.575433030023
 30
0.0
 11
4208.469910207102
 21
3257.575433030023
 31
0.0
  0
LINE
  5
C0EE
330
747D
100
AcDbEntity
  8
0
  6
HIDDEN2
 48
10.0
100
AcDbLine
 10
4233.469910207106
 20
3352.075433030023
 30
0.0
 11
4253.469910207106
 21
3352.075433030023
 31
0.0
  0
LINE
  5
C0EF
330
747D
100
AcDbEntity
  8
0
  6
HIDDEN2
 48
10.0
100
AcDbLine
 10
4233.469910207106
 20
3385.075433030023
 30
0.0
 11
4233.469910207106
 21
3352.075433030023
 31
0.0
  0
LINE
  5
C0F0
330
747D
100
AcDbEntity
  8
0
  6
HIDDEN2
 48
10.0
100
AcDbLine
 10
4253.469910207106
 20
3385.075433030023
 30
0.0
 11
4253.469910207106
 21
3352.075433030023
 31
0.0
  0
LINE
  5
C0F1
330
747D
100
AcDbEntity
  8
0
 48
25.0
100
AcDbLine
 10
5123.469910207109
 20
2750.075433030023
 30
0.0
 11
5123.469910207106
 21
2690.075433030023
 31
0.0
  0
CIRCLE
  5
C0F2
330
747D
100
AcDbEntity
  8
0
 48
25.0
100
AcDbCircle
 10
5123.469910207106
 20
2720.075433030023
 30
0.0
 40
16.0
  0
LINE
  5
C0F3
330
747D
100
AcDbEntity
  8
0
 48
25.0
100
AcDbLine
 10
5093.46991020711
 20
2720.075433030023
 30
0.0
 11
5153.469910207107
 21
2720.075433030023
 31
0.0
  0
CIRCLE
  5
C0F4
330
747D
100
AcDbEntity
  8
0
 48
25.0
100
AcDbCircle
 10
5123.469910207106
 20
2720.075433030023
 30
0.0
 40
17.5
  0
LINE
  5
C0F5
330
747D
100
AcDbEntity
  8
0
  6
HIDDEN2
 48
10.0
100
AcDbLine
 10
5233.469910207106
 20
3352.075433030023
 30
0.0
 11
5253.469910207106
 21
3352.075433030023
 31
0.0
  0
LINE
  5
C0F6
330
747D
100
AcDbEntity
  8
0
  6
HIDDEN2
 48
10.0
100
AcDbLine
 10
4993.469910207107
 20
3385.075433030023
 30
0.0
 11
4993.469910207107
 21
3352.075433030023
 31
0.0
  0
LINE
  5
C0F7
330
747D
100
AcDbEntity
  8
0
  6
HIDDEN2
 48
10.0
100
AcDbLine
 10
5013.469910207106
 20
3385.075433030023
 30
0.0
 11
5013.469910207106
 21
3352.075433030023
 31
0.0
  0
LINE
  5
C0F8
330
747D
100
AcDbEntity
  8
0
  6
HIDDEN2
 48
10.0
100
AcDbLine
 10
4993.469910207107
 20
3352.075433030023
 30
0.0
 11
5013.469910207106
 21
3352.075433030023
 31
0.0
  0
LINE
  5
C0F9
330
747D
100
AcDbEntity
  8
0
  6
HIDDEN2
 48
10.0
100
AcDbLine
 10
5233.469910207106
 20
3385.075433030023
 30
0.0
 11
5233.469910207106
 21
3352.075433030023
 31
0.0
  0
LINE
  5
C0FA
330
747D
100
AcDbEntity
  8
0
  6
HIDDEN2
 48
10.0
100
AcDbLine
 10
5253.469910207106
 20
3385.075433030023
 30
0.0
 11
5253.469910207106
 21
3352.075433030023
 31
0.0
  0
LINE
  5
C0FB
330
747D
100
AcDbEntity
  8
0
 48
25.0
100
AcDbLine
 10
6038.46991020711
 20
3257.575433030023
 30
0.0
 11
6038.469910207107
 21
3212.575433030023
 31
0.0
  0
LINE
  5
C0FC
330
747D
100
AcDbEntity
  8
0
 48
25.0
100
AcDbLine
 10
6036.469910207106
 20
3259.575433030023
 30
0.0
 11
6036.469910207109
 21
3210.575433030023
 31
0.0
  0
CIRCLE
  5
C0FD
330
747D
100
AcDbEntity
  8
0
 48
25.0
100
AcDbCircle
 10
6073.469910207106
 20
3235.075433030023
 30
0.0
 40
6.0
  0
LINE
  5
C0FE
330
747D
100
AcDbEntity
  8
0
 48
25.0
100
AcDbLine
 10
6036.469910207109
 20
3210.575433030023
 30
0.0
 11
6038.469910207107
 21
3212.575433030023
 31
0.0
  0
LINE
  5
C0FF
330
747D
100
AcDbEntity
  8
0
 48
25.0
100
AcDbLine
 10
6123.469910207106
 20
3212.575433030023
 30
0.0
 11
6038.469910207107
 21
3212.575433030023
 31
0.0
  0
LINE
  5
C100
330
747D
100
AcDbEntity
  8
0
 48
25.0
100
AcDbLine
 10
6123.469910207106
 20
3210.575433030023
 30
0.0
 11
6036.469910207109
 21
3210.575433030023
 31
0.0
  0
LINE
  5
C101
330
747D
100
AcDbEntity
  8
0
 48
25.0
100
AcDbLine
 10
6036.469910207106
 20
3259.575433030023
 30
0.0
 11
6038.46991020711
 21
3257.575433030023
 31
0.0
  0
LINE
  5
C102
330
747D
100
AcDbEntity
  8
0
 48
25.0
100
AcDbLine
 10
6123.469910207106
 20
3257.575433030023
 30
0.0
 11
6038.46991020711
 21
3257.575433030023
 31
0.0
  0
LINE
  5
C103
330
747D
100
AcDbEntity
  8
0
 48
25.0
100
AcDbLine
 10
6123.469910207106
 20
3259.575433030023
 30
0.0
 11
6036.469910207106
 21
3259.575433030023
 31
0.0
  0
LINE
  5
C104
330
747D
100
AcDbEntity
  8
0
  6
HIDDEN2
 48
10.0
100
AcDbLine
 10
6013.469910207106
 20
3385.075433030023
 30
0.0
 11
6013.469910207106
 21
3352.075433030023
 31
0.0
  0
LINE
  5
C105
330
747D
100
AcDbEntity
  8
0
  6
HIDDEN2
 48
10.0
100
AcDbLine
 10
5993.469910207107
 20
3385.075433030023
 30
0.0
 11
5993.469910207107
 21
3352.075433030023
 31
0.0
  0
LINE
  5
C106
330
747D
100
AcDbEntity
  8
0
  6
HIDDEN2
 48
10.0
100
AcDbLine
 10
5993.469910207107
 20
3352.075433030023
 30
0.0
 11
6013.469910207106
 21
3352.075433030023
 31
0.0
  0
TEXT
  5
C107
330
747D
100
AcDbEntity
  8
0
100
AcDbText
 10
4130.877350444881
 20
3834.286941819064
 30
0.0
 40
60.0
  1
側面図
  7
SANWA
 72
     4
 11
4262.534493302024
 21
3864.458370390492
 31
0.0
100
AcDbText
  0
LINE
  5
C108
330
747D
100
AcDbEntity
  8
0
100
AcDbLine
 10
4138.163786169985
 20
3813.694381487665
 30
0.0
 11
4385.143567392566
 21
3813.694381487665
 31
0.0
  0
LINE
  5
C109
330
747D
100
AcDbEntity
  8
0
100
AcDbLine
 10
2384.312133845662
 20
4500.0
 30
0.0
 11
5290.761576616435
 21
4500.0
 31
0.0
  0
LINE
  5
C10A
330
747D
100
AcDbEntity
  8
0
100
AcDbLine
 10
2384.312133845662
 20
4480.000000000001
 30
0.0
 11
5290.761576616435
 21
4480.000000000001
 31
0.0
  0
TEXT
  5
C10B
330
747D
100
AcDbEntity
  8
0
100
AcDbText
 10
2420.801058842517
 20
4537.948317370435
 30
0.0
 40
70.0
  1
マルチスリット側溝 ３００×１０００×２０００
  7
SANWA
 72
     4
 11
3572.801058842517
 21
4572.948317370435
 31
0.0
100
AcDbText
  0
TEXT
  5
C10C
330
747D
100
AcDbEntity
  8
0
100
AcDbText
 10
4908.464691771168
 20
4544.491174513293
 30
0.0
 40
60.0
  1
W=1010㎏
  7
SANWA
 72
     4
 11
5084.007548914025
 21
4572.948317370435
 31
0.0
100
AcDbText
  0
LINE
  5
C10D
330
747D
100
AcDbEntity
  8
0
100
AcDbLine
 10
7425.0
 20
5250.0
 30
0.0
 11
7425.0
 21
5000.0
 31
0.0
  0
LINE
  5
C10E
330
747D
100
AcDbEntity
  8
0
100
AcDbLine
 10
7175.0
 20
5250.0
 30
0.0
 11
7425.0
 21
5250.0
 31
0.0
  0
DIMENSION
  5
CD1D
330
747D
100
AcDbEntity
  8
寸法引出
 48
25.0
100
AcDbDimension
  2
*D91
 10
5317.011186378412
 20
2720.075433030023
 30
0.0
 11
5267.011186378411
 21
3052.575433030024
 31
0.0
 70
    32
 71
     5
 42
665.0
  3
SANWA
100
AcDbAlignedDimension
 13
5123.469910207109
 23
3385.075433030023
 33
0.0
 14
5153.469910207107
 24
2720.075433030023
 34
0.0
 50
90.0
100
AcDbRotatedDimension
1001
ACAD
1000
DSTYLE
1002
{
1070
    40
1040
25.0
1070
    41
1040
1.5
1070
    43
1040
5.0
1070
    44
1040
0.5
1070
   140
1040
2.0
1070
   147
1040
1.0
1070
   176
1070
   256
1070
   177
1070
   256
1070
   178
1070
   256
1002
}
  0
MTEXT
  5
CD49
330
747D
100
AcDbEntity
  8
寸法引出
 48
25.0
100
AcDbMText
 10
5384.084345609867
 20
2554.746430724722
 30
0.0
 40
50.0
 41
0.0
 71
     5
 72
     1
  1
吊り穴
  7
SANWA
 73
     1
 44
1.0
  0
LEADER
  5
CD4A
330
747D
100
AcDbEntity
  8
寸法引出
 48
25.0
100
AcDbLeader
  3
SANWA
 76
     3
 10
5136.710573796401
 20
2708.632757306436
 30
0.0
 10
5252.511711584564
 20
2515.48516874508
 30
0.0
 10
5506.809933571581
 20
2515.48516874508
 30
0.0
1001
ACAD
1000
DSTYLE
1002
{
1070
    77
1070
     0
1070
    40
1040
25.0
1070
    41
1040
1.5
1070
    43
1040
5.0
1070
    44
1040
0.5
1070
   140
1040
2.0
1070
   147
1040
1.0
1070
   176
1070
   256
1070
   177
1070
   256
1070
   178
1070
   256
1002
}
  0
LINE
  5
CD54
330
747D
100
AcDbEntity
  8
0
 48
15.0
100
AcDbLine
 10
2189.597156205502
 20
3383.893340958403
 30
0.0
 11
2245.836261056621
 21
2434.03860961011
 31
0.0
  0
LINE
  5
CD55
330
747D
100
AcDbEntity
  8
0
 48
15.0
100
AcDbLine
 10
2473.288123146663
 20
2434.03860961011
 30
0.0
 11
2529.527227997784
 21
3383.893340958403
 31
0.0
  0
ARC
  5
CD56
330
747D
100
AcDbEntity
  8
0
 48
25.0
100
AcDbCircle
 10
2359.562192101642
 20
2685.075433030023
 30
0.0
 40
320.0
100
AcDbArc
 50
259.8862072941477
 51
280.1137927058519
  0
ARC
  5
CD57
330
747D
100
AcDbEntity
  8
0
 48
25.0
100
AcDbCircle
 10
2403.463121756096
 20
2438.960199093815
 30
0.0
 40
70.0
100
AcDbArc
 50
280.1137927058523
 51
355.7108466711807
  0
ARC
  5
CD58
330
747D
100
AcDbEntity
  8
0
 48
25.0
100
AcDbCircle
 10
2315.661262447189
 20
2438.960199093815
 30
0.0
 40
70.0
100
AcDbArc
 50
184.2891533288194
 51
259.8862072941477
  0
VIEWPORT
  5
7540
330
747A
100
AcDbEntity
 67
     1
  8
0
100
AcDbViewport
 10
2878.243789599006
 20
970.3639114717196
 30
0.0
 40
6257.342359533289
 41
4285.736489239756
 68
     1
 69
     1
 12
2878.243789599006
 22
970.3639114717196
 13
0.0
 23
0.0
 14
10.0
 24
10.0
 15
10.0
 25
10.0
 16
0.0
 26
0.0
 36
1.0
 17
0.0
 27
0.0
 37
0.0
 42
50.0
 43
0.0
 44
0.0
 45
4285.736489239756
 50
0.0
 51
0.0
 72
   100
 90
    32800
  1

281
     0
 71
     1
 74
     0
110
0.0
120
0.0
130
0.0
111
1.0
121
0.0
131
0.0
112
0.0
122
1.0
132
0.0
 79
     0
146
0.0
  0
TEXT
  5
7737
330
747A
100
AcDbEntity
 67
     1
  8
0
 48
2.0
100
AcDbText
 10
331.8711968111849
 20
20.60428158404022
 30
0.0
 40
2.0
  1

  7
SANWA
100
AcDbText
  0
ENDSEC
  0
SECTION
  2
OBJECTS
  0
DICTIONARY
  5
7471
330
0
100
AcDbDictionary
281
     1
  3
ACAD_GROUP
350
7472
  3
ACAD_LAYOUT
350
7F6B
  3
ACAD_MLINESTYLE
350
7473
  3
ACAD_PLOTSETTINGS
350
7F6C
  3
ACAD_PLOTSTYLENAME
350
7F69
  3
AcadDim
350
C878
  3
ACDBVARIABLEDICTIONARY
350
789B
  0
DICTIONARY
  5
7472
102
{ACAD_REACTORS
330
7471
102
}
330
0
100
AcDbDictionary
281
     1
  0
DICTIONARY
  5
7F6B
102
{ACAD_REACTORS
330
7471
102
}
330
7471
100
AcDbDictionary
281
     1
  3
Model
350
7F6D
  3
ﾚｲｱｳﾄ1
350
7F6E
  0
DICTIONARY
  5
7473
102
{ACAD_REACTORS
330
7471
102
}
330
0
100
AcDbDictionary
281
     1
  3
STANDARD
350
7480
  0
DICTIONARY
  5
7F6C
102
{ACAD_REACTORS
330
7471
102
}
330
7471
100
AcDbDictionary
281
     1
  0
ACDBDICTIONARYWDFLT
  5
7F69
102
{ACAD_REACTORS
330
7471
102
}
330
7471
100
AcDbDictionary
281
     1
  3
Normal
350
7F6A
100
AcDbDictionaryWithDefault
340
7F6A
  0
XRECORD
  5
C878
102
{ACAD_REACTORS
330
7471
102
}
330
7471
100
AcDbXrecord
280
     1
 90
   990106
  3

 60
     4
 61
     0
 62
     1
 63
     3
 64
     0
 65
     0
 66
     0
 67
     3
 68
     1
 69
     0
 70
     0
 71
     0
 72
     0
 40
0.0
170
     0
  0
DICTIONARY
  5
789B
102
{ACAD_REACTORS
330
7471
102
}
330
7471
100
AcDbDictionary
281
     1
  3
DIMASSOC
350
7F75
  3
SORTENTS
350
789C
  0
LAYOUT
  5
7F6D
102
{ACAD_REACTORS
330
7F6B
102
}
330
7F6B
100
AcDbPlotSettings
  1

  2
FX DocuCentre Color f360
  4
A4
  6

 40
4.857749938964843
 41
4.942390441894531
 42
4.942413330078125
 43
4.857757568359375
 44
209.9733276367187
 45
297.0106506347656
 46
5.089999999999999
 47
12.61
 48
17009.53558249992
 49
250.0000000032441
140
23559.53558249992
141
5000.000000003245
142
1.0
143
25.0
 70
 11940
 72
     1
 73
     1
 74
     4
  7
sanwa3.ctb
 75
     0
147
0.04
148
-17009.53558249992
149
-250.0000000032441
100
AcDbLayout
  1
Model
 70
     1
 71
     0
 10
0.0
 20
0.0
 11
12.0
 21
9.0
 12
0.0
 22
0.0
 32
0.0
 14
0.0
 24
0.0
 34
0.0
 15
0.0
 25
0.0
 35
0.0
146
0.0
 13
0.0
 23
0.0
 33
0.0
 16
1.0
 26
0.0
 36
0.0
 17
0.0
 27
1.0
 37
0.0
 76
     0
330
747D
  0
LAYOUT
  5
7F6E
102
{ACAD_REACTORS
330
7F6B
102
}
330
7F6B
100
AcDbPlotSettings
  1

  2
RICOH NX-510
  4
A4
  6

 40
5.873749732971191
 41
4.92125654220581
 42
7.588241577148437
 43
5.81024169921875
 44
209.9944915771484
 45
296.989501953125
 46
0.0
 47
0.0
 48
0.0
 49
0.0
140
0.0
141
0.0
142
1.0
143
20.17331812743451
 70
   688
 72
     1
 73
     1
 74
     1
  7
sanwa3.ctb
 75
     0
147
0.0495704273180553
148
0.1762079097297828
149
1029.28590836146
100
AcDbLayout
  1
ﾚｲｱｳﾄ1
 70
     1
 71
     1
 10
-117.3880621053552
 20
-1147.778930325621
 11
5873.875641303368
 21
3088.506753269061
 12
0.0
 22
0.0
 32
0.0
 14
1.000000000000000E+20
 24
1.000000000000000E+20
 34
1.000000000000000E+20
 15
-1.000000000000000E+20
 25
-1.000000000000000E+20
 35
-1.000000000000000E+20
146
0.0
 13
0.0
 23
0.0
 33
0.0
 16
1.0
 26
0.0
 36
0.0
 17
0.0
 27
1.0
 37
0.0
 76
     0
330
747A
331
7540
  0
MLINESTYLE
  5
7480
102
{ACAD_REACTORS
330
7473
102
}
330
0
100
AcDbMlineStyle
  2
STANDARD
 70
     0
  3

 62
     0
 51
90.0
 52
90.0
 71
     2
 49
0.5
 62
   256
  6
BYLAYER
 49
-0.5
 62
   256
  6
BYLAYER
  0
ACDBPLACEHOLDER
  5
7F6A
102
{ACAD_REACTORS
330
7F69
102
}
330
7F69
  0
DICTIONARYVAR
  5
7F75
102
{ACAD_REACTORS
330
789B
102
}
330
789B
100
DictionaryVariables
280
     0
  1
1
  0
DICTIONARYVAR
  5
789C
102
{ACAD_REACTORS
330
789B
102
}
330
789B
100
DictionaryVariables
280
     0
  1
96
  0
ENDSEC
  0
EOF
